<?xml version="1.0" standalone="no"?>
<!DOCTYPE svg PUBLIC "-//W3C//DTD SVG 1.1//EN" "http://www.w3.org/Graphics/SVG/1.1/DTD/svg11.dtd" >
<svg xmlns="http://www.w3.org/2000/svg" xmlns:xlink="http://www.w3.org/1999/xlink" version="1.1">
<metadata>
Created by FontForge 20170731 at Fri Jun 15 17:01:58 2018
 By Aleksey,,,
(c) 2018 Microsoft Corporation. All Rights Reserved.
Hebrew OpenType Layout logic copyright (c) 2003 &#38; 2007, Ralph Hancock &#38; John Hudson. This layout logic for Biblical Hebrew is open source software under the MIT License; see embedded license description for details.
</metadata>
<defs>
<font id="Calibri-Light" horiz-adv-x="0" >
  <font-face 
    font-family="Calibri Light"
    font-weight="300"
    font-stretch="normal"
    units-per-em="2048"
    panose-1="2 15 3 2 2 2 4 3 2 4"
    ascent="1536"
    descent="-512"
    x-height="946"
    cap-height="1294"
    bbox="-1047 -550 2680 1950"
    underline-thickness="104"
    underline-position="-417"
    unicode-range="U+000D-FEFF"
  />
<missing-glyph horiz-adv-x="1038" 
d="M973 1294v-1294h-927v1294h927zM897 70v1154h-778v-1154h778zM760 860q0 -60 -18 -107t-50.5 -79t-76.5 -49.5t-96 -18.5l-5 -170q0 -8 -11 -11.5t-32 -3.5q-10 0 -17 1t-12 3t-7.5 4.5t-2.5 6.5l-4 200q0 23 13 33.5t34 10.5h20q49 0 81.5 13.5t52.5 36.5t28.5 55
t8.5 68q0 80 -44 126t-142 46q-39 0 -70.5 -8.5t-55.5 -19t-40 -19t-23 -8.5q-3 0 -6.5 1.5t-6 6t-4 12t-1.5 19.5t2.5 21.5t10.5 17.5q7 7 27 16.5t47.5 18.5t61 15.5t66.5 6.5q69 0 120 -19t84.5 -52t50.5 -78t17 -96zM536 267q0 -18 -3 -30t-10 -19.5t-18.5 -10.5
t-28.5 -3q-18 0 -30 3t-19.5 10.5t-10.5 19.5t-3 30t3 30t10.5 19.5t19.5 10.5t30 3q17 0 28.5 -3t18.5 -10.5t10 -19.5t3 -30z" />
    <glyph glyph-name="uniFB00" unicode="ff" horiz-adv-x="1175" 
d="M1200 1311q0 -23 -5 -34t-16 -11q-8 0 -19.5 5t-29 11t-40 11t-50.5 5q-83 0 -116.5 -58.5t-33.5 -186.5v-107h222q7 0 12.5 -3t9.5 -9.5t6 -16t2 -22.5q0 -25 -8 -37.5t-22 -12.5h-222v-825q0 -6 -3 -11t-9.5 -8t-18 -5t-28.5 -2q-18 0 -29.5 2t-18 5t-9.5 8t-3 11v825
h-444v-825q0 -6 -3 -11t-10 -8t-18.5 -5t-28.5 -2t-28.5 2t-18.5 5t-9.5 8t-2.5 11v825h-136q-14 0 -21.5 12.5t-7.5 37.5q0 13 2 22.5t5.5 16t9 9.5t12.5 3h136v96q0 94 17.5 160t52 107.5t85.5 60.5t117 19q44 0 76 -8t50 -16q9 -4 14.5 -9.5t9 -13.5t5 -18.5t1.5 -23.5
q0 -23 -4.5 -34t-15.5 -11q-8 0 -20 5t-29.5 11t-40 11t-50.5 5q-83 0 -116 -58.5t-33 -186.5v-96h444v107q0 94 18 160t52.5 107.5t85.5 60.5t117 19q43 0 75.5 -8t50.5 -16q8 -4 14 -9.5t9.5 -13.5t5 -18.5t1.5 -23.5z" />
    <glyph glyph-name="uniFB01" unicode="fi" horiz-adv-x="1057" 
d="M908 1229q0 -23 -3.5 -38.5t-12 -25t-23.5 -13.5t-38 -4t-38 4t-24 13.5t-12.5 25t-3.5 38.5t3.5 38.5t12.5 25.5t24 14t38 4t38 -4t23.5 -14t12 -25.5t3.5 -38.5zM890 20q0 -6 -3 -11t-9.5 -8t-18 -5t-28.5 -2q-18 0 -29.5 2t-18 5t-9.5 8t-3 11v825h-444v-825
q0 -6 -3 -11t-9.5 -8t-18 -5t-29.5 -2q-17 0 -28.5 2t-18.5 5t-9.5 8t-2.5 11v825h-136q-14 0 -21.5 12.5t-7.5 37.5q0 13 2 22.5t5.5 16t9 9.5t12.5 3h136v107q0 94 17.5 160t51.5 107.5t83.5 60.5t112.5 19q22 0 43 -2t38.5 -5.5t30 -8t17 -9t7.5 -9.5t4.5 -11.5
t2.5 -15.5t1 -21q0 -22 -4.5 -33t-15.5 -11q-8 0 -17 3.5t-23.5 8t-35.5 8.5t-52 4q-78 0 -110 -58.5t-32 -186.5v-107h526q20 0 28.5 -11.5t8.5 -29.5v-885z" />
    <glyph glyph-name="uniFB02" unicode="fl" horiz-adv-x="1057" 
d="M890 20q0 -6 -3 -11t-9.5 -8t-18 -5t-28.5 -2q-18 0 -29.5 2t-18 5t-9.5 8t-3 11v1256q-2 -2 -5 -2.5t-9 -0.5q-12 0 -39 6.5t-55.5 10.5t-54 6t-48.5 2q-71 0 -116.5 -14.5t-71.5 -44.5t-35.5 -76.5t-9.5 -109.5v-107h205q7 0 12.5 -3t9.5 -9.5t6 -16t2 -22.5
q0 -25 -8 -37.5t-22 -12.5h-205v-825q0 -6 -3 -11t-9.5 -8t-18 -5t-29.5 -2q-17 0 -28.5 2t-18.5 5t-9.5 8t-2.5 11v825h-136q-14 0 -21.5 12.5t-7.5 37.5q0 13 2 22.5t5.5 16t9 9.5t12.5 3h136v107q0 94 21 160t65 107.5t111 60.5t159 19q26 0 52.5 -2t51.5 -5t44 -6.5
t30 -6.5t18 -7t11 -12q0 10 3 16t9.5 10t18 5.5t29.5 1.5q17 0 28.5 -1.5t18 -5t9.5 -8.5t3 -11v-1348z" />
    <glyph glyph-name="uniFB03" unicode="ffi" horiz-adv-x="1620" 
d="M1472 1229q0 -23 -3.5 -38.5t-12.5 -25t-24 -13.5t-38 -4t-38 4t-24 13.5t-12.5 25t-3.5 38.5t3.5 38.5t12.5 25.5t24 14t38 4t38 -4t24 -14t12.5 -25.5t3.5 -38.5zM1454 20q0 -6 -3 -11t-9.5 -8t-18 -5t-29.5 -2q-17 0 -28.5 2t-18.5 5t-9.5 8t-2.5 11v825h-445v-825
q0 -6 -3 -11t-9.5 -8t-18 -5t-28.5 -2q-18 0 -29.5 2t-18 5t-9.5 8t-3 11v825h-444v-825q0 -6 -3 -11t-9.5 -8t-18.5 -5t-29 -2t-28.5 2t-18.5 5t-9.5 8t-2.5 11v825h-136q-14 0 -21.5 12.5t-7.5 37.5q0 13 2 22.5t5.5 16t9 9.5t12.5 3h136v96q0 94 17.5 160t52 107.5
t85.5 60.5t117 19q44 0 76 -8t45.5 -14t19 -11.5t9 -13.5t5 -18.5t1.5 -23.5q0 -23 -4.5 -34t-15.5 -11q-8 0 -20 5t-29.5 11t-40 11t-50.5 5q-83 0 -116 -58.5t-33 -186.5v-96h444v107q0 94 18 160t51.5 107.5t83 60.5t112.5 19q22 0 43.5 -2t38.5 -5.5t29.5 -8t17 -9
t7.5 -9.5t5 -11.5t3 -15.5t1 -21q0 -22 -4.5 -33t-15.5 -11q-8 0 -17.5 3.5t-23.5 8t-35 8.5t-52 4q-78 0 -110.5 -58.5t-32.5 -186.5v-107h526q20 0 29 -11.5t9 -29.5v-885z" />
    <glyph glyph-name="uniFB04" unicode="ffl" horiz-adv-x="1620" 
d="M1454 20q0 -6 -3 -11t-9.5 -8t-18 -5t-29.5 -2q-17 0 -28.5 2t-18.5 5t-9.5 8t-2.5 11v1256q-3 -2 -6 -2.5t-9 -0.5q-12 0 -39 6.5t-55.5 10.5t-54 6t-47.5 2q-71 0 -116.5 -14.5t-71.5 -44.5t-36 -76.5t-10 -109.5v-107h206q7 0 12 -3t9 -9.5t6 -16t2 -22.5
q0 -25 -8 -37.5t-21 -12.5h-206v-825q0 -6 -3 -11t-9.5 -8t-18 -5t-28.5 -2q-18 0 -29.5 2t-18 5t-9.5 8t-3 11v825h-444v-825q0 -6 -3 -11t-9.5 -8t-18.5 -5t-29 -2t-28.5 2t-18.5 5t-9.5 8t-2.5 11v825h-136q-14 0 -21.5 12.5t-7.5 37.5q0 13 2 22.5t5.5 16t9 9.5t12.5 3
h136v96q0 94 17.5 160t52 107.5t85.5 60.5t117 19q44 0 76 -8t45.5 -14t19 -11.5t9 -13.5t5 -18.5t1.5 -23.5q0 -23 -4.5 -34t-15.5 -11q-8 0 -20 5t-29.5 11t-40 11t-50.5 5q-83 0 -116 -58.5t-33 -186.5v-96h444v107q0 94 21.5 160t65 107.5t110.5 60.5t159 19
q26 0 52.5 -2t51.5 -5t44.5 -6.5t30.5 -6.5t17.5 -7t11.5 -12q0 10 2.5 16t9.5 10t18.5 5.5t28.5 1.5q18 0 29.5 -1.5t18 -5t9.5 -8.5t3 -11v-1348z" />
    <glyph glyph-name="uniFB13" unicode="&#x574;&#x576;" horiz-adv-x="2128" 
d="M1298 1388q18 0 33 -12t15 -40v-960q0 -80 16.5 -136t45 -91t67.5 -50.5t84 -15.5q69 0 138 49t145 145v649q0 12 12.5 19t47.5 7t47 -7t12 -19v-905q0 -13 -12 -19.5t-45 -6.5q-34 0 -45 6.5t-11 19.5v128q-78 -88 -152.5 -127t-149.5 -39q-85 0 -145.5 28t-99 78.5
t-56.5 120t-18 153.5v924h-330v-1266q0 -13 -12 -19.5t-45 -6.5q-34 0 -45 6.5t-11 19.5v128q-78 -88 -152.5 -127t-149.5 -39q-85 0 -145.5 28t-99 78.5t-56.5 120t-18 153.5v563q0 12 12.5 19t46.5 7q35 0 47.5 -7t12.5 -19v-550q0 -80 16.5 -136t45 -91t67.5 -50.5
t84 -15.5q69 0 138 49t145 145v1059q0 28 15 40t33 12h472z" />
    <glyph glyph-name="uniFB14" unicode="&#x574;&#x565;" horiz-adv-x="2124" 
d="M778 1336q0 28 15 40t33 12h317q29 0 29 -51q0 -25 -8 -37.5t-21 -12.5h-246v-1266q0 -13 -12 -19.5t-45 -6.5q-34 0 -45 6.5t-11 19.5v128q-78 -88 -152.5 -127t-149.5 -39q-85 0 -145.5 28t-99 78.5t-56.5 120t-18 153.5v563q0 12 12.5 19t46.5 7q35 0 47.5 -7
t12.5 -19v-550q0 -80 16.5 -136t45 -91t67.5 -50.5t84 -15.5q69 0 138 49t145 145v1059zM1227 1368q0 12 12.5 19t46.5 7q35 0 47.5 -7t12.5 -19v-422h630q29 0 29 -51q0 -25 -8 -37.5t-21 -12.5h-630v-469q0 -80 16.5 -136t45 -91t67.5 -50.5t84 -15.5q69 0 138 49t145 145
v278q0 12 12.5 19t47.5 7t47 -7t12 -19v-534q0 -13 -12 -19.5t-45 -6.5q-34 0 -45 6.5t-11 19.5v128q-78 -88 -152.5 -127t-149.5 -39q-85 0 -145.5 28t-99 78.5t-56.5 120t-18 153.5v1005z" />
    <glyph glyph-name="uniFB15" unicode="&#x574;&#x56b;" horiz-adv-x="2128" 
d="M778 1336q0 28 15 40t33 12h317q29 0 29 -51q0 -25 -8 -37.5t-21 -12.5h-246v-1266q0 -13 -12 -19.5t-45 -6.5q-34 0 -45 6.5t-11 19.5v128q-78 -88 -152.5 -127t-149.5 -39q-85 0 -145.5 28t-99 78.5t-56.5 120t-18 153.5v563q0 12 12.5 19t46.5 7q35 0 47.5 -7
t12.5 -19v-550q0 -80 16.5 -136t45 -91t67.5 -50.5t84 -15.5q69 0 138 49t145 145v1059zM1961 20q0 -12 -12.5 -19t-46.5 -7q-35 0 -47.5 7t-12.5 19v550q0 80 -16.5 136t-45 91t-67.5 50.5t-84 15.5q-69 0 -138 -49t-145 -145v-1008q0 -12 -12.5 -19t-47.5 -7t-47 7t-12 19
v1707q0 13 12 19.5t47 6.5t47.5 -6.5t12.5 -19.5v-565q77 85 150 122.5t146 37.5q85 0 145.5 -28t99 -78.5t56.5 -120t18 -153.5v-563z" />
    <glyph glyph-name="uniFB16" unicode="&#x57e;&#x576;" horiz-adv-x="2128" 
d="M897 -258h246q29 0 29 -51q0 -25 -8 -37.5t-21 -12.5h-317q-18 0 -33 12t-15 40v450q-77 -85 -150 -122.5t-146 -37.5q-85 0 -145.5 28t-99 78.5t-56.5 120t-18 153.5v563q0 12 12.5 19t46.5 7q35 0 47.5 -7t12.5 -19v-550q0 -80 16.5 -136t45 -91t67.5 -50.5t84 -15.5
q69 0 138 49t145 145v1091q0 12 12.5 19t47.5 7t47 -7t12 -19v-1626zM1298 1388q18 0 33 -12t15 -40v-960q0 -80 16.5 -136t45 -91t67.5 -50.5t84 -15.5q69 0 138 49t145 145v649q0 12 12.5 19t47.5 7t47 -7t12 -19v-905q0 -13 -12 -19.5t-45 -6.5q-34 0 -45 6.5t-11 19.5
v128q-78 -88 -152.5 -127t-149.5 -39q-85 0 -145.5 28t-99 78.5t-56.5 120t-18 153.5v924h-246q-29 0 -29 51q0 25 8 37.5t21 12.5h317z" />
    <glyph glyph-name="uniFB17" unicode="&#x574;&#x56d;" horiz-adv-x="2588" 
d="M758 1336q0 28 15 40t33 12h307q29 0 29 -51q0 -25 -8 -37.5t-21 -12.5h-236v-1266q0 -13 -12 -19.5t-45 -6.5q-34 0 -45 6.5t-11 19.5v128q-78 -88 -147.5 -127t-144.5 -39q-85 0 -144 28t-95.5 78.5t-53 120t-16.5 153.5v563q0 12 12.5 19t46.5 7q35 0 47.5 -7
t12.5 -19v-550q0 -80 15 -136t41.5 -91t64 -50.5t82.5 -15.5q69 0 133 49t140 145v1059zM1741 577q0 64 -5.5 117t-23 90.5t-48.5 58t-82 20.5q-63 0 -127.5 -49t-140.5 -145v-1008q0 -12 -12.5 -19t-47.5 -7t-47 7t-12 19v1707q0 13 13.5 19.5t46.5 6.5q34 0 46.5 -6.5
t12.5 -19.5v-564q76 84 144.5 121.5t136.5 37.5q77 0 128 -25t81 -72.5t42.5 -115t12.5 -152.5v-229q0 -64 9 -117t29.5 -90.5t55 -58t85.5 -20.5q63 0 127.5 49t140.5 145v649q0 12 12.5 19t47.5 7t47 -7t12 -19v-905q0 -13 -12 -19.5t-45 -6.5q-34 0 -45 6.5t-11 19.5v128
q-78 -88 -148 -127t-139 -39q-77 0 -131 25t-88 72.5t-49.5 115t-15.5 152.5v229z" />
    <glyph glyph-name="uniFB4F" unicode="&#x5d0;&#x200d;&#x5dc;" horiz-adv-x="962" 
d="M313 974l238 -476q65 54 104 105t54.5 108.5t15.5 130.5v191q0 14 14 20t46 6t46 -6t14 -20v-189q0 -70 -11.5 -123t-38.5 -102.5t-79.5 -106t-116.5 -109.5l181 -362q6 -12 8 -17.5t2 -9.5q0 -10 -13 -15t-47 -5q-20 0 -34.5 1.5t-23.5 6.5t-15 17l-441 881
q-13 26 -29 37.5t-49 11.5h-57q-23 0 -38 13.5t-15 39.5v366q0 14 14 20t46 6t46 -6t14 -20v-315h18q69 0 96 -17.5t51 -61.5z" />
    <glyph glyph-name="uniFDF2" unicode="&#x627;&#xfedf;&#xfee0;&#xfeea;" horiz-adv-x="2123" arabic-form="isolated" 
d="M1671 416q0 -29 -6.5 -62t-17 -64t-23.5 -56.5t-27 -40.5q-19 -21 -52 -31.5t-69 -13.5q-41 -4 -83.5 4.5t-81 31t-69.5 60t-49 91.5h-6q-14 -59 -44.5 -99.5t-72.5 -65.5t-92 -36.5t-103 -11.5q-135 0 -207 66t-72 204h-5q-15 -17 -33 -36.5t-38 -36.5t-39.5 -28.5
t-37.5 -11.5q-34 0 -74 2t-80.5 7t-78 14t-66 23t-45 35t-13.5 50q1 16 12 39.5t26.5 48.5t33 48.5t31.5 39.5q29 33 125.5 92t276.5 136q1 16 1 34.5t2 33.5q2 11 11.5 35.5t26.5 50.5q13 19 24 31t18 12q10 0 10 -13q0 -72 -1.5 -131.5t-1.5 -107.5q1 -153 6 -308
q1 -56 18 -93t46.5 -59.5t69 -32t84.5 -9.5q51 0 97 12t80.5 34t55.5 54t22 72q0 17 -6 58.5t-15.5 94t-20.5 111t-20.5 110.5t-15.5 91.5t-6 53.5q0 21 9 53.5t20 65.5q8 24 16.5 40.5t16.5 16.5q11 0 14 -13q24 -158 49.5 -308t54.5 -304q12 -60 34 -101.5t53.5 -67
t71.5 -37t88 -11.5q24 0 51 6t38 23q0 21 -8 76.5t-20 128t-26.5 153t-26.5 150.5t-20 121t-8 65q0 24 7 54t17 56.5t20.5 45t16.5 18.5q12 0 13 -13q9 -64 21 -137.5t24.5 -149t25 -148t22 -134.5t15.5 -109.5t6 -71.5zM1988 180q-2 -5 -5.5 -8t-14.5 -3t-15 3t-5 8
q-1 19 0 48t0 64q-3 84 -9.5 176.5t-14.5 187t-16.5 188t-15.5 178.5t-11.5 158.5t-4.5 129.5q0 26 9.5 53.5t21.5 52.5q11 22 21.5 36t18.5 14q3 0 6 -1.5t4 -6.5q5 -73 12 -162t14 -184.5t14.5 -191t13 -182t9 -158t3.5 -118.5q0 -112 -12 -181.5t-23 -100.5zM590 448v204
q0 26 0.5 52t0.5 50h-3q-20 -21 -43.5 -40.5t-48.5 -31.5q-62 -32 -113 -64t-88 -59.5t-59.5 -49t-28.5 -32.5q13 -17 37.5 -30t54.5 -21.5t63 -13t65 -4.5t76.5 6.5t86.5 33.5zM1090 1407q3 6 7.5 8.5t15.5 2.5q22 0 22 -9q0 -14 -4 -38t-9 -41q9 -7 22.5 -13.5t30.5 -6.5
q22 0 37.5 14.5t26 37t16.5 49t9 50.5q0 8 6.5 10.5t16.5 2.5q22 0 20 -14q0 -37 -6.5 -79t-22.5 -78t-44 -59.5t-70 -23.5q-29 0 -47.5 13t-26.5 22q-8 -14 -18 -28.5t-24.5 -27t-35 -20.5t-48.5 -8q-15 0 -28 4t-22.5 14t-15 28t-5.5 46q0 15 2.5 31t7 31t9.5 27t11 19
q6 9 19 9q19 0 19 -10q0 -4 -2.5 -11t-5 -15.5t-5 -17.5t-2.5 -15q0 -20 8 -33.5t35 -13.5q25 0 41.5 15.5t27.5 37.5t18.5 46.5t13.5 43.5zM1141 1482q-2 -5 -5.5 -6.5t-14.5 -1.5q-14 0 -14 8q0 18 -0.5 40t-2.5 45.5t-6 46.5t-11 41q-14 34 -28.5 54t-36.5 43q-3 1 -3 16
q0 10 1.5 27t4.5 33.5t7 28.5t9 12q8 0 15 -7q53 -53 76 -123.5t23 -145.5q0 -27 -4.5 -59.5t-9.5 -51.5z" />
    <glyph glyph-name="uniFEF7" unicode="&#xfedf;&#xfe84;" horiz-adv-x="1050" arabic-form="isolated" 
d="M831 1482q5 8 10 8q3 0 6 -2t3 -5q1 -18 4.5 -31.5t12.5 -28t24 -31t40 -40.5q13 -11 16 -19.5t3 -17.5q0 -12 -5.5 -30t-13.5 -35t-17.5 -30.5t-18.5 -17.5q11 -136 25 -260t14 -229q0 -43 -8 -104.5t-32 -130.5t-69.5 -140t-120.5 -133q-69 -57 -146.5 -89t-175.5 -54
q-29 -7 -66.5 -15t-74.5 -14.5t-69 -11t-50 -4.5q-10 0 -13.5 10.5t-3.5 26.5q0 18 12 21q78 18 155.5 44t150.5 59.5t140.5 74t126.5 88.5q-9 33 -19 66.5t-27.5 72t-45.5 84.5t-73 104q-44 54 -93 106.5t-118 102.5l-11 -33q-5 -15 -15 -16q-7 -1 -18 5q-50 31 -87 57
t-62.5 51.5t-38 52t-12.5 58.5q0 29 6 58.5t16 52.5q6 11 14 18.5t20 7.5q14 0 42.5 -16.5t65 -45t78.5 -66t83 -79t78.5 -85t65.5 -83.5q52 -72 86.5 -133.5t56.5 -114.5t33 -98.5t16 -86.5q41 41 66 75t38.5 66.5t18 65t4.5 69.5q0 19 -3.5 57t-9.5 87t-12.5 104.5
t-13.5 109.5t-12.5 102t-8.5 83q0 11 -0.5 22t0.5 21q-14 15 -22.5 37t-8.5 42q0 60 64 160zM352 1453q8 0 8 -7q0 -5 -2 -14.5t-10 -28.5q-15 -37 -30 -40q-86 -18 -139 -37.5t-83.5 -35.5t-42.5 -26.5t-15 -10.5q-8 0 -10 9t-2 32q0 11 18 33.5t56 45.5q-38 15 -62.5 42
t-24.5 58q0 33 17 66.5t44 59.5t60 42.5t66 16.5q39 0 63 -15.5t24 -33.5q0 -15 -5 -29t-13 -31q-4 -4 -7 -4q-6 0 -11 5.5t-14 12t-24 12t-40 5.5q-14 0 -29 -5.5t-27 -15t-19.5 -21.5t-7.5 -25q0 -17 14 -31.5t34 -25.5t41.5 -17.5t36.5 -6.5q20 0 42 3.5t41 7t33.5 7
t19.5 3.5z" />
    <glyph glyph-name="uniFEF8" unicode="&#xfee0;&#xfe84;" horiz-adv-x="1227" arabic-form="final" 
d="M1227 160q-28 0 -65 5.5t-73 25t-65.5 55.5t-42.5 98q-26 110 -35.5 217t-21.5 210h-4q-7 -66 -22.5 -139t-43.5 -147.5t-72 -145.5t-108 -132q-57 -54 -129.5 -87t-160.5 -54q-33 -8 -72.5 -17t-77 -16t-69.5 -11.5t-50 -4.5q-10 0 -13.5 10.5t-3.5 26.5q0 18 12 21
q79 19 159.5 46.5t156 65.5t143 87t121.5 111q-13 67 -46 137.5t-82 140t-112 135t-136 122.5l-11 -34q-5 -14 -15 -15q-7 -1 -20 6q-50 31 -87 57.5t-62 52t-37 53t-12 59.5t9.5 65.5t20.5 52.5q9 13 23 15q12 2 21 -5q40 -23 90 -59t102.5 -83t104.5 -103t96 -117
q97 -138 140.5 -248.5t52.5 -195.5q38 51 68 113.5t50.5 144t32 185.5t12.5 239l-9 204q0 29 8 57.5t21 56.5q25 55 39 55q9 0 11 -12q20 -221 37.5 -441.5t38.5 -446.5q9 -94 29.5 -151.5t48 -89t60 -42t64.5 -10.5zM469 1490q8 0 8 -7q0 -5 -2 -14.5t-10 -28.5
q-15 -37 -30 -40q-86 -18 -139 -37.5t-83.5 -35.5t-42.5 -26.5t-15 -10.5q-8 0 -10 9t-2 32q0 11 18 33.5t56 45.5q-38 15 -62.5 42t-24.5 58q0 33 17 66.5t44 59.5t60 42.5t66 16.5q39 0 63 -15.5t24 -33.5q0 -15 -5 -29t-13 -31q-4 -4 -7 -4q-6 0 -11 5.5t-14 12t-24 12
t-40 5.5q-14 0 -29 -5.5t-27 -15t-19.5 -21.5t-7.5 -25q0 -17 14 -31.5t34 -25.5t41.5 -17.5t36.5 -6.5q20 0 42 3.5t41 7t33.5 7t19.5 3.5z" />
    <glyph glyph-name="uniFEF9" unicode="&#xfedf;&#xfe88;" horiz-adv-x="1073" arabic-form="isolated" 
d="M854 1482q5 8 11 8q3 0 6 -2t3 -5q1 -18 4.5 -31.5t12.5 -28t24 -31t40 -40.5q12 -11 15 -19.5t3 -17.5q0 -12 -5 -29.5t-13 -35t-17.5 -31t-18.5 -17.5q11 -136 25 -260t14 -229q0 -43 -8 -104.5t-32 -130.5t-69.5 -140t-120.5 -133q-35 -29 -71 -51t-75.5 -38.5
t-83 -29.5t-92.5 -24q-29 -7 -66.5 -15t-74.5 -14.5t-69.5 -11t-50.5 -4.5q-9 0 -13 10.5t-4 26.5q0 18 13 21q78 18 155 44t150.5 60t141 74.5t126.5 87.5q-9 40 -19.5 80.5t-28.5 88t-47.5 103.5t-76.5 127q-45 66 -96 129t-122 125l-11 -34q-5 -14 -16 -15q-10 -2 -19 5
q-52 31 -91 57.5t-65 52t-39 52.5t-13 60q0 29 6.5 58.5t16.5 52.5q5 11 13 18.5t21 7.5q15 0 44 -18.5t66.5 -50.5t80.5 -73.5t85.5 -88t81 -94.5t67.5 -92q55 -86 92 -158t60 -134t34.5 -116t16.5 -103q40 41 65 75.5t38.5 66.5t18.5 64t5 70q0 19 -3.5 57t-9.5 87
t-12.5 104.5t-13.5 110t-12.5 102.5t-8.5 83q-2 22 0 42q-15 15 -23 37t-8 42q0 59 63 160zM663 -199q8 0 8 -7q0 -5 -2 -14.5t-10 -28.5q-15 -37 -30 -40q-86 -18 -139 -37.5t-83.5 -35.5t-42.5 -26.5t-15 -10.5q-8 0 -10 9t-2 32q0 11 18 33.5t56 45.5q-38 15 -62.5 42
t-24.5 58q0 33 17 66.5t44 59.5t60 42.5t66 16.5q39 0 63 -15.5t24 -33.5q0 -15 -5 -29t-13 -31q-4 -4 -7 -4q-6 0 -11 5.5t-14 12t-24 12t-40 5.5q-14 0 -29 -5.5t-27 -15t-19.5 -21.5t-7.5 -25q0 -17 14 -31.5t34 -25.5t41.5 -17.5t36.5 -6.5q20 0 42 3.5t41 7t33.5 7
t19.5 3.5z" />
    <glyph glyph-name="uniFEFA" unicode="&#xfee0;&#xfe88;" horiz-adv-x="1258" arabic-form="final" 
d="M1258 160q-28 0 -65 5.5t-73 25t-65.5 55.5t-42.5 98q-26 110 -35.5 217t-21.5 210h-4q-7 -66 -22.5 -139t-43.5 -147.5t-72 -145.5t-108 -132q-57 -54 -129.5 -87t-160.5 -54q-33 -8 -72.5 -17t-77 -16t-69.5 -11.5t-50 -4.5q-10 0 -13.5 10.5t-3.5 26.5q0 18 12 21
q79 19 159.5 46.5t156 65.5t143 87t121.5 111q-14 79 -49 162.5t-86.5 166t-118.5 161t-144 146.5l-11 -34q-6 -14 -16 -15q-8 -2 -20 6q-52 31 -90.5 57t-64 51.5t-38.5 52t-13 58.5q0 33 9 67t20 53q10 15 22 16q9 1 20 -5q43 -26 95.5 -67t108 -93.5t110.5 -115.5
t102 -132q52 -78 88.5 -147.5t60.5 -131.5t37 -117t18 -103q38 51 68 113.5t50.5 144t32 185.5t12.5 239l-9 204q0 29 9 57.5t20 56.5q12 25 21.5 40t17.5 15q11 0 12 -13q20 -221 37 -441t38 -446q9 -94 29.5 -151.5t48 -89t60 -42t64.5 -10.5zM666 -199q8 0 8 -7
q0 -5 -2 -14.5t-10 -28.5q-15 -37 -30 -40q-86 -18 -139 -37.5t-83.5 -35.5t-42.5 -26.5t-15 -10.5q-8 0 -10 9t-2 32q0 11 18 33.5t56 45.5q-38 15 -62.5 42t-24.5 58q0 33 17 66.5t44 59.5t60 42.5t66 16.5q39 0 63 -15.5t24 -33.5q0 -15 -5 -29t-13 -31q-4 -4 -7 -4
q-6 0 -11 5.5t-14 12t-24 12t-40 5.5q-14 0 -29 -5.5t-27 -15t-19.5 -21.5t-7.5 -25q0 -17 14 -31.5t34 -25.5t41.5 -17.5t36.5 -6.5q20 0 42 3.5t41 7t33.5 7t19.5 3.5z" />
    <glyph glyph-name="f_b.liga" unicode="fb" horiz-adv-x="1668" 
d="M1561 484q0 -116 -25 -208.5t-74 -157.5t-121.5 -100t-166.5 -35q-42 0 -77.5 8.5t-70 27.5t-69.5 48t-76 70v-117q0 -7 -3.5 -12t-10 -8t-17 -4.5t-25.5 -1.5t-25.5 1.5t-17 4.5t-9 8t-2.5 12v1256q-4 -2 -7.5 -2.5t-8.5 -0.5q-10 0 -39 6.5t-55 10.5t-52 6t-49 2
q-71 0 -116.5 -14.5t-71.5 -44.5t-35.5 -76.5t-9.5 -109.5v-107h205q7 0 12.5 -3t9.5 -9.5t6 -16t2 -22.5q0 -25 -8 -37.5t-22 -12.5h-205v-825q0 -6 -3 -11t-10 -8t-18.5 -5t-28.5 -2t-28.5 2t-18.5 5t-9.5 8t-2.5 11v825h-136q-14 0 -21.5 12.5t-7.5 37.5q0 13 2 22.5
t5.5 16t9 9.5t12.5 3h136v107q0 94 21 160t65 107.5t111 60.5t159 19q26 0 52.5 -2t50.5 -5t44 -6.5t31 -6.5t18 -7t11 -12q0 10 3 16t9.5 10t18 5.5t29.5 1.5q17 0 28.5 -1.5t18 -5t9.5 -8.5t3 -11v-565q44 45 83 75.5t76 49t73.5 26.5t75.5 8q98 0 167 -38t112.5 -103
t63.5 -152t20 -185zM1437 465q0 76 -12 147t-41 126t-77 88.5t-120 33.5q-36 0 -70 -10t-70 -33t-74.5 -59.5t-82.5 -90.5v-394q75 -91 144.5 -139.5t144.5 -48.5q70 0 119 33.5t80 87.5t45 122t14 137z" />
    <glyph glyph-name="f_f_b.liga" unicode="ffb" horiz-adv-x="2232" 
d="M2000 465q0 76 -12 147t-41 126t-77 88.5t-120 33.5q-35 0 -69.5 -10t-70.5 -33t-74.5 -59.5t-81.5 -90.5v-394q75 -91 144.5 -139.5t144.5 -48.5q69 0 118 33.5t80 87.5t45 122t14 137zM771 946v107q0 94 21.5 160t65 107.5t110.5 60.5t159 19q27 0 53.5 -2t50.5 -5
t44 -6.5t31 -6.5t17.5 -7t11.5 -12q0 10 2.5 16t9.5 10t18.5 5.5t28.5 1.5q18 0 29.5 -1.5t18 -5t9.5 -8.5t3 -11v-565q43 45 82 75.5t76 49t73.5 26.5t75.5 8q98 0 167.5 -38t113 -103t63.5 -152t20 -185q0 -116 -25 -208.5t-74.5 -157.5t-122 -100t-166.5 -35
q-42 0 -77.5 8.5t-69.5 27.5t-69.5 48t-76.5 70v-117q0 -7 -3 -12t-10 -8t-17 -4.5t-25 -1.5t-25.5 1.5t-17 4.5t-9 8t-2.5 12v1256q-4 -2 -7.5 -2.5t-8.5 -0.5q-10 0 -39 6.5t-55 10.5t-52 6t-49 2q-71 0 -116.5 -14.5t-71.5 -44.5t-36 -76.5t-10 -109.5v-107h206
q7 0 12 -3t9 -9.5t6 -16t2 -22.5q0 -25 -8 -37.5t-21 -12.5h-206v-825q0 -6 -3 -11t-9.5 -8t-18 -5t-28.5 -2q-18 0 -29.5 2t-18 5t-9.5 8t-3 11v825h-444v-825q0 -6 -3 -11t-9.5 -8t-18 -5t-29.5 -2q-17 0 -28.5 2t-18.5 5t-9.5 8t-2.5 11v825h-136q-14 0 -21.5 12.5
t-7.5 37.5q0 13 2 22.5t5.5 16t9 9.5t12.5 3h136v96q0 94 17.5 160t52 107.5t85.5 60.5t117 19q44 0 76 -8t50 -16q9 -4 14.5 -9.5t9 -13.5t5 -18.5t1.5 -23.5q0 -23 -4.5 -34t-15.5 -11q-8 0 -20 5t-29.5 11t-40 11t-50.5 5q-83 0 -116 -58.5t-33 -186.5v-96h444z" />
    <glyph glyph-name="f_h.liga" unicode="fh" horiz-adv-x="1669" 
d="M1505 20q0 -6 -3 -11t-9.5 -8t-18 -5t-28.5 -2t-28.5 2t-19 5t-10 8t-2.5 11v537q0 84 -12.5 136.5t-39 90t-66.5 58t-94 20.5q-69 0 -138 -49t-146 -144v-649q0 -6 -3 -11t-9.5 -8t-18 -5t-28.5 -2q-18 0 -29.5 2t-18 5t-9.5 8t-3 11v1256q-4 -2 -7.5 -2.5t-8.5 -0.5
q-10 0 -39 6.5t-55 10.5t-52 6t-49 2q-71 0 -116.5 -14.5t-71.5 -44.5t-35.5 -76.5t-9.5 -109.5v-107h205q7 0 12.5 -3t9.5 -9.5t6 -16t2 -22.5q0 -25 -8 -37.5t-22 -12.5h-205v-825q0 -6 -3 -11t-9.5 -8t-18 -5t-29.5 -2q-17 0 -28.5 2t-18.5 5t-9.5 8t-2.5 11v825h-136
q-14 0 -21.5 12.5t-7.5 37.5q0 13 2 22.5t5.5 16t9 9.5t12.5 3h136v107q0 94 21 160t65 107.5t111 60.5t159 19q26 0 52.5 -2t50.5 -5t44 -6.5t31 -6.5t18 -7t11 -12q0 10 3 16t9.5 10t18 5.5t29.5 1.5q17 0 28.5 -1.5t18 -5t9.5 -8.5t3 -11v-565q74 82 148 120.5t149 38.5
q89 0 149.5 -30t98 -81t54 -119t16.5 -164v-548z" />
    <glyph glyph-name="f_f_h.liga" unicode="ffh" horiz-adv-x="2232" 
d="M771 1053q0 94 21.5 160t65 107.5t110.5 60.5t159 19q27 0 53.5 -2t50.5 -5t44 -6.5t31 -6.5t17.5 -7t11.5 -12q0 10 2.5 16t9.5 10t18.5 5.5t28.5 1.5q18 0 29.5 -1.5t18 -5t9.5 -8.5t3 -11v-565q74 82 148 120.5t148 38.5q89 0 150 -30t98.5 -81t54 -119t16.5 -164
v-548q0 -6 -3 -11t-9.5 -8t-18 -5t-28.5 -2q-18 0 -29.5 2t-18 5t-9.5 8t-3 11v537q0 84 -13 136.5t-39 90t-66.5 58t-94.5 20.5q-69 0 -137.5 -49t-145.5 -144v-649q0 -6 -3 -11t-9.5 -8t-18 -5t-29.5 -2q-17 0 -28.5 2t-18.5 5t-9.5 8t-2.5 11v1256q-4 -2 -7.5 -2.5
t-8.5 -0.5q-9 0 -34.5 6t-55.5 10.5t-56 6.5t-49 2q-71 0 -116.5 -14.5t-71.5 -44.5t-36 -76.5t-10 -109.5v-107h206q7 0 12 -3t9 -9.5t6 -16t2 -22.5q0 -25 -8 -37.5t-21 -12.5h-206v-825q0 -6 -3 -11t-9.5 -8t-18 -5t-28.5 -2q-18 0 -29.5 2t-18 5t-9.5 8t-3 11v825h-444
v-825q0 -6 -3 -11t-9.5 -8t-18.5 -5t-29 -2t-28.5 2t-18.5 5t-9.5 8t-2.5 11v825h-136q-14 0 -21.5 12.5t-7.5 37.5q0 13 2 22.5t5.5 16t9 9.5t12.5 3h136v96q0 94 17.5 160t52 107.5t85.5 60.5t117 19q44 0 76 -8t50 -16q9 -4 14.5 -9.5t9 -13.5t5 -18.5t1.5 -23.5
q0 -23 -4.5 -34t-15.5 -11q-8 0 -20 5t-29.5 11t-40 11t-50.5 5q-83 0 -116 -58.5t-33 -186.5v-96h444v107z" />
    <glyph glyph-name="f_igrave.liga" unicode="f&#xec;" horiz-adv-x="1057" 
d="M890 20q0 -6 -3 -11t-9.5 -8t-18 -5t-28.5 -2q-18 0 -29.5 2t-18 5t-9.5 8t-3 11v825h-444v-825q0 -6 -3 -11t-9.5 -8t-18.5 -5t-29 -2t-28.5 2t-18.5 5t-9.5 8t-2.5 11v825h-136q-14 0 -21.5 12.5t-7.5 37.5q0 13 2 22.5t5.5 16t9 9.5t12.5 3h136v126q0 87 17.5 149
t50.5 101.5t80 58.5t106 19q29 0 55 -4t43 -10t23 -12t9.5 -14t5 -18.5t1.5 -23.5q0 -22 -5 -33t-16 -11q-8 0 -18 3.5t-24.5 8t-33.5 8.5t-44 4q-70 0 -100.5 -55.5t-30.5 -170.5v-126h526q20 0 28.5 -11.5t8.5 -29.5v-885zM883 1133q3 -9 3.5 -16t-3.5 -11.5t-13.5 -7
t-24.5 -2.5t-24.5 1t-16 4t-11 8.5t-9.5 15.5l-124 234q-5 9 -4 16.5t7.5 13t19 8.5t31.5 3t31 -1.5t19.5 -5t11.5 -10.5t8 -17z" />
    <glyph glyph-name="f_iacute.liga" unicode="f&#xed;" horiz-adv-x="1057" 
d="M890 20q0 -6 -3 -11t-9.5 -8t-18 -5t-28.5 -2q-18 0 -29.5 2t-18 5t-9.5 8t-3 11v825h-444v-825q0 -6 -3 -11t-9.5 -8t-18 -5t-29.5 -2q-17 0 -28.5 2t-18.5 5t-9.5 8t-2.5 11v825h-136q-14 0 -21.5 12.5t-7.5 37.5q0 13 2 22.5t5.5 16t9 9.5t12.5 3h136v107
q0 94 17.5 160t52 107.5t85.5 60.5t117 19q38 0 70 -6.5t48.5 -14t22 -13t9 -13.5t5 -18.5t1.5 -23.5q0 -23 -4.5 -34t-15.5 -11q-8 0 -20 5t-29.5 11t-40 11t-50.5 5q-83 0 -116 -58.5t-33 -186.5v-107h526q20 0 28.5 -11.5t8.5 -29.5v-885zM931 1366q6 10 13 17t16.5 10.5
t23 5t32.5 1.5t31 -3t17 -8.5t3.5 -13t-8.5 -16.5l-174 -234q-7 -10 -12.5 -15.5t-12.5 -8.5t-17 -4t-25 -1t-24.5 2.5t-13 7t-2.5 11.5t7 16z" />
    <glyph glyph-name="f_icircumflex.liga" unicode="f&#xee;" horiz-adv-x="1057" 
d="M890 20q0 -6 -3 -11t-9.5 -8t-18 -5t-28.5 -2q-18 0 -29.5 2t-18 5t-9.5 8t-3 11v825h-444v-825q0 -6 -3 -11t-9.5 -8t-18 -5t-29.5 -2q-17 0 -28.5 2t-18.5 5t-9.5 8t-2.5 11v825h-136q-14 0 -21.5 12.5t-7.5 37.5q0 13 2 22.5t5.5 16t9 9.5t12.5 3h136v126
q0 87 17.5 149t50.5 101.5t80 58.5t106 19q29 0 56 -4t43 -10t22 -12t9.5 -14t5 -18.5t1.5 -23.5q0 -22 -5 -33t-16 -11q-8 0 -18 3.5t-23.5 8t-33.5 8.5t-45 4q-70 0 -100.5 -55.5t-30.5 -170.5v-126h526q20 0 28.5 -11.5t8.5 -29.5v-885zM706 1122q-5 -8 -10.5 -13t-12 -8
t-16 -4t-22.5 -1q-20 0 -30.5 3t-13.5 9t1 15.5t14 22.5l165 232q5 7 10 11t12.5 6.5t19 3.5t28.5 1q15 0 25 -1t17.5 -4t12.5 -7t10 -10l165 -232q9 -13 12.5 -22.5t0 -15.5t-14.5 -9t-30 -3q-15 0 -24 1t-15.5 4t-11 8t-10.5 13l-141 198z" />
    <glyph glyph-name="f_itilde.liga" unicode="f&#x129;" horiz-adv-x="1075" 
d="M909 20q0 -6 -3 -11t-9.5 -8t-18 -5t-29.5 -2q-17 0 -28.5 2t-18.5 5t-9.5 8t-2.5 11v825h-463v-825q0 -6 -3 -11t-9.5 -8t-18.5 -5t-29 -2t-28.5 2t-18.5 5t-9.5 8t-2.5 11v825h-136q-14 0 -21.5 12.5t-7.5 37.5q0 13 2 22.5t5.5 16t9 9.5t12.5 3h136v126q0 87 17.5 149
t50.5 101.5t80 58.5t106 19q15 0 29.5 -1t27.5 -3t24.5 -5t19.5 -6t13 -7.5t8 -11.5t4.5 -17t1.5 -23q0 -23 -5 -34t-16 -11q-8 0 -16.5 2.5t-21.5 6t-30.5 6t-42.5 2.5q-70 0 -100.5 -55.5t-30.5 -170.5v-126h545q20 0 28.5 -11.5t8.5 -29.5v-885zM1129 1283q0 -49 -12 -86
t-33 -62.5t-50 -38.5t-63 -13q-48 0 -82.5 22t-61.5 49t-49.5 49t-47.5 22q-33 0 -48 -32.5t-15 -83.5q0 -14 -9.5 -20t-38.5 -6q-23 0 -34.5 8t-11.5 34q0 91 42.5 146t116.5 55q32 0 57.5 -10.5t47 -26.5t39.5 -34.5t34 -34.5t31 -26.5t32 -10.5q29 0 45.5 29t16.5 88
q0 14 10.5 20t33.5 6q28 0 39 -8.5t11 -34.5z" />
    <glyph glyph-name="f_idieresis.liga" unicode="f&#xef;" horiz-adv-x="1075" 
d="M909 20q0 -6 -3 -11t-9.5 -8t-18 -5t-28.5 -2q-18 0 -29.5 2t-18.5 5t-9.5 8t-2.5 11v825h-463v-825q0 -6 -3 -11t-9.5 -8t-18.5 -5t-29 -2t-28.5 2t-18.5 5t-9.5 8t-2.5 11v825h-136q-14 0 -21.5 12.5t-7.5 37.5q0 13 2 22.5t5.5 16t9 9.5t12.5 3h136v126q0 87 17.5 149
t50.5 101.5t80 58.5t106 19q15 0 29.5 -1t27.5 -3t24.5 -5t19.5 -6t13 -7.5t8 -11.5t4.5 -17t1.5 -23q0 -23 -5 -34t-16 -11q-8 0 -16.5 2.5t-21.5 6t-30.5 6t-42.5 2.5q-70 0 -100.5 -55.5t-30.5 -170.5v-126h545q20 0 28.5 -11.5t8.5 -29.5v-885zM649 1229q0 22 3.5 37
t12 24t23 13t35.5 4q22 0 36 -4t22.5 -13t12 -24t3.5 -37q0 -21 -3.5 -36t-12 -24.5t-22.5 -13.5t-36 -4q-21 0 -35.5 4t-23 13.5t-12 24.5t-3.5 36zM927 1229q0 22 3.5 37t12 24t23 13t35.5 4q22 0 36 -4t22.5 -13t12 -24t3.5 -37q0 -21 -3.5 -36t-12 -24.5t-22.5 -13.5
t-36 -4q-21 0 -35.5 4t-23 13.5t-12 24.5t-3.5 36z" />
    <glyph glyph-name="f_imacron.liga" unicode="f&#x12b;" horiz-adv-x="1075" 
d="M909 20q0 -6 -3 -11t-9.5 -8t-18 -5t-29.5 -2q-17 0 -28.5 2t-18.5 5t-9.5 8t-2.5 11v825h-463v-825q0 -6 -3 -11t-9.5 -8t-18.5 -5t-29 -2t-28.5 2t-18.5 5t-9.5 8t-2.5 11v825h-136q-14 0 -21.5 12.5t-7.5 37.5q0 13 2 22.5t5.5 16t9 9.5t12.5 3h136v126q0 87 17.5 149
t50.5 101.5t80 58.5t106 19q15 0 29.5 -1t27.5 -3t24.5 -5t19.5 -6t13 -7.5t8 -11.5t4.5 -17t1.5 -23q0 -23 -5 -34t-16 -11q-8 0 -16.5 2.5t-21.5 6t-30.5 6t-42.5 2.5q-70 0 -101 -55.5t-30 -170.5v-126h545q20 0 28.5 -11.5t8.5 -29.5v-885zM1064 1277q6 0 11 -3t8.5 -9
t5 -15.5t1.5 -22.5q0 -12 -1.5 -21t-5 -15.5t-8.5 -10t-11 -3.5h-415q-7 0 -12.5 3.5t-9 10t-5 15.5t-1.5 21q0 13 1.5 22.5t5 15.5t9 9t12.5 3h415z" />
    <glyph glyph-name="f_ibreve.liga" unicode="f&#x12d;" horiz-adv-x="1075" 
d="M909 20q0 -6 -3 -11t-9.5 -8t-18 -5t-28.5 -2q-18 0 -29.5 2t-18.5 5t-9.5 8t-2.5 11v825h-463v-825q0 -6 -3 -11t-9.5 -8t-18 -5t-29.5 -2q-17 0 -28.5 2t-18.5 5t-9.5 8t-2.5 11v825h-136q-14 0 -21.5 12.5t-7.5 37.5q0 13 2 22.5t5.5 16t9 9.5t12.5 3h136v126
q0 87 17.5 149t50.5 101.5t80 58.5t106 19q15 0 29.5 -1t27.5 -3t24.5 -5t19.5 -6t13 -7.5t8 -11.5t4.5 -17t1.5 -23q0 -23 -5 -34t-16 -11q-8 0 -16.5 2.5t-21.5 6t-30.5 6t-42.5 2.5q-70 0 -100.5 -55.5t-30.5 -170.5v-126h545q20 0 28.5 -11.5t8.5 -29.5v-885zM992 1361
q0 11 9 17.5t37 6.5q29 0 37 -5.5t8 -18.5q0 -68 -14.5 -118t-43 -83t-71 -49.5t-99.5 -16.5q-62 0 -105.5 17.5t-70.5 51.5t-39.5 82.5t-12.5 111.5q0 14 9 21t35 7q14 0 23 -1.5t14 -4.5t7 -7.5t2 -10.5q2 -40 10 -72t24 -54.5t41.5 -34.5t62.5 -12q30 0 54.5 9.5t42 30.5
t28 53.5t12.5 79.5z" />
    <glyph glyph-name="f_iogonek.liga" unicode="f&#x12f;" horiz-adv-x="1057" 
d="M908 1229q0 -23 -3.5 -38.5t-12 -25t-23.5 -13.5t-38 -4t-38 4t-24 13.5t-12.5 25t-3.5 38.5t3.5 38.5t12.5 25.5t24 14t38 4t38 -4t23.5 -14t12 -25.5t3.5 -38.5zM890 20q0 -22 -4.5 -34.5t-12.5 -20.5l-81 -82q-17 -17 -27 -30t-15 -23.5t-6.5 -19.5t-1.5 -18
q0 -30 19.5 -44.5t59.5 -14.5h121q6 0 10.5 -1.5t7.5 -6t4.5 -12.5t1.5 -21q0 -11 -1.5 -18t-4.5 -12t-9 -7.5t-15 -4.5q-31 -8 -62 -11.5t-66 -3.5q-43 0 -76.5 9.5t-57 27.5t-35.5 44.5t-12 61.5q0 14 2 30t10 35t23.5 41.5t43.5 50.5l65 65v845h-444v-825q0 -6 -3 -11
t-9.5 -8t-18 -5t-29.5 -2q-17 0 -28.5 2t-18.5 5t-9.5 8t-2.5 11v825h-136q-14 0 -21.5 12.5t-7.5 37.5q0 13 2 22.5t5.5 16t9 9.5t12.5 3h136v107q0 94 17.5 160t51.5 107.5t83.5 60.5t112.5 19q22 0 43 -2t38.5 -5.5t30 -8t17 -9t7.5 -9.5t4.5 -11.5t2.5 -15.5t1 -21
q0 -22 -4.5 -33t-15.5 -11q-8 0 -17 3.5t-23.5 8t-35.5 8.5t-52 4q-78 0 -110.5 -58.5t-31.5 -186.5v-107h526q20 0 28.5 -11.5t8.5 -29.5v-885z" />
    <glyph glyph-name="f_dotlessi.liga" unicode="f&#x131;" horiz-adv-x="1057" 
d="M890 20q0 -6 -3 -11t-9.5 -8t-18 -5t-28.5 -2q-18 0 -29.5 2t-18 5t-9.5 8t-3 11v825h-444v-825q0 -6 -3 -11t-9.5 -8t-18 -5t-29.5 -2q-17 0 -28.5 2t-18.5 5t-9.5 8t-2.5 11v825h-136q-14 0 -21.5 12.5t-7.5 37.5q0 13 2 22.5t5.5 16t9 9.5t12.5 3h136v107
q0 94 17.5 160t52 107.5t85.5 60.5t117 19q38 0 70 -6.5t48.5 -14t22 -13t9 -13.5t5 -18.5t1.5 -23.5q0 -23 -4.5 -34t-15.5 -11q-8 0 -20 5t-29.5 11t-40 11t-50.5 5q-83 0 -116 -58.5t-33 -186.5v-107h526q20 0 28.5 -11.5t8.5 -29.5v-885z" />
    <glyph glyph-name="f_f_igrave.liga" unicode="ff&#xec;" horiz-adv-x="1620" 
d="M1454 20q0 -6 -3 -11t-9.5 -8t-18 -5t-29.5 -2q-17 0 -28.5 2t-18.5 5t-9.5 8t-2.5 11v825h-445v-825q0 -6 -3 -11t-9.5 -8t-18 -5t-28.5 -2q-18 0 -29.5 2t-18 5t-9.5 8t-3 11v825h-444v-825q0 -6 -3 -11t-9.5 -8t-18.5 -5t-29 -2t-28.5 2t-18.5 5t-9.5 8t-2.5 11v825
h-136q-14 0 -21.5 12.5t-7.5 37.5q0 13 2 22.5t5.5 16t9 9.5t12.5 3h136v96q0 94 17.5 160t52 107.5t85.5 60.5t117 19q44 0 76 -8t45.5 -14t19 -11.5t9 -13.5t5 -18.5t1.5 -23.5q0 -23 -4.5 -34t-15.5 -11q-8 0 -20 5t-29.5 11t-40 11t-50.5 5q-83 0 -116 -58.5t-33 -186.5
v-96h444v126q0 87 17.5 149t50.5 101.5t80 58.5t106 19q29 0 59.5 -4.5t43.5 -10t18.5 -11.5t9 -14t5 -18.5t1.5 -23.5q0 -22 -4.5 -33t-15.5 -11q-8 0 -18 3.5t-24.5 8t-33.5 8.5t-44 4q-70 0 -101 -55.5t-31 -170.5v-126h526q20 0 29 -11.5t9 -29.5v-885zM1446 1133
q3 -9 3.5 -16t-3.5 -11.5t-13 -7t-24 -2.5t-25 1t-16 4t-10.5 8.5t-9.5 15.5l-124 234q-5 9 -4.5 16.5t7 13t19 8.5t31.5 3t31 -1.5t19.5 -5t12 -10.5t8.5 -17z" />
    <glyph glyph-name="f_f_iacute.liga" unicode="ff&#xed;" horiz-adv-x="1620" 
d="M1441.5 1q-12.5 -7 -47.5 -7t-47 7t-12 19v825h-445v-825q0 -12 -12 -19t-47 -7t-47.5 7t-12.5 19v825h-444v-825q0 -12 -12.5 -19t-47.5 -7t-47 7t-12 19v825h-136q-29 0 -29 50q0 51 29 51h136v96q0 94 17.5 160t52 107.5t85.5 60.5t117 19q44 0 76 -8t50 -16
q17 -8 23.5 -23.5t6.5 -41.5q0 -45 -20 -45q-8 0 -20 5t-29.5 11t-40 11t-50.5 5q-83 0 -116 -58.5t-33 -186.5v-96h444v126q0 87 17.5 149t50.5 101.5t80 58.5t106 19q29 0 57 -4.5t45 -10.5q14 -5 20 -19t6 -40q0 -45 -20 -45q-8 0 -17 2.5t-21.5 6t-30 6t-42.5 2.5
q-70 0 -101 -55.5t-31 -170.5v-126h526q20 0 29 -11.5t9 -29.5v-885q0 -12 -12.5 -19zM1494 1366q6 10 13 17t16.5 10.5t23 5t32.5 1.5t31 -3t17 -8.5t3.5 -13t-8.5 -16.5l-174 -234q-7 -10 -12.5 -15.5t-12.5 -8.5t-17 -4t-25 -1t-24.5 2.5t-13 7t-2.5 11.5t7 16z" />
    <glyph glyph-name="f_f_icircumflex.liga" unicode="ff&#xee;" horiz-adv-x="1620" 
d="M1454 20q0 -6 -3 -11t-9.5 -8t-18 -5t-29.5 -2q-17 0 -28.5 2t-18.5 5t-9.5 8t-2.5 11v825h-445v-825q0 -6 -3 -11t-9.5 -8t-18 -5t-28.5 -2q-18 0 -29.5 2t-18 5t-9.5 8t-3 11v825h-444v-825q0 -6 -3 -11t-9.5 -8t-18.5 -5t-29 -2t-28.5 2t-18.5 5t-9.5 8t-2.5 11v825
h-136q-14 0 -21.5 12.5t-7.5 37.5q0 13 2 22.5t5.5 16t9 9.5t12.5 3h136v96q0 94 17.5 160t52 107.5t85.5 60.5t117 19q44 0 76 -8t45.5 -14t19 -11.5t9 -13.5t5 -18.5t1.5 -23.5q0 -23 -4.5 -34t-15.5 -11q-8 0 -20 5t-29.5 11t-40 11t-50.5 5q-83 0 -116 -58.5t-33 -186.5
v-96h444v126q0 87 17.5 149t50.5 101.5t80 58.5t106 19q29 0 59.5 -4.5t43.5 -10t18.5 -11.5t9 -14t5 -18.5t1.5 -23.5q0 -22 -4.5 -33t-15.5 -11q-8 0 -18 3.5t-24.5 8t-33.5 8.5t-44 4q-70 0 -101 -55.5t-31 -170.5v-126h526q20 0 29 -11.5t9 -29.5v-885zM1270 1122
q-6 -8 -11 -13t-12 -8t-16 -4t-22 -1q-20 0 -30.5 3t-13.5 9t0.5 15.5t13.5 22.5l165 232q5 7 10 11t12.5 6.5t19 3.5t29.5 1q15 0 25 -1t17 -4t12 -7t10 -10l165 -232q9 -13 13 -22.5t0.5 -15.5t-14.5 -9t-30 -3q-15 0 -24 1t-15.5 4t-11 8t-10.5 13l-141 198z" />
    <glyph glyph-name="f_f_itilde.liga" unicode="ff&#x129;" horiz-adv-x="1639" 
d="M1472 20q0 -6 -3 -11t-9.5 -8t-18 -5t-28.5 -2q-18 0 -29.5 2t-18 5t-9.5 8t-3 11v825h-463v-825q0 -6 -3 -11t-9.5 -8t-18 -5t-28.5 -2q-18 0 -29.5 2t-18 5t-9.5 8t-3 11v825h-444v-825q0 -6 -3 -11t-9.5 -8t-18 -5t-29.5 -2q-17 0 -28.5 2t-18.5 5t-9.5 8t-2.5 11v825
h-136q-14 0 -21.5 12.5t-7.5 37.5q0 13 2 22.5t5.5 16t9 9.5t12.5 3h136v96q0 94 17.5 160t52 107.5t85.5 60.5t117 19q44 0 76 -8t45.5 -14t19 -11.5t9 -13.5t5 -18.5t1.5 -23.5q0 -23 -4.5 -34t-15.5 -11q-8 0 -20 5t-29.5 11t-40 11t-50.5 5q-83 0 -116 -58.5t-33 -186.5
v-96h444v126q0 87 17.5 149t50.5 101.5t80 58.5t106 19q29 0 57 -4t40 -9t17 -9.5t8 -11.5t4.5 -17t1.5 -23q0 -23 -4.5 -34t-15.5 -11q-8 0 -17 2.5t-21.5 6t-30 6t-42.5 2.5q-70 0 -101 -55.5t-31 -170.5v-126h545q20 0 28.5 -11.5t8.5 -29.5v-885zM1693 1283
q0 -49 -12 -86t-33 -62.5t-50 -38.5t-63 -13q-49 0 -83 22t-61 49t-49.5 49t-47.5 22q-33 0 -48 -32.5t-15 -83.5q0 -14 -9.5 -20t-38.5 -6q-24 0 -35 8t-11 34q0 91 42.5 146t116.5 55q32 0 57.5 -10.5t47 -26.5t39 -34.5t33.5 -34.5t31.5 -26.5t32.5 -10.5q29 0 45 29
t16 88q0 14 10.5 20t34.5 6q28 0 39 -8.5t11 -34.5z" />
    <glyph glyph-name="f_f_idieresis.liga" unicode="ff&#xef;" horiz-adv-x="1639" 
d="M1472 20q0 -6 -3 -11t-9.5 -8t-18 -5t-28.5 -2q-18 0 -29.5 2t-18 5t-9.5 8t-3 11v825h-463v-825q0 -6 -3 -11t-9.5 -8t-18 -5t-28.5 -2q-18 0 -29.5 2t-18 5t-9.5 8t-3 11v825h-444v-825q0 -6 -3 -11t-9.5 -8t-18 -5t-29.5 -2q-17 0 -28.5 2t-18.5 5t-9.5 8t-2.5 11v825
h-136q-14 0 -21.5 12.5t-7.5 37.5q0 13 2 22.5t5.5 16t9 9.5t12.5 3h136v96q0 94 17.5 160t52 107.5t85.5 60.5t117 19q44 0 76 -8t45.5 -14t19 -11.5t9 -13.5t5 -18.5t1.5 -23.5q0 -23 -4.5 -34t-15.5 -11q-8 0 -20 5t-29.5 11t-40 11t-50.5 5q-83 0 -116 -58.5t-33 -186.5
v-96h444v126q0 87 17.5 149t50.5 101.5t80 58.5t106 19q29 0 57 -4t40 -9t17 -9.5t8 -11.5t4.5 -17t1.5 -23q0 -23 -4.5 -34t-15.5 -11q-8 0 -17 2.5t-21.5 6t-30 6t-42.5 2.5q-70 0 -101 -55.5t-31 -170.5v-126h545q20 0 28.5 -11.5t8.5 -29.5v-885zM1213 1229q0 22 3.5 37
t12 24t22.5 13t36 4q21 0 35.5 -4t23 -13t12 -24t3.5 -37q0 -21 -3.5 -36t-12 -24.5t-23 -13.5t-35.5 -4q-22 0 -36 4t-22.5 13.5t-12 24.5t-3.5 36zM1491 1229q0 22 3.5 37t12 24t22.5 13t36 4q21 0 35.5 -4t23 -13t12 -24t3.5 -37q0 -21 -3.5 -36t-12 -24.5t-23 -13.5
t-35.5 -4q-22 0 -36 4t-22.5 13.5t-12 24.5t-3.5 36z" />
    <glyph glyph-name="f_f_imacron.liga" unicode="ff&#x12b;" horiz-adv-x="1639" 
d="M1472 20q0 -6 -3 -11t-9.5 -8t-18 -5t-28.5 -2q-18 0 -29.5 2t-18 5t-9.5 8t-3 11v825h-463v-825q0 -6 -3 -11t-9.5 -8t-18 -5t-28.5 -2q-18 0 -29.5 2t-18 5t-9.5 8t-3 11v825h-444v-825q0 -6 -3 -11t-9.5 -8t-18 -5t-29.5 -2q-17 0 -28.5 2t-18.5 5t-9.5 8t-2.5 11v825
h-136q-14 0 -21.5 12.5t-7.5 37.5q0 13 2 22.5t5.5 16t9 9.5t12.5 3h136v96q0 94 17.5 160t52 107.5t85.5 60.5t117 19q44 0 76 -8t45.5 -14t19 -11.5t9 -13.5t5 -18.5t1.5 -23.5q0 -23 -4.5 -34t-15.5 -11q-8 0 -20 5t-29.5 11t-40 11t-50.5 5q-83 0 -116 -58.5t-33 -186.5
v-96h444v126q0 87 17.5 149t50.5 101.5t80 58.5t106 19q29 0 57 -4t40 -9t17 -9.5t8 -11.5t4.5 -17t1.5 -23q0 -23 -4.5 -34t-15.5 -11q-8 0 -17 2.5t-21.5 6t-30 6t-42.5 2.5q-70 0 -101 -55.5t-31 -170.5v-126h545q20 0 28.5 -11.5t8.5 -29.5v-885zM1628 1277q6 0 11 -3
t8 -9t5 -15.5t2 -22.5q0 -12 -2 -21t-5 -15.5t-8 -10t-11 -3.5h-415q-7 0 -12.5 3.5t-9 10t-5 15.5t-1.5 21q0 25 7 37.5t21 12.5h415z" />
    <glyph glyph-name="f_f_ibreve.liga" unicode="ff&#x12d;" horiz-adv-x="1639" 
d="M1472 20q0 -6 -3 -11t-9.5 -8t-18 -5t-28.5 -2q-18 0 -29.5 2t-18 5t-9.5 8t-3 11v825h-463v-825q0 -6 -3 -11t-9.5 -8t-18 -5t-28.5 -2q-18 0 -29.5 2t-18 5t-9.5 8t-3 11v825h-444v-825q0 -6 -3 -11t-9.5 -8t-18 -5t-29.5 -2q-17 0 -28.5 2t-18.5 5t-9.5 8t-2.5 11v825
h-136q-14 0 -21.5 12.5t-7.5 37.5q0 13 2 22.5t5.5 16t9 9.5t12.5 3h136v96q0 94 17.5 160t52 107.5t85.5 60.5t117 19q44 0 76 -8t45.5 -14t19 -11.5t9 -13.5t5 -18.5t1.5 -23.5q0 -23 -4.5 -34t-15.5 -11q-8 0 -20 5t-29.5 11t-40 11t-50.5 5q-83 0 -116 -58.5t-33 -186.5
v-96h444v126q0 87 17.5 149t50.5 101.5t80 58.5t106 19q29 0 57 -4t40 -9t17 -9.5t8 -11.5t4.5 -17t1.5 -23q0 -23 -4.5 -34t-15.5 -11q-8 0 -17 2.5t-21.5 6t-30 6t-42.5 2.5q-70 0 -101 -55.5t-31 -170.5v-126h545q20 0 28.5 -11.5t8.5 -29.5v-885zM1556 1361q0 11 9 17.5
t37 6.5q15 0 23.5 -1.5t13 -4.5t6 -7.5t1.5 -10.5q0 -68 -14.5 -118t-43 -83t-71 -49.5t-99.5 -16.5q-62 0 -105.5 17.5t-70.5 51.5t-39.5 82.5t-12.5 111.5q0 7 2 12.5t7.5 9t14 5t21.5 1.5q28 0 37 -5.5t9 -18.5q2 -40 10 -72t24 -54.5t41 -34.5t62 -12q61 0 97 40t41 133
z" />
    <glyph glyph-name="f_f_iogonek.liga" unicode="ff&#x12f;" horiz-adv-x="1620" 
d="M1472 1229q0 -23 -3.5 -38.5t-12.5 -25t-24 -13.5t-38 -4t-38 4t-24 13.5t-12.5 25t-3.5 38.5t3.5 38.5t12.5 25.5t24 14t38 4t38 -4t24 -14t12.5 -25.5t3.5 -38.5zM1530 -308q0 -11 -1.5 -18t-4.5 -12t-9 -7.5t-15 -4.5q-31 -8 -62 -11.5t-66 -3.5q-43 0 -77 9.5
t-57 27.5t-35.5 44.5t-12.5 61.5q0 14 2 30t10 35t24 41.5t44 50.5l65 65v845h-445v-825q0 -6 -3 -11t-9.5 -8t-18 -5t-28.5 -2q-18 0 -29.5 2t-18 5t-9.5 8t-3 11v825h-444v-825q0 -6 -3 -11t-9.5 -8t-18 -5t-29.5 -2q-17 0 -28.5 2t-18.5 5t-9.5 8t-2.5 11v825h-136
q-14 0 -21.5 12.5t-7.5 37.5q0 13 2 22.5t5.5 16t9 9.5t12.5 3h136v96q0 94 17.5 160t52 107.5t85.5 60.5t117 19q44 0 76 -8t45.5 -14t19 -11.5t9 -13.5t5 -18.5t1.5 -23.5q0 -23 -4.5 -34t-15.5 -11q-8 0 -20 5t-29.5 11t-40 11t-50.5 5q-83 0 -116 -58.5t-33 -186.5v-96
h444v107q0 94 18 160t51.5 107.5t83 60.5t112.5 19q22 0 43.5 -2t38.5 -5.5t29.5 -8t17 -9t7.5 -9t5 -11t3 -15.5t1 -22q0 -22 -4.5 -33t-15.5 -11q-8 0 -17.5 3.5t-23.5 8t-35 8.5t-52 4q-78 0 -110.5 -58.5t-32.5 -186.5v-107h526q20 0 29 -11.5t9 -29.5v-885
q0 -12 -4.5 -29.5t-12.5 -25.5l-82 -82q-33 -33 -41.5 -53.5t-8.5 -37.5q0 -59 80 -59h120q6 0 11 -1.5t8 -6t4.5 -12.5t1.5 -21z" />
    <glyph glyph-name="f_f_dotlessi.liga" unicode="ff&#x131;" horiz-adv-x="1620" 
d="M1441.5 1q-12.5 -7 -47.5 -7t-47 7t-12 19v825h-445v-825q0 -12 -12 -19t-47 -7t-47.5 7t-12.5 19v825h-444v-825q0 -12 -12.5 -19t-47.5 -7t-47 7t-12 19v825h-136q-29 0 -29 50q0 51 29 51h136v96q0 94 17.5 160t52 107.5t85.5 60.5t117 19q44 0 76 -8t50 -16
q17 -8 23.5 -23.5t6.5 -41.5q0 -45 -20 -45q-8 0 -20 5t-29.5 11t-40 11t-50.5 5q-83 0 -116 -58.5t-33 -186.5v-96h444v126q0 87 17.5 149t50.5 101.5t80 58.5t106 19q29 0 57 -4.5t45 -10.5q14 -5 20 -19t6 -40q0 -45 -20 -45q-8 0 -17 2.5t-21.5 6t-30 6t-42.5 2.5
q-70 0 -101 -55.5t-31 -170.5v-126h526q20 0 29 -11.5t9 -29.5v-885q0 -12 -12.5 -19z" />
    <glyph glyph-name="f_j.liga" unicode="fj" horiz-adv-x="1057" 
d="M908 1229q0 -23 -3.5 -38.5t-12 -25t-23.5 -13.5t-38 -4t-38 4t-24 13.5t-12.5 25t-3.5 38.5t3.5 38.5t12.5 25.5t24 14t38 4t38 -4t23.5 -14t12 -25.5t3.5 -38.5zM890 -43q0 -88 -11 -143.5t-39.5 -95t-78 -61.5t-125.5 -22q-19 0 -38 2t-36.5 6t-31 9.5t-18.5 9.5
t-7.5 9t-3.5 11t-1.5 11t-0.5 16q0 13 1.5 23t4.5 16.5t7.5 9.5t10.5 3q9 0 22.5 -5.5t36.5 -11t58 -5.5q33 0 58 11t41 36.5t24 66.5t8 121v871h-444v-825q0 -6 -3 -11t-9.5 -8t-18 -5t-29.5 -2q-17 0 -28.5 2t-18.5 5t-9.5 8t-2.5 11v825h-136q-14 0 -21.5 12.5t-7.5 37.5
q0 13 2 22.5t5.5 16t9 9.5t12.5 3h136v107q0 94 17.5 160t51.5 107.5t83.5 60.5t112.5 19q22 0 43 -2t38.5 -5.5t30 -8t17 -9t7.5 -9.5t4.5 -11.5t2.5 -15.5t1 -21q0 -22 -4.5 -33t-15.5 -11q-8 0 -17 3.5t-23.5 8t-35.5 8.5t-52 4q-78 0 -110 -58.5t-32 -186.5v-107h526
q20 0 28.5 -11.5t8.5 -29.5v-948z" />
    <glyph glyph-name="f_jcircumflex.liga" unicode="f&#x135;" horiz-adv-x="1057" 
d="M890 -63q0 -68 -11 -123.5t-39.5 -95t-78 -61.5t-125.5 -22q-19 0 -38 2t-36.5 6t-31 9.5t-18.5 9.5t-7.5 9t-3.5 11t-1.5 12t-0.5 15q0 13 1.5 23t4.5 16.5t7.5 9.5t10.5 3q9 0 27 -7t39.5 -11t50.5 -4q33 0 58 11t41 36.5t24 66.5t8 101v891h-444v-825q0 -6 -3 -11
t-9.5 -8t-18.5 -5t-29 -2t-28.5 2t-18.5 5t-9.5 8t-2.5 11v825h-136q-14 0 -21.5 12.5t-7.5 37.5q0 13 2 22.5t5.5 16t9 9.5t12.5 3h136v126q0 87 17.5 149t50.5 101.5t80 58.5t106 19q29 0 57 -4.5t43 -10t21 -11.5t9.5 -14t5 -18.5t1.5 -23.5q0 -22 -5 -33t-16 -11
q-8 0 -18 3.5t-24.5 8t-33.5 8.5t-44 4q-70 0 -100.5 -55.5t-30.5 -170.5v-126h526q20 0 28.5 -11.5t8.5 -29.5v-968zM706 1122q-5 -8 -10.5 -13t-12 -8t-16 -4t-22.5 -1q-20 0 -30.5 3t-13.5 9t1 15.5t14 22.5l165 232q5 7 10 11t12.5 6.5t19 3.5t28.5 1q15 0 25 -1
t17.5 -4t12.5 -7t10 -10l165 -232q9 -13 12.5 -22.5t0 -15.5t-14.5 -9t-30 -3q-15 0 -24 1t-15.5 4t-11 8t-10.5 13l-141 198z" />
    <glyph glyph-name="f_f_j.liga" unicode="ffj" horiz-adv-x="1620" 
d="M1472 1229q0 -23 -3.5 -38.5t-12.5 -25t-24 -13.5t-38 -4t-38 4t-24 13.5t-12.5 25t-3.5 38.5t3.5 38.5t12.5 25.5t24 14t38 4t38 -4t24 -14t12.5 -25.5t3.5 -38.5zM771 1053q0 94 18 160t51.5 107.5t83 60.5t112.5 19q24 0 45.5 -2t38.5 -5.5t28.5 -8t16 -9t7.5 -9.5
t4.5 -11.5t2.5 -15.5t1 -21q0 -22 -4.5 -33t-15.5 -11q-8 0 -17 3.5t-23 8t-35 8.5t-52 4q-78 0 -110.5 -58.5t-32.5 -186.5v-107h526q20 0 29 -11.5t9 -29.5v-968q0 -68 -11 -123.5t-39.5 -95t-78 -61.5t-125.5 -22q-20 0 -39 2t-36.5 6t-31 9.5t-18.5 9.5t-7.5 9
t-3.5 10.5t-1.5 11.5t-0.5 16q0 13 1.5 23t4.5 16.5t7.5 9.5t10.5 3q9 0 17.5 -3.5t21 -7.5t31 -7.5t47.5 -3.5q33 0 58 11t41.5 36.5t24.5 66.5t8 101v891h-445v-825q0 -6 -3 -11t-9.5 -8t-18 -5t-28.5 -2q-18 0 -29.5 2t-18 5t-9.5 8t-3 11v825h-444v-825q0 -6 -3 -11
t-9.5 -8t-18 -5t-29.5 -2q-17 0 -28.5 2t-18.5 5t-9.5 8t-2.5 11v825h-136q-14 0 -21.5 12.5t-7.5 37.5q0 13 2 22.5t5.5 16t9 9.5t12.5 3h136v96q0 94 17.5 160t52 107.5t85.5 60.5t117 19q44 0 76 -8t45.5 -14t19 -11.5t9 -13.5t5 -18.5t1.5 -23.5q0 -23 -4.5 -34
t-15.5 -11q-8 0 -20 5t-29.5 11t-40 11t-50.5 5q-83 0 -116 -58.5t-33 -186.5v-96h444v107z" />
    <glyph glyph-name="f_k.liga" unicode="fk" horiz-adv-x="1507" 
d="M831 1394q17 0 28.5 -1.5t18 -5t9.5 -8.5t3 -11v-832l382 385q7 9 15.5 14.5t18.5 9t23 5t30 1.5t29.5 -1t21 -4t12.5 -7.5t4 -11.5q0 -10 -6.5 -19.5t-21.5 -24.5l-362 -342l403 -480q12 -15 17 -23t5 -16q0 -7 -3 -12t-10 -8.5t-19 -5.5t-31 -2q-20 0 -33 1.5
t-22.5 4.5t-16 8t-12.5 12l-424 514v-514q0 -6 -3 -11t-9.5 -8t-18 -5t-28.5 -2q-18 0 -29.5 2t-18 5t-9.5 8t-3 11v1256q-2 -2 -5 -2.5t-9 -0.5q-12 0 -39 6.5t-55.5 10.5t-54 6t-48.5 2q-71 0 -116.5 -14.5t-71.5 -44.5t-35.5 -76.5t-9.5 -109.5v-107h205q7 0 12.5 -3
t9.5 -9.5t6 -16t2 -22.5q0 -25 -8 -37.5t-22 -12.5h-205v-825q0 -6 -3 -11t-9.5 -8t-18.5 -5t-29 -2t-28.5 2t-18.5 5t-9.5 8t-2.5 11v825h-136q-14 0 -21.5 12.5t-7.5 37.5q0 13 2 22.5t5.5 16t9 9.5t12.5 3h136v107q0 94 21 160t65 107.5t111 60.5t159 19q26 0 52.5 -2
t51.5 -5t44 -6.5t30 -6.5t18 -7t11 -12q0 10 3 16t9.5 10t18 5.5t29.5 1.5z" />
    <glyph glyph-name="f_f_k.liga" unicode="ffk" horiz-adv-x="2071" 
d="M2025 22q0 -7 -3 -12t-10 -8.5t-19 -5.5t-31 -2q-20 0 -33 1.5t-22.5 4.5t-16 8t-12.5 12l-424 514v-514q0 -6 -3 -11t-9.5 -8t-18 -5t-29.5 -2q-17 0 -28.5 2t-18.5 5t-9.5 8t-2.5 11v1256q-2 -2 -5 -2.5t-9 -0.5q-12 0 -39 6.5t-55.5 10.5t-54 6t-48.5 2
q-71 0 -116.5 -14.5t-71.5 -44.5t-36 -76.5t-10 -109.5v-107h206q7 0 12 -3t9 -9.5t6 -16t2 -22.5q0 -25 -8 -37.5t-21 -12.5h-206v-825q0 -6 -3 -11t-9.5 -8t-18 -5t-28.5 -2q-18 0 -29.5 2t-18 5t-9.5 8t-3 11v825h-444v-825q0 -6 -3 -11t-9.5 -8t-18.5 -5t-29 -2t-28.5 2
t-18.5 5t-9.5 8t-2.5 11v825h-136q-14 0 -21.5 12.5t-7.5 37.5q0 13 2 22.5t5.5 16t9 9.5t12.5 3h136v96q0 94 17.5 160t52 107.5t85.5 60.5t117 19q44 0 76 -8t45.5 -14t19 -11.5t9 -13.5t5 -18.5t1.5 -23.5q0 -23 -4.5 -34t-15.5 -11q-8 0 -20 5t-29.5 11t-40 11t-50.5 5
q-83 0 -116 -58.5t-33 -186.5v-96h444v107q0 94 21.5 160t65 107.5t110.5 60.5t159 19q27 0 53.5 -2t51.5 -5t44 -6.5t30 -6.5t18 -7t11 -12q0 10 3 16t9.5 10t18 5.5t28.5 1.5q18 0 29.5 -1.5t18 -5t9.5 -8.5t3 -11v-832l381 385q8 9 16.5 14.5t18.5 9t23 5t30 1.5t29.5 -1
t20.5 -4t12 -7.5t4 -11.5q0 -10 -6 -19.5t-21 -24.5l-362 -342l402 -480q13 -15 18 -23t5 -16z" />
    <glyph glyph-name="f_lacute.liga" unicode="f&#x13a;" horiz-adv-x="1057" 
d="M890 20q0 -6 -3 -11t-9.5 -8t-18 -5t-28.5 -2q-18 0 -29.5 2t-18 5t-9.5 8t-3 11v1256q-2 -2 -5 -2.5t-9 -0.5q-12 0 -39 6.5t-55.5 10.5t-54 6t-48.5 2q-71 0 -116.5 -14.5t-71.5 -44.5t-35.5 -76.5t-9.5 -109.5v-107h205q7 0 12.5 -3t9.5 -9.5t6 -16t2 -22.5
q0 -25 -8 -37.5t-22 -12.5h-205v-825q0 -6 -3 -11t-9.5 -8t-18 -5t-29.5 -2q-17 0 -28.5 2t-18.5 5t-9.5 8t-2.5 11v825h-136q-14 0 -21.5 12.5t-7.5 37.5q0 13 2 22.5t5.5 16t9 9.5t12.5 3h136v107q0 94 21 160t65 107.5t111 60.5t159 19q26 0 52.5 -2t51.5 -5t44 -6.5
t30 -6.5t18 -7t11 -12q0 10 3 16t9.5 10t18 5.5t29.5 1.5q17 0 28.5 -1.5t18 -5t9.5 -8.5t3 -11v-1348zM993 1726q10 11 19.5 17.5t20.5 10t25 4.5t32 1q21 0 34 -3.5t18.5 -9t4 -13t-8.5 -15.5l-228 -219q-10 -10 -18 -15.5t-17 -8.5t-19.5 -4t-25.5 -1q-17 0 -26.5 2.5
t-12.5 7t-1 11.5t10 16zM641 1364z" />
    <glyph glyph-name="f_lcaron.liga" unicode="f&#x13e;" horiz-adv-x="1098" 
d="M890 20q0 -6 -3 -11t-9.5 -8t-18 -5t-28.5 -2q-18 0 -29.5 2t-18 5t-9.5 8t-3 11v1256q-2 -2 -5 -2.5t-9 -0.5q-12 0 -39 6.5t-55.5 10.5t-54 6t-48.5 2q-71 0 -116.5 -14.5t-71.5 -44.5t-35.5 -76.5t-9.5 -109.5v-107h205q7 0 12.5 -3t9.5 -9.5t6 -16t2 -22.5
q0 -25 -8 -37.5t-22 -12.5h-205v-825q0 -6 -3 -11t-9.5 -8t-18 -5t-29.5 -2q-17 0 -28.5 2t-18.5 5t-9.5 8t-2.5 11v825h-136q-14 0 -21.5 12.5t-7.5 37.5q0 13 2 22.5t5.5 16t9 9.5t12.5 3h136v107q0 94 21 160t65 107.5t111 60.5t159 19q26 0 52.5 -2t51.5 -5t44 -6.5
t30 -6.5t18 -7t11 -12q0 10 3 16t9.5 10t18 5.5t29.5 1.5q17 0 28.5 -1.5t18 -5t9.5 -8.5t3 -11v-1348zM1066 1365q3 9 8 15t13 9t21 4.5t31 1.5q15 0 23.5 -1.5t12.5 -5t4.5 -9.5t-1.5 -14l-125 -312q-1 -4 -4 -7t-9.5 -5t-17 -3t-26.5 -1q-11 0 -17.5 1.5t-9.5 4.5t-4 7
t1 9zM816 1002z" />
    <glyph glyph-name="f_uni013C.liga" unicode="f&#x13c;" horiz-adv-x="1057" 
d="M890 20q0 -6 -3 -11t-9.5 -8t-18 -5t-28.5 -2q-18 0 -29.5 2t-18 5t-9.5 8t-3 11v1256q-2 -2 -5 -2.5t-9 -0.5q-12 0 -39 6.5t-55.5 10.5t-54 6t-48.5 2q-71 0 -116.5 -14.5t-71.5 -44.5t-35.5 -76.5t-9.5 -109.5v-107h205q7 0 12.5 -3t9.5 -9.5t6 -16t2 -22.5
q0 -25 -8 -37.5t-22 -12.5h-205v-825q0 -6 -3 -11t-9.5 -8t-18 -5t-29.5 -2q-17 0 -28.5 2t-18.5 5t-9.5 8t-2.5 11v825h-136q-14 0 -21.5 12.5t-7.5 37.5q0 13 2 22.5t5.5 16t9 9.5t12.5 3h136v107q0 94 21 160t65 107.5t111 60.5t159 19q26 0 52.5 -2t51.5 -5t44 -6.5
t30 -6.5t18 -7t11 -12q0 10 3 16t9.5 10t18 5.5t29.5 1.5q17 0 28.5 -1.5t18 -5t9.5 -8.5t3 -11v-1348zM762 -132q7 21 22 27.5t54 6.5q38 0 44.5 -12t-1.5 -29l-95 -197q-9 -19 -22.5 -24t-43.5 -5q-27 0 -31 8.5t3 28.5z" />
    <glyph glyph-name="f_t.liga" unicode="ft" horiz-adv-x="1238" 
d="M327 845v-825q0 -6 -3 -11t-9.5 -8t-18.5 -5t-29 -2t-28.5 2t-18.5 5t-9.5 8t-2.5 11v825h-136q-14 0 -21.5 12.5t-7.5 37.5q0 13 2 22.5t5.5 16t9 9.5t12.5 3h136v103q0 95 17 162t51.5 109t86.5 61t121 19q36 0 69.5 -7.5t47.5 -14t19.5 -12t9 -13.5t5 -18.5t1.5 -23.5
q0 -14 -1.5 -22.5t-4 -13.5t-6 -7t-8.5 -2q-8 0 -19 5t-27.5 11t-39 11t-52.5 5q-42 0 -71 -13.5t-46.5 -43t-25.5 -76t-8 -112.5v-107h442v222q0 6 3 11t9.5 8.5t18 5t29.5 1.5q17 0 28.5 -1.5t18 -5t9.5 -8.5t3 -11v-222h250q7 0 12.5 -3t9.5 -9.5t6 -16t2 -22.5
q0 -25 -8 -37.5t-22 -12.5h-250v-547q0 -103 29.5 -157t107.5 -54q24 0 43.5 5t34.5 11t26 11t19 5q5 0 8.5 -2t6 -7.5t4 -14t1.5 -21.5q0 -21 -3.5 -34t-11 -20.5t-21.5 -14t-33 -11t-40 -7t-41 -2.5q-68 0 -115 18t-77 54.5t-43.5 92.5t-13.5 132v563h-442z" />
    <glyph glyph-name="f_uni021B.liga" unicode="f&#x21b;" horiz-adv-x="1238" 
d="M327 845v-825q0 -6 -3 -11t-9.5 -8t-18.5 -5t-29 -2t-28.5 2t-18.5 5t-9.5 8t-2.5 11v825h-136q-14 0 -21.5 12.5t-7.5 37.5q0 13 2 22.5t5.5 16t9 9.5t12.5 3h136v103q0 95 17 162t51.5 109t86.5 61t121 19q36 0 69.5 -7.5t47.5 -14t19.5 -12t9 -13.5t5 -18.5t1.5 -23.5
q0 -14 -1.5 -22.5t-4 -13.5t-6 -7t-8.5 -2q-8 0 -19 5t-27.5 11t-39 11t-52.5 5q-42 0 -71 -13.5t-46.5 -43t-25.5 -76t-8 -112.5v-107h442v222q0 6 3 11t9.5 8.5t18 5t29.5 1.5q17 0 28.5 -1.5t18 -5t9.5 -8.5t3 -11v-222h250q7 0 12.5 -3t9.5 -9.5t6 -16t2 -22.5
q0 -25 -8 -37.5t-22 -12.5h-250v-547q0 -103 29.5 -157t107.5 -54q24 0 43.5 5t34.5 11t26 11t19 5q5 0 8.5 -2t6 -7.5t4 -14t1.5 -21.5q0 -21 -3.5 -34t-11 -20.5t-21.5 -14t-33 -11t-40 -7t-41 -2.5q-68 0 -115 18t-77 54.5t-43.5 92.5t-13.5 132v563h-442zM908 -132
q7 21 22 27.5t54 6.5q38 0 44.5 -12t-1.5 -29l-95 -197q-9 -19 -22.5 -24t-43.5 -5q-27 0 -31 8.5t3 28.5z" />
    <glyph glyph-name="f_tcaron.liga" unicode="f&#x165;" horiz-adv-x="1272" 
d="M327 845v-825q0 -6 -3 -11t-9.5 -8t-18.5 -5t-29 -2t-28.5 2t-18.5 5t-9.5 8t-2.5 11v825h-136q-14 0 -21.5 12.5t-7.5 37.5q0 13 2 22.5t5.5 16t9 9.5t12.5 3h136v103q0 95 17 162t51.5 109t86.5 61t121 19q36 0 69.5 -7.5t47.5 -14t19.5 -12t9 -13.5t5 -18.5t1.5 -23.5
q0 -14 -1.5 -22.5t-4 -13.5t-6 -7t-8.5 -2q-8 0 -19 5t-27.5 11t-39 11t-52.5 5q-42 0 -71 -13.5t-46.5 -43t-25.5 -76t-8 -112.5v-107h442v222q0 6 3 11t9.5 8.5t18 5t29.5 1.5q17 0 28.5 -1.5t18 -5t9.5 -8.5t3 -11v-222h250q7 0 12.5 -3t9.5 -9.5t6 -16t2 -22.5
q0 -25 -8 -37.5t-22 -12.5h-250v-547q0 -103 29.5 -157t107.5 -54q24 0 43.5 5t34.5 11t26 11t19 5q5 0 8.5 -2t6 -7.5t4 -14t1.5 -21.5q0 -21 -3.5 -34t-11 -20.5t-21.5 -14t-33 -11t-40 -7t-41 -2.5q-68 0 -115 18t-77 54.5t-43.5 92.5t-13.5 132v563h-442zM1127 1420
q3 9 8 15t13 9t21 4.5t31 1.5q15 0 23.5 -1.5t12.5 -5t4.5 -9.5t-1.5 -14l-125 -312q-1 -4 -4 -7t-9.5 -5t-17 -3t-26.5 -1q-11 0 -17.5 1.5t-9.5 4.5t-4 7t1 9zM877 1057z" />
    <glyph glyph-name="f_f_t.liga" unicode="fft" horiz-adv-x="1802" 
d="M1732 74q0 -21 -3.5 -34t-11 -20.5t-22 -14t-33.5 -11t-40 -7t-41 -2.5q-67 0 -114 18t-77 54.5t-43.5 92.5t-13.5 132v563h-443v-825q0 -6 -3 -11t-9.5 -8t-18 -5t-28.5 -2q-18 0 -29.5 2t-18 5t-9.5 8t-3 11v825h-444v-825q0 -6 -3 -11t-9.5 -8t-18.5 -5t-29 -2
t-28.5 2t-18.5 5t-9.5 8t-2.5 11v825h-136q-14 0 -21.5 12.5t-7.5 37.5q0 13 2 22.5t5.5 16t9 9.5t12.5 3h136v92q0 95 17 162t51.5 109t86.5 61t121 19q38 0 71 -8t46.5 -14t19 -11.5t9 -13.5t5 -18.5t1.5 -23.5q0 -14 -1.5 -22.5t-4 -13.5t-6 -7t-8.5 -2q-8 0 -19 5
t-27.5 11t-39 11t-52.5 5q-42 0 -71 -13.5t-47 -43t-25.5 -76t-7.5 -112.5v-96h444v103q0 95 17.5 162t52 109t86.5 61t121 19q34 0 66 -7t48 -14t22 -12.5t9.5 -13.5t5 -18.5t1.5 -23.5q0 -14 -1.5 -22.5t-4 -13.5t-6.5 -7t-9 -2q-8 0 -19 5t-27 11t-38.5 11t-52.5 5
q-42 0 -71 -13.5t-47 -43t-26 -76t-8 -112.5v-107h443v222q0 6 2.5 11t9.5 8.5t18.5 5t28.5 1.5q18 0 29.5 -1.5t18 -5t9.5 -8.5t3 -11v-222h250q7 0 12.5 -3t9.5 -9.5t6 -16t2 -22.5q0 -25 -8 -37.5t-22 -12.5h-250v-547q0 -103 29.5 -157t107.5 -54q24 0 43.5 5t34.5 11
t25.5 11t18.5 5q5 0 9 -2t6.5 -7.5t4 -14t1.5 -21.5z" />
    <glyph glyph-name="t_f.liga" unicode="tf" horiz-adv-x="1231" 
d="M827 946v103q0 95 17.5 162t52 109t86 61t120.5 19q32 0 64.5 -6.5t49.5 -14t22.5 -13t9 -13.5t5 -18.5t1.5 -23.5q0 -14 -1.5 -22.5t-4 -13.5t-6 -7t-8.5 -2q-8 0 -31.5 10t-49.5 16t-56 6q-42 0 -71 -13.5t-47 -43t-26 -76t-8 -112.5v-107h222q7 0 12.5 -3t9.5 -9.5
t6 -16t2 -22.5q0 -25 -8 -37.5t-22 -12.5h-222v-825q0 -6 -3 -11t-9.5 -8t-18 -5t-29.5 -2q-17 0 -28.5 2t-18.5 5t-9.5 8t-2.5 11v825h-504v-547q0 -103 29.5 -157t107.5 -54q24 0 43.5 5t34.5 11t25.5 11t18.5 5q5 0 9 -2t6.5 -7.5t4 -14t1.5 -21.5q0 -21 -3.5 -34
t-11 -20.5t-22 -14t-33.5 -11t-40 -7t-41 -2.5q-67 0 -114 18t-77 54.5t-43.5 92.5t-13.5 132v563h-135q-14 0 -22 12.5t-8 37.5q0 13 2 22.5t6 16t9.5 9.5t12.5 3h135v222q0 6 2.5 11t9.5 8.5t18.5 5t28.5 1.5q18 0 29.5 -1.5t18 -5t9.5 -8.5t3 -11v-222h504z" />
    <glyph glyph-name="t_i.liga" unicode="ti" horiz-adv-x="1109" 
d="M903 946q23 0 31 -11.5t8 -31.5v-883q0 -6 -3 -11t-9.5 -8t-18 -5t-28.5 -2q-18 0 -29.5 2t-18 5t-9.5 8t-3 11v825h-500v-547q0 -103 29.5 -157t107.5 -54q24 0 43.5 5t34.5 11t25.5 11t18.5 5q5 0 9 -2t6.5 -7.5t4 -14t1.5 -21.5q0 -21 -3.5 -34t-11 -20.5t-22 -14
t-33.5 -11t-40 -7t-41 -2.5q-67 0 -114 18t-77 54.5t-43.5 92.5t-13.5 132v563h-135q-14 0 -22 12.5t-8 37.5q0 13 2 22.5t6 16t9.5 9.5t12.5 3h135v222q0 6 2.5 11t9.5 8.5t18.5 5t28.5 1.5q18 0 29.5 -1.5t18 -5t9.5 -8.5t3 -11v-222h580zM960 1230q0 -48 -17 -65t-62 -17
q-44 0 -60.5 16.5t-16.5 64.5t17 65t62 17q44 0 60.5 -16.5t16.5 -64.5zM656 946z" />
    <glyph glyph-name="t_igrave.liga" unicode="t&#xec;" horiz-adv-x="1109" 
d="M903 946q23 0 31 -11.5t8 -31.5v-883q0 -6 -3 -11t-9.5 -8t-18 -5t-28.5 -2q-18 0 -29.5 2t-18 5t-9.5 8t-3 11v825h-500v-547q0 -103 29.5 -157t107.5 -54q24 0 43.5 5t34.5 11t25.5 11t18.5 5q5 0 9 -2t6.5 -7.5t4 -14t1.5 -21.5q0 -21 -3.5 -34t-11 -20.5t-22 -14
t-33.5 -11t-40 -7t-41 -2.5q-67 0 -114 18t-77 54.5t-43.5 92.5t-13.5 132v563h-135q-14 0 -22 12.5t-8 37.5q0 13 2 22.5t6 16t9.5 9.5t12.5 3h135v222q0 6 2.5 11t9.5 8.5t18.5 5t28.5 1.5q18 0 29.5 -1.5t18 -5t9.5 -8.5t3 -11v-222h580zM919 1133q6 -9 7.5 -16t-2 -11.5
t-12.5 -7t-24 -2.5t-25 1t-17.5 4t-13.5 8.5t-13 15.5l-174 234q-7 9 -8 16.5t4 13t17 8.5t31 3t32 -1.5t22 -5t16 -10.5t14 -17z" />
    <glyph glyph-name="t_iacute.liga" unicode="t&#xed;" horiz-adv-x="1109" 
d="M903 946q23 0 31 -11.5t8 -31.5v-883q0 -6 -3 -11t-9.5 -8t-18 -5t-28.5 -2q-18 0 -29.5 2t-18 5t-9.5 8t-3 11v825h-500v-547q0 -103 29.5 -157t107.5 -54q24 0 43.5 5t34.5 11t25.5 11t18.5 5q5 0 9 -2t6.5 -7.5t4 -14t1.5 -21.5q0 -21 -3.5 -34t-11 -20.5t-22 -14
t-33.5 -11t-40 -7t-41 -2.5q-67 0 -114 18t-77 54.5t-43.5 92.5t-13.5 132v563h-135q-14 0 -22 12.5t-8 37.5q0 13 2 22.5t6 16t9.5 9.5t12.5 3h135v222q0 6 2.5 11t9.5 8.5t18.5 5t28.5 1.5q18 0 29.5 -1.5t18 -5t9.5 -8.5t3 -11v-222h580zM973 1366q6 10 13 17t16.5 10.5
t23 5t32.5 1.5t31 -3t17 -8.5t3.5 -13t-8.5 -16.5l-174 -234q-7 -10 -12.5 -15.5t-12.5 -8.5t-17 -4t-25 -1t-24.5 2.5t-13 7t-2.5 11.5t7 16z" />
    <glyph glyph-name="t_icircumflex.liga" unicode="t&#xee;" horiz-adv-x="1109" 
d="M903 946q23 0 31 -11.5t8 -31.5v-883q0 -6 -3 -11t-9.5 -8t-18 -5t-28.5 -2q-18 0 -29.5 2t-18 5t-9.5 8t-3 11v825h-500v-547q0 -103 29.5 -157t107.5 -54q24 0 43.5 5t34.5 11t25.5 11t18.5 5q5 0 9 -2t6.5 -7.5t4 -14t1.5 -21.5q0 -21 -3.5 -34t-11 -20.5t-22 -14
t-33.5 -11t-40 -7t-41 -2.5q-67 0 -114 18t-77 54.5t-43.5 92.5t-13.5 132v563h-135q-14 0 -22 12.5t-8 37.5q0 13 2 22.5t6 16t9.5 9.5t12.5 3h135v222q0 6 2.5 11t9.5 8.5t18.5 5t28.5 1.5q18 0 29.5 -1.5t18 -5t9.5 -8.5t3 -11v-222h580zM729 1122q-6 -8 -11 -13t-12 -8
t-16 -4t-22 -1q-20 0 -31 3t-14.5 9t0 15.5t13.5 22.5l169 232q5 7 10.5 11t13.5 6.5t19.5 3.5t28.5 1q15 0 25 -1t17.5 -4t12.5 -7t10 -10l169 -232q9 -13 12.5 -22.5t0 -15.5t-14.5 -9t-30 -3q-15 0 -24 1t-15.5 4t-11 8t-10.5 13l-145 198zM473 946z" />
    <glyph glyph-name="t_idieresis.liga" unicode="t&#xef;" horiz-adv-x="1109" 
d="M903 946q23 0 31 -11.5t8 -31.5v-883q0 -6 -3 -11t-9.5 -8t-18 -5t-28.5 -2q-18 0 -29.5 2t-18 5t-9.5 8t-3 11v825h-500v-547q0 -103 29.5 -157t107.5 -54q24 0 43.5 5t34.5 11t25.5 11t18.5 5q5 0 9 -2t6.5 -7.5t4 -14t1.5 -21.5q0 -21 -3.5 -34t-11 -20.5t-22 -14
t-33.5 -11t-40 -7t-41 -2.5q-67 0 -114 18t-77 54.5t-43.5 92.5t-13.5 132v563h-135q-14 0 -22 12.5t-8 37.5q0 13 2 22.5t6 16t9.5 9.5t12.5 3h135v222q0 6 2.5 11t9.5 8.5t18.5 5t28.5 1.5q18 0 29.5 -1.5t18 -5t9.5 -8.5t3 -11v-222h580zM803 1211q0 -45 -16.5 -61.5
t-58.5 -16.5t-58 16t-16 61q0 46 16.5 62.5t57.5 16.5q43 0 59 -16t16 -62zM1100 1211q0 -45 -16.5 -61.5t-58.5 -16.5t-58 16t-16 61q0 46 16.5 62.5t57.5 16.5q43 0 59 -16t16 -62zM506 946z" />
    <glyph glyph-name="t_imacron.liga" unicode="t&#x12b;" horiz-adv-x="1109" 
d="M903 946q23 0 31 -11.5t8 -31.5v-883q0 -6 -3 -11t-9.5 -8t-18 -5t-28.5 -2q-18 0 -29.5 2t-18 5t-9.5 8t-3 11v825h-500v-547q0 -103 29.5 -157t107.5 -54q24 0 43.5 5t34.5 11t25.5 11t18.5 5q5 0 9 -2t6.5 -7.5t4 -14t1.5 -21.5q0 -21 -3.5 -34t-11 -20.5t-22 -14
t-33.5 -11t-40 -7t-41 -2.5q-67 0 -114 18t-77 54.5t-43.5 92.5t-13.5 132v563h-135q-14 0 -22 12.5t-8 37.5q0 13 2 22.5t6 16t9.5 9.5t12.5 3h135v222q0 6 2.5 11t9.5 8.5t18.5 5t28.5 1.5q18 0 29.5 -1.5t18 -5t9.5 -8.5t3 -11v-222h580zM1107 1277q6 0 11 -3t8 -9
t5 -15.5t2 -22.5q0 -12 -2 -21t-5 -15.5t-8 -10t-11 -3.5h-462q-7 0 -12 3.5t-8.5 10t-5.5 15.5t-2 21q0 13 2 22.5t5.5 15.5t8.5 9t12 3h462zM469 946z" />
    <glyph glyph-name="t_itilde.liga" unicode="t&#x129;" horiz-adv-x="1109" 
d="M903 946q23 0 31 -11.5t8 -31.5v-883q0 -6 -3 -11t-9.5 -8t-18 -5t-28.5 -2q-18 0 -29.5 2t-18 5t-9.5 8t-3 11v825h-500v-547q0 -103 29.5 -157t107.5 -54q24 0 43.5 5t34.5 11t25.5 11t18.5 5q5 0 9 -2t6.5 -7.5t4 -14t1.5 -21.5q0 -21 -3.5 -34t-11 -20.5t-22 -14
t-33.5 -11t-40 -7t-41 -2.5q-67 0 -114 18t-77 54.5t-43.5 92.5t-13.5 132v563h-135q-14 0 -22 12.5t-8 37.5q0 13 2 22.5t6 16t9.5 9.5t12.5 3h135v222q0 6 2.5 11t9.5 8.5t18.5 5t28.5 1.5q18 0 29.5 -1.5t18 -5t9.5 -8.5t3 -11v-222h580zM1181 1302q0 -98 -49.5 -149.5
t-130.5 -51.5q-36 0 -64.5 10.5t-52.5 26.5t-44.5 34.5t-40.5 34.5t-40 26.5t-43 10.5q-44 0 -61 -32.5t-17 -84.5q0 -7 -1.5 -12t-7 -8t-16 -4.5t-27.5 -1.5q-13 0 -22 2t-14 6.5t-7.5 13t-2.5 21.5q0 90 46.5 145t132.5 55q54 0 92.5 -22.5t70 -49t60.5 -49t63 -22.5
q39 0 58.5 29t19.5 88q0 14 8.5 20t37.5 6q32 0 42 -8t10 -34z" />
    <glyph glyph-name="t_ibreve.liga" unicode="t&#x12d;" horiz-adv-x="1109" 
d="M903 946q23 0 31 -11.5t8 -31.5v-883q0 -6 -3 -11t-9.5 -8t-18 -5t-28.5 -2q-18 0 -29.5 2t-18 5t-9.5 8t-3 11v825h-500v-547q0 -103 29.5 -157t107.5 -54q24 0 43.5 5t34.5 11t25.5 11t18.5 5q5 0 9 -2t6.5 -7.5t4 -14t1.5 -21.5q0 -21 -3.5 -34t-11 -20.5t-22 -14
t-33.5 -11t-40 -7t-41 -2.5q-67 0 -114 18t-77 54.5t-43.5 92.5t-13.5 132v563h-135q-14 0 -22 12.5t-8 37.5q0 13 2 22.5t6 16t9.5 9.5t12.5 3h135v222q0 6 2.5 11t9.5 8.5t18.5 5t28.5 1.5q18 0 29.5 -1.5t18 -5t9.5 -8.5t3 -11v-222h580zM1027 1368q0 11 9 17.5t37 6.5
q15 0 23.5 -1.5t13.5 -4.5t6.5 -7.5t1.5 -10.5q0 -68 -16 -118t-46.5 -83t-75.5 -49.5t-102 -16.5q-62 0 -107 18t-74.5 51.5t-43.5 82.5t-14 112q0 14 9.5 20.5t35.5 6.5q14 0 23 -1.5t14 -4.5t7 -7.5t2 -10.5q2 -39 11.5 -71t27.5 -54.5t45 -34.5t64 -12q31 0 57 9.5
t46 30t32 53t14 79.5zM491 946z" />
    <glyph glyph-name="t_iogonek.liga" unicode="t&#x12f;" horiz-adv-x="1109" 
d="M901 946q24 0 32.5 -11.5t8.5 -35.5v-879q0 -12 -4.5 -29.5t-12.5 -25.5l-81 -82q-17 -17 -27 -30t-15 -23.5t-6.5 -19.5t-1.5 -18q0 -30 19 -44.5t60 -14.5h121q6 0 10.5 -1.5t7.5 -6t4.5 -12.5t1.5 -21q0 -11 -1.5 -18t-4.5 -12t-9 -7.5t-15 -4.5q-31 -8 -62 -11.5
t-66 -3.5q-43 0 -76.5 9.5t-57 27.5t-35.5 44.5t-12 61.5q0 14 2 30t10 35t23.5 41.5t43.5 50.5l65 65v845h-500v-547q0 -103 29.5 -157t107.5 -54q24 0 43.5 5t34.5 11t25.5 11t18.5 5q5 0 9 -2t6.5 -7.5t4 -14t1.5 -21.5q0 -21 -3.5 -34t-11 -20.5t-22 -14t-33.5 -11
t-40 -7t-41 -2.5q-67 0 -114 18t-77 54.5t-43.5 92.5t-13.5 132v563h-135q-14 0 -22 12.5t-8 37.5q0 13 2 22.5t6 16t9.5 9.5t12.5 3h135v222q0 6 2.5 11t9.5 8.5t18.5 5t28.5 1.5q18 0 29.5 -1.5t18 -5t9.5 -8.5t3 -11v-222h578zM960 1229q0 -23 -3.5 -38.5t-12 -25
t-23.5 -13.5t-38 -4t-38 4t-24 13.5t-12.5 25t-3.5 38.5t3.5 38.5t12.5 25.5t24 14t38 4t38 -4t23.5 -14t12 -25.5t3.5 -38.5z" />
    <glyph glyph-name="t_dotlessi.liga" unicode="t&#x131;" horiz-adv-x="1109" 
d="M903 946q23 0 31 -11.5t8 -31.5v-883q0 -6 -3 -11t-9.5 -8t-18 -5t-28.5 -2q-18 0 -29.5 2t-18 5t-9.5 8t-3 11v825h-500v-547q0 -103 29.5 -157t107.5 -54q24 0 43.5 5t34.5 11t25.5 11t18.5 5q5 0 9 -2t6.5 -7.5t4 -14t1.5 -21.5q0 -21 -3.5 -34t-11 -20.5t-22 -14
t-33.5 -11t-40 -7t-41 -2.5q-67 0 -114 18t-77 54.5t-43.5 92.5t-13.5 132v563h-135q-14 0 -22 12.5t-8 37.5q0 13 2 22.5t6 16t9.5 9.5t12.5 3h135v222q0 6 2.5 11t9.5 8.5t18.5 5t28.5 1.5q18 0 29.5 -1.5t18 -5t9.5 -8.5t3 -11v-222h580z" />
    <glyph glyph-name="t_t.liga" unicode="tt" horiz-adv-x="1274" 
d="M1203 74q0 -21 -3 -34t-11 -20t-22 -13.5t-33 -11.5t-40 -7.5t-41 -2.5q-68 0 -115 18t-76.5 54.5t-43 92.5t-13.5 132v563h-482v-547q0 -103 29.5 -157t107.5 -54q24 0 43.5 5t34.5 11t25.5 11t18.5 5q5 0 9 -2t6.5 -7.5t4 -14t1.5 -21.5q0 -11 -0.5 -17.5t-2 -13.5
t-4.5 -13.5t-10.5 -12.5t-21 -12t-32 -10.5t-39.5 -7t-41 -2.5q-67 0 -114 18t-77 54.5t-43.5 92.5t-13.5 132v563h-135q-14 0 -22 12.5t-8 37.5q0 13 2 22.5t6 16t9.5 9.5t12.5 3h135v222q0 6 2.5 11t9.5 8.5t18.5 5t28.5 1.5q18 0 29.5 -1.5t18 -5t9.5 -8.5t3 -11v-222
h482v263q0 6 2.5 11t9.5 8t18.5 5t28.5 2t29 -2t18.5 -5t9.5 -8t3 -11v-263h250q7 0 12 -3t9 -9.5t6 -16t2 -22.5q0 -25 -8 -37.5t-21 -12.5h-250v-547q0 -103 29.5 -157t106.5 -54q24 0 43.5 5t34.5 11t26 11t19 5q5 0 8.5 -2t6 -7.5t4 -14t1.5 -21.5z" />
    <glyph glyph-name="t_t_f.liga" unicode="ttf" horiz-adv-x="1832" 
d="M1856 1311q0 -14 -1.5 -22.5t-4 -13.5t-6.5 -7t-9 -2q-8 0 -19 5t-27 11t-38.5 11t-52.5 5q-42 0 -71 -13.5t-46.5 -43t-25.5 -76t-8 -112.5v-107h222q7 0 12 -3t9 -9.5t6 -16t2 -22.5q0 -25 -8 -37.5t-21 -12.5h-222v-825q0 -6 -3 -11t-9.5 -8t-18.5 -5t-29 -2t-28.5 2
t-18.5 5t-9.5 8t-2.5 11v825h-504v-547q0 -103 29.5 -157t106.5 -54q24 0 43.5 5t34.5 11t26 11t19 5q5 0 8.5 -2t6 -7.5t4 -14t1.5 -21.5q0 -21 -3 -34t-11 -20.5t-23 -14t-33 -11t-39 -7t-41 -2.5q-68 0 -115 18t-76.5 54.5t-43 92.5t-13.5 132v563h-482v-547
q0 -103 29.5 -157t107.5 -54q24 0 43.5 5t34.5 11t25.5 11t18.5 5q5 0 9 -2t6.5 -7.5t4 -14t1.5 -21.5q0 -21 -3.5 -34t-11 -20.5t-23 -14t-33.5 -11t-39 -7t-41 -2.5q-67 0 -114 18t-77 54.5t-43.5 92.5t-13.5 132v563h-135q-14 0 -22 12.5t-8 37.5q0 13 2 22.5t6 16
t9.5 9.5t12.5 3h135v222q0 6 2.5 11t9.5 8.5t18.5 5t28.5 1.5q18 0 29.5 -1.5t18 -5t9.5 -8.5t3 -11v-222h482v263q0 6 2.5 11t9.5 8t18.5 5t28.5 2q18 0 29.5 -2t18 -5t9.5 -8t3 -11v-263h504v103q0 95 17 162t51.5 109t86.5 61t121 19q37 0 67.5 -7t46.5 -14t22 -12.5
t9.5 -13.5t5 -18.5t1.5 -23.5z" />
    <glyph glyph-name="t_t_i.liga" unicode="tti" horiz-adv-x="1709" 
d="M323 845v-547q0 -103 29.5 -157t107.5 -54q24 0 43.5 5t34.5 11t25.5 11t18.5 5q5 0 9 -2t6.5 -7.5t4 -14t1.5 -21.5q0 -21 -3.5 -34t-11 -20.5t-22 -14t-33.5 -11t-40 -7t-41 -2.5q-67 0 -114 18t-77 54.5t-43.5 92.5t-13.5 132v563h-135q-14 0 -22 12.5t-8 37.5
q0 13 2 22.5t6 16t9.5 9.5t12.5 3h135v222q0 6 2.5 11t9.5 8.5t18.5 5t28.5 1.5q18 0 29.5 -1.5t18 -5t9.5 -8.5t3 -11v-222h482v263q0 6 2.5 11t9.5 8t18.5 5t28.5 2q18 0 29.5 -2t18 -5t9.5 -8t3 -11v-263h580q22 0 30.5 -11.5t8.5 -31.5v-883q0 -6 -3 -11t-9.5 -8t-18 -5
t-29.5 -2q-17 0 -28.5 2t-18.5 5t-9.5 8t-2.5 11v825h-500v-547q0 -103 29.5 -157t106.5 -54q24 0 43.5 5t34.5 11t26 11t19 5q5 0 8.5 -2t6 -7.5t4 -14t1.5 -21.5q0 -21 -3 -34t-11 -20.5t-22 -14t-33 -11t-40 -7t-41 -2.5q-68 0 -115 18t-76.5 54.5t-43 92.5t-13.5 132
v563h-482zM1561 1230q0 -48 -17 -65t-62 -17q-44 0 -60.5 16.5t-16.5 64.5t17 65t62 17q44 0 60.5 -16.5t16.5 -64.5zM1257 946z" />
    <glyph glyph-name="t_t_igrave.liga" unicode="tt&#xec;" horiz-adv-x="1709" 
d="M323 845v-547q0 -103 29.5 -157t107.5 -54q24 0 43.5 5t34.5 11t25.5 11t18.5 5q5 0 9 -2t6.5 -7.5t4 -14t1.5 -21.5q0 -21 -3.5 -34t-11 -20.5t-22 -14t-33.5 -11t-40 -7t-41 -2.5q-67 0 -114 18t-77 54.5t-43.5 92.5t-13.5 132v563h-135q-14 0 -22 12.5t-8 37.5
q0 13 2 22.5t6 16t9.5 9.5t12.5 3h135v222q0 6 2.5 11t9.5 8.5t18.5 5t28.5 1.5q18 0 29.5 -1.5t18 -5t9.5 -8.5t3 -11v-222h482v263q0 6 2.5 11t9.5 8t18.5 5t28.5 2q18 0 29.5 -2t18 -5t9.5 -8t3 -11v-263h580q22 0 30.5 -11.5t8.5 -31.5v-883q0 -6 -3 -11t-9.5 -8t-18 -5
t-29.5 -2q-17 0 -28.5 2t-18.5 5t-9.5 8t-2.5 11v825h-500v-547q0 -103 29.5 -157t106.5 -54q24 0 43.5 5t34.5 11t26 11t19 5q5 0 8.5 -2t6 -7.5t4 -14t1.5 -21.5q0 -21 -3 -34t-11 -20.5t-22 -14t-33 -11t-40 -7t-41 -2.5q-68 0 -115 18t-76.5 54.5t-43 92.5t-13.5 132
v563h-482zM1520 1133q6 -9 7.5 -16t-2 -11.5t-12.5 -7t-24 -2.5t-25 1t-17.5 4t-13.5 8.5t-13 15.5l-174 234q-7 9 -8 16.5t4 13t17 8.5t31 3t32 -1.5t22 -5t16 -10.5t14 -17z" />
    <glyph glyph-name="t_t_iacute.liga" unicode="tt&#xed;" horiz-adv-x="1709" 
d="M323 845v-547q0 -103 29.5 -157t107.5 -54q24 0 43.5 5t34.5 11t25.5 11t18.5 5q5 0 9 -2t6.5 -7.5t4 -14t1.5 -21.5q0 -21 -3.5 -34t-11 -20.5t-22 -14t-33.5 -11t-40 -7t-41 -2.5q-67 0 -114 18t-77 54.5t-43.5 92.5t-13.5 132v563h-135q-14 0 -22 12.5t-8 37.5
q0 13 2 22.5t6 16t9.5 9.5t12.5 3h135v222q0 6 2.5 11t9.5 8.5t18.5 5t28.5 1.5q18 0 29.5 -1.5t18 -5t9.5 -8.5t3 -11v-222h482v263q0 6 2.5 11t9.5 8t18.5 5t28.5 2q18 0 29.5 -2t18 -5t9.5 -8t3 -11v-263h580q22 0 30.5 -11.5t8.5 -31.5v-883q0 -6 -3 -11t-9.5 -8t-18 -5
t-29.5 -2q-17 0 -28.5 2t-18.5 5t-9.5 8t-2.5 11v825h-500v-547q0 -103 29.5 -157t106.5 -54q24 0 43.5 5t34.5 11t26 11t19 5q5 0 8.5 -2t6 -7.5t4 -14t1.5 -21.5q0 -21 -3 -34t-11 -20.5t-22 -14t-33 -11t-40 -7t-41 -2.5q-68 0 -115 18t-76.5 54.5t-43 92.5t-13.5 132
v563h-482zM1574 1366q6 10 13 17t16.5 10.5t23 5t32.5 1.5t31 -3t17 -8.5t3.5 -13t-8.5 -16.5l-174 -234q-7 -10 -12.5 -15.5t-12.5 -8.5t-17 -4t-25 -1t-24.5 2.5t-13 7t-2.5 11.5t7 16z" />
    <glyph glyph-name="t_t_icircumflex.liga" unicode="tt&#xee;" horiz-adv-x="1709" 
d="M323 845v-547q0 -103 29.5 -157t107.5 -54q24 0 43.5 5t34.5 11t25.5 11t18.5 5q5 0 9 -2t6.5 -7.5t4 -14t1.5 -21.5q0 -21 -3.5 -34t-11 -20.5t-22 -14t-33.5 -11t-40 -7t-41 -2.5q-67 0 -114 18t-77 54.5t-43.5 92.5t-13.5 132v563h-135q-14 0 -22 12.5t-8 37.5
q0 13 2 22.5t6 16t9.5 9.5t12.5 3h135v222q0 6 2.5 11t9.5 8.5t18.5 5t28.5 1.5q18 0 29.5 -1.5t18 -5t9.5 -8.5t3 -11v-222h482v263q0 6 2.5 11t9.5 8t18.5 5t28.5 2q18 0 29.5 -2t18 -5t9.5 -8t3 -11v-263h580q22 0 30.5 -11.5t8.5 -31.5v-883q0 -6 -3 -11t-9.5 -8t-18 -5
t-29.5 -2q-17 0 -28.5 2t-18.5 5t-9.5 8t-2.5 11v825h-500v-547q0 -103 29.5 -157t106.5 -54q24 0 43.5 5t34.5 11t26 11t19 5q5 0 8.5 -2t6 -7.5t4 -14t1.5 -21.5q0 -21 -3 -34t-11 -20.5t-22 -14t-33 -11t-40 -7t-41 -2.5q-68 0 -115 18t-76.5 54.5t-43 92.5t-13.5 132
v563h-482zM1329 1122q-6 -8 -11 -13t-12 -8t-16 -4t-22 -1q-20 0 -31 3t-14.5 9t0 15.5t13.5 22.5l169 232q5 7 10.5 11t13.5 6.5t19.5 3.5t28.5 1q15 0 25 -1t17.5 -4t12.5 -7t10 -10l169 -232q9 -13 12.5 -22.5t0 -15.5t-14.5 -9t-30 -3q-15 0 -24 1t-15.5 4t-11 8
t-10.5 13l-145 198zM1073 946z" />
    <glyph glyph-name="t_t_idieresis.liga" unicode="tt&#xef;" horiz-adv-x="1709" 
d="M323 845v-547q0 -103 29.5 -157t107.5 -54q24 0 43.5 5t34.5 11t25.5 11t18.5 5q5 0 9 -2t6.5 -7.5t4 -14t1.5 -21.5q0 -21 -3.5 -34t-11 -20.5t-22 -14t-33.5 -11t-40 -7t-41 -2.5q-67 0 -114 18t-77 54.5t-43.5 92.5t-13.5 132v563h-135q-14 0 -22 12.5t-8 37.5
q0 13 2 22.5t6 16t9.5 9.5t12.5 3h135v222q0 6 2.5 11t9.5 8.5t18.5 5t28.5 1.5q18 0 29.5 -1.5t18 -5t9.5 -8.5t3 -11v-222h482v263q0 6 2.5 11t9.5 8t18.5 5t28.5 2q18 0 29.5 -2t18 -5t9.5 -8t3 -11v-263h580q22 0 30.5 -11.5t8.5 -31.5v-883q0 -6 -3 -11t-9.5 -8t-18 -5
t-29.5 -2q-17 0 -28.5 2t-18.5 5t-9.5 8t-2.5 11v825h-500v-547q0 -103 29.5 -157t106.5 -54q24 0 43.5 5t34.5 11t26 11t19 5q5 0 8.5 -2t6 -7.5t4 -14t1.5 -21.5q0 -21 -3 -34t-11 -20.5t-22 -14t-33 -11t-40 -7t-41 -2.5q-68 0 -115 18t-76.5 54.5t-43 92.5t-13.5 132
v563h-482zM1404 1211q0 -45 -16.5 -61.5t-58.5 -16.5t-58 16t-16 61q0 46 16.5 62.5t57.5 16.5q43 0 59 -16t16 -62zM1701 1211q0 -45 -16.5 -61.5t-58.5 -16.5t-58 16t-16 61q0 46 16.5 62.5t57.5 16.5q43 0 59 -16t16 -62zM1107 946z" />
    <glyph glyph-name="t_t_imacron.liga" unicode="tt&#x12b;" horiz-adv-x="1709" 
d="M323 845v-547q0 -103 29.5 -157t107.5 -54q24 0 43.5 5t34.5 11t25.5 11t18.5 5q5 0 9 -2t6.5 -7.5t4 -14t1.5 -21.5q0 -21 -3.5 -34t-11 -20.5t-22 -14t-33.5 -11t-40 -7t-41 -2.5q-67 0 -114 18t-77 54.5t-43.5 92.5t-13.5 132v563h-135q-14 0 -22 12.5t-8 37.5
q0 13 2 22.5t6 16t9.5 9.5t12.5 3h135v222q0 6 2.5 11t9.5 8.5t18.5 5t28.5 1.5q18 0 29.5 -1.5t18 -5t9.5 -8.5t3 -11v-222h482v263q0 6 2.5 11t9.5 8t18.5 5t28.5 2q18 0 29.5 -2t18 -5t9.5 -8t3 -11v-263h580q22 0 30.5 -11.5t8.5 -31.5v-883q0 -6 -3 -11t-9.5 -8t-18 -5
t-29.5 -2q-17 0 -28.5 2t-18.5 5t-9.5 8t-2.5 11v825h-500v-547q0 -103 29.5 -157t106.5 -54q24 0 43.5 5t34.5 11t26 11t19 5q5 0 8.5 -2t6 -7.5t4 -14t1.5 -21.5q0 -21 -3 -34t-11 -20.5t-22 -14t-33 -11t-40 -7t-41 -2.5q-68 0 -115 18t-76.5 54.5t-43 92.5t-13.5 132
v563h-482zM1708 1277q6 0 11 -3t8 -9t5 -15.5t2 -22.5q0 -12 -2 -21t-5 -15.5t-8 -10t-11 -3.5h-462q-7 0 -12 3.5t-8.5 10t-5.5 15.5t-2 21q0 13 2 22.5t5.5 15.5t8.5 9t12 3h462zM1070 946z" />
    <glyph glyph-name="t_t_itilde.liga" unicode="tt&#x129;" horiz-adv-x="1709" 
d="M323 845v-547q0 -103 29.5 -157t107.5 -54q24 0 43.5 5t34.5 11t25.5 11t18.5 5q5 0 9 -2t6.5 -7.5t4 -14t1.5 -21.5q0 -21 -3.5 -34t-11 -20.5t-22 -14t-33.5 -11t-40 -7t-41 -2.5q-67 0 -114 18t-77 54.5t-43.5 92.5t-13.5 132v563h-135q-14 0 -22 12.5t-8 37.5
q0 13 2 22.5t6 16t9.5 9.5t12.5 3h135v222q0 6 2.5 11t9.5 8.5t18.5 5t28.5 1.5q18 0 29.5 -1.5t18 -5t9.5 -8.5t3 -11v-222h482v263q0 6 2.5 11t9.5 8t18.5 5t28.5 2q18 0 29.5 -2t18 -5t9.5 -8t3 -11v-263h580q22 0 30.5 -11.5t8.5 -31.5v-883q0 -6 -3 -11t-9.5 -8t-18 -5
t-29.5 -2q-17 0 -28.5 2t-18.5 5t-9.5 8t-2.5 11v825h-500v-547q0 -103 29.5 -157t106.5 -54q24 0 43.5 5t34.5 11t26 11t19 5q5 0 8.5 -2t6 -7.5t4 -14t1.5 -21.5q0 -21 -3 -34t-11 -20.5t-22 -14t-33 -11t-40 -7t-41 -2.5q-68 0 -115 18t-76.5 54.5t-43 92.5t-13.5 132
v563h-482zM1782 1302q0 -98 -49.5 -149.5t-130.5 -51.5q-36 0 -64.5 10.5t-52.5 26.5t-44.5 34.5t-40.5 34.5t-40 26.5t-43 10.5q-44 0 -61 -32.5t-17 -84.5q0 -7 -1.5 -12t-7 -8t-16 -4.5t-27.5 -1.5q-13 0 -22 2t-14 6.5t-7.5 13t-2.5 21.5q0 90 46.5 145t132.5 55
q54 0 92.5 -22.5t70 -49t60.5 -49t63 -22.5q39 0 58.5 29t19.5 88q0 14 8.5 20t37.5 6q32 0 42 -8t10 -34z" />
    <glyph glyph-name="t_t_ibreve.liga" unicode="tt&#x12d;" horiz-adv-x="1709" 
d="M323 845v-547q0 -103 29.5 -157t107.5 -54q24 0 43.5 5t34.5 11t25.5 11t18.5 5q5 0 9 -2t6.5 -7.5t4 -14t1.5 -21.5q0 -21 -3.5 -34t-11 -20.5t-22 -14t-33.5 -11t-40 -7t-41 -2.5q-67 0 -114 18t-77 54.5t-43.5 92.5t-13.5 132v563h-135q-14 0 -22 12.5t-8 37.5
q0 13 2 22.5t6 16t9.5 9.5t12.5 3h135v222q0 6 2.5 11t9.5 8.5t18.5 5t28.5 1.5q18 0 29.5 -1.5t18 -5t9.5 -8.5t3 -11v-222h482v263q0 6 2.5 11t9.5 8t18.5 5t28.5 2q18 0 29.5 -2t18 -5t9.5 -8t3 -11v-263h580q22 0 30.5 -11.5t8.5 -31.5v-883q0 -6 -3 -11t-9.5 -8t-18 -5
t-29.5 -2q-17 0 -28.5 2t-18.5 5t-9.5 8t-2.5 11v825h-500v-547q0 -103 29.5 -157t106.5 -54q24 0 43.5 5t34.5 11t26 11t19 5q5 0 8.5 -2t6 -7.5t4 -14t1.5 -21.5q0 -21 -3 -34t-11 -20.5t-22 -14t-33 -11t-40 -7t-41 -2.5q-68 0 -115 18t-76.5 54.5t-43 92.5t-13.5 132
v563h-482zM1628 1368q0 11 9 17.5t37 6.5q15 0 23.5 -1.5t13.5 -4.5t6.5 -7.5t1.5 -10.5q0 -68 -16 -118t-46.5 -83t-75.5 -49.5t-102 -16.5q-62 0 -107 18t-74.5 51.5t-43.5 82.5t-14 112q0 14 9.5 20.5t35.5 6.5q14 0 23 -1.5t14 -4.5t7 -7.5t2 -10.5q2 -39 11.5 -71
t27.5 -54.5t45 -34.5t64 -12q31 0 57 9.5t46 30t32 53t14 79.5zM1092 946z" />
    <glyph glyph-name="t_t_iogonek.liga" unicode="tt&#x12f;" horiz-adv-x="1709" 
d="M1619 -308q0 -11 -1.5 -18t-4.5 -12t-9 -7.5t-15 -4.5q-31 -8 -62 -11.5t-66 -3.5q-43 0 -77 9.5t-57 27.5t-35.5 44.5t-12.5 61.5q0 14 2 30t10 35t24 41.5t44 50.5l65 65v845h-500v-547q0 -103 29.5 -157t106.5 -54q24 0 43.5 5t34.5 11t26 11t19 5q5 0 8.5 -2t6 -7.5
t4 -14t1.5 -21.5q0 -21 -3 -34t-11 -20.5t-22 -14t-33 -11t-40 -7t-41 -2.5q-68 0 -115 18t-76.5 54.5t-43 92.5t-13.5 132v563h-482v-547q0 -103 29.5 -157t107.5 -54q24 0 43.5 5t34.5 11t25.5 11t18.5 5q5 0 9 -2t6.5 -7.5t4 -14t1.5 -21.5q0 -21 -3.5 -34t-11 -20.5
t-22 -14t-33.5 -11t-40 -7t-41 -2.5q-67 0 -114 18t-77 54.5t-43.5 92.5t-13.5 132v563h-135q-14 0 -22 12.5t-8 37.5q0 13 2 22.5t6 16t9.5 9.5t12.5 3h135v222q0 6 2.5 11t9.5 8.5t18.5 5t28.5 1.5q18 0 29.5 -1.5t18 -5t9.5 -8.5t3 -11v-222h482v263q0 6 2.5 11t9.5 8
t18.5 5t28.5 2t29 -2t18.5 -5t9.5 -8t3 -11v-263h580q22 0 30.5 -11.5t8.5 -31.5v-883q0 -12 -4.5 -29.5t-12.5 -25.5l-82 -82q-33 -33 -41.5 -53.5t-8.5 -37.5q0 -59 80 -59h120q6 0 11 -1.5t8 -6t4.5 -12.5t1.5 -21zM1561 1229q0 -23 -3.5 -38.5t-12.5 -25t-24 -13.5
t-38 -4t-38 4t-24 13.5t-12.5 25t-3.5 38.5t3.5 38.5t12.5 25.5t24 14t38 4t38 -4t24 -14t12.5 -25.5t3.5 -38.5z" />
    <glyph glyph-name="t_t_dotlessi.liga" unicode="tt&#x131;" horiz-adv-x="1709" 
d="M323 845v-547q0 -103 29.5 -157t107.5 -54q24 0 43.5 5t34.5 11t25.5 11t18.5 5q5 0 9 -2t6.5 -7.5t4 -14t1.5 -21.5q0 -21 -3.5 -34t-11 -20.5t-22 -14t-33.5 -11t-40 -7t-41 -2.5q-67 0 -114 18t-77 54.5t-43.5 92.5t-13.5 132v563h-135q-14 0 -22 12.5t-8 37.5
q0 13 2 22.5t6 16t9.5 9.5t12.5 3h135v222q0 6 2.5 11t9.5 8.5t18.5 5t28.5 1.5q18 0 29.5 -1.5t18 -5t9.5 -8.5t3 -11v-222h482v263q0 6 2.5 11t9.5 8t18.5 5t28.5 2q18 0 29.5 -2t18 -5t9.5 -8t3 -11v-263h580q22 0 30.5 -11.5t8.5 -31.5v-883q0 -6 -3 -11t-9.5 -8t-18 -5
t-29.5 -2q-17 0 -28.5 2t-18.5 5t-9.5 8t-2.5 11v825h-500v-547q0 -103 29.5 -157t106.5 -54q24 0 43.5 5t34.5 11t26 11t19 5q5 0 8.5 -2t6 -7.5t4 -14t1.5 -21.5q0 -21 -3 -34t-11 -20.5t-22 -14t-33 -11t-40 -7t-41 -2.5q-68 0 -115 18t-76.5 54.5t-43 92.5t-13.5 132
v563h-482z" />
    <glyph glyph-name="f_uni1EC9.liga" unicode="f&#x1ec9;" horiz-adv-x="1057" 
d="M890 20q0 -6 -3 -11t-9.5 -8t-18 -5t-28.5 -2q-18 0 -29.5 2t-18 5t-9.5 8t-3 11v825h-444v-825q0 -6 -3 -11t-9.5 -8t-18 -5t-29.5 -2q-17 0 -28.5 2t-18.5 5t-9.5 8t-2.5 11v825h-136q-14 0 -21.5 12.5t-7.5 37.5q0 13 2 22.5t5.5 16t9 9.5t12.5 3h136v107
q0 94 17.5 160t52 107.5t85.5 60.5t117 19q38 0 70 -6.5t48.5 -14t22 -13t9 -13.5t5 -18.5t1.5 -23.5q0 -23 -4.5 -34t-15.5 -11q-8 0 -20 5t-29.5 11t-40 11t-50.5 5q-83 0 -116 -58.5t-33 -186.5v-107h526q20 0 28.5 -11.5t8.5 -29.5v-885zM840 1080q-8 0 -16.5 7
t-15.5 16.5t-11.5 18.5t-4.5 14q0 8 8 13q19 10 37 21.5t32 25t22.5 30.5t8.5 40q0 38 -25 58t-74 20q-30 0 -51.5 -5t-37 -10.5t-25.5 -10.5t-15 -5q-8 0 -11 7t-3 25q0 23 2.5 33t7.5 15q7 7 44 21t104 14q95 0 141 -41.5t46 -109.5q0 -49 -22.5 -86t-51 -61.5t-55 -37
t-34.5 -12.5z" />
    <glyph glyph-name="f_uni1ECB.liga" unicode="f&#x1ecb;" horiz-adv-x="1057" 
d="M908 1229q0 -23 -3.5 -38.5t-12 -25t-23.5 -13.5t-38 -4t-38 4t-24 13.5t-12.5 25t-3.5 38.5t3.5 38.5t12.5 25.5t24 14t38 4t38 -4t23.5 -14t12 -25.5t3.5 -38.5zM890 20q0 -6 -3 -11t-9.5 -8t-18 -5t-28.5 -2q-18 0 -29.5 2t-18 5t-9.5 8t-3 11v825h-444v-825
q0 -6 -3 -11t-9.5 -8t-18 -5t-29.5 -2q-17 0 -28.5 2t-18.5 5t-9.5 8t-2.5 11v825h-136q-14 0 -21.5 12.5t-7.5 37.5q0 13 2 22.5t5.5 16t9 9.5t12.5 3h136v107q0 94 17.5 160t51.5 107.5t83.5 60.5t112.5 19q22 0 43 -2t38.5 -5.5t30 -8t17 -9t7.5 -9.5t4.5 -11.5
t2.5 -15.5t1 -21q0 -22 -4.5 -33t-15.5 -11q-8 0 -17 3.5t-23.5 8t-35.5 8.5t-52 4q-78 0 -110 -58.5t-32 -186.5v-107h526q20 0 28.5 -11.5t8.5 -29.5v-885zM750 -249q0 44 17.5 63t60.5 19q44 0 61 -19t17 -63q0 -43 -17 -62t-61 -19q-43 0 -60.5 19t-17.5 62z" />
    <glyph glyph-name="f_f_uni1EC9.liga" unicode="ff&#x1ec9;" horiz-adv-x="1620" 
d="M1441.5 1q-12.5 -7 -47.5 -7t-47 7t-12 19v825h-445v-825q0 -12 -12 -19t-47 -7t-47.5 7t-12.5 19v825h-444v-825q0 -12 -12.5 -19t-47.5 -7t-47 7t-12 19v825h-136q-29 0 -29 50q0 51 29 51h136v96q0 94 17.5 160t52 107.5t85.5 60.5t117 19q44 0 76 -8t50 -16
q17 -8 23.5 -23.5t6.5 -41.5q0 -45 -20 -45q-8 0 -20 5t-29.5 11t-40 11t-50.5 5q-83 0 -116 -58.5t-33 -186.5v-96h444v126q0 87 17.5 149t50.5 101.5t80 58.5t106 19q29 0 57 -4.5t45 -10.5q14 -5 20 -19t6 -40q0 -45 -20 -45q-8 0 -17 2.5t-21.5 6t-30 6t-42.5 2.5
q-70 0 -101 -55.5t-31 -170.5v-126h526q20 0 29 -11.5t9 -29.5v-885q0 -12 -12.5 -19zM1405 1080q-8 0 -16.5 7t-15.5 16.5t-11.5 18.5t-4.5 14q0 8 8 13q19 10 37 21.5t32 25t22.5 30.5t8.5 40q0 38 -25 58t-74 20q-30 0 -51.5 -5t-37 -10.5t-25.5 -10.5t-15 -5q-8 0 -11 7
t-3 25q0 23 2.5 33t7.5 15q7 7 44 21t104 14q95 0 141 -41.5t46 -109.5q0 -49 -22.5 -86t-51 -61.5t-55 -37t-34.5 -12.5z" />
    <glyph glyph-name="f_f_uni1ECB.liga" unicode="ff&#x1ecb;" horiz-adv-x="1620" 
d="M1472 1229q0 -23 -3.5 -38.5t-12.5 -25t-24 -13.5t-38 -4t-38 4t-24 13.5t-12.5 25t-3.5 38.5t3.5 38.5t12.5 25.5t24 14t38 4t38 -4t24 -14t12.5 -25.5t3.5 -38.5zM1454 20q0 -6 -3 -11t-9.5 -8t-18 -5t-29.5 -2q-17 0 -28.5 2t-18.5 5t-9.5 8t-2.5 11v825h-445v-825
q0 -6 -3 -11t-9.5 -8t-18 -5t-28.5 -2q-18 0 -29.5 2t-18 5t-9.5 8t-3 11v825h-444v-825q0 -6 -3 -11t-9.5 -8t-18.5 -5t-29 -2t-28.5 2t-18.5 5t-9.5 8t-2.5 11v825h-136q-14 0 -21.5 12.5t-7.5 37.5q0 13 2 22.5t5.5 16t9 9.5t12.5 3h136v96q0 94 17.5 160t52 107.5
t85.5 60.5t117 19q44 0 76 -8t45.5 -14t19 -11.5t9 -13.5t5 -18.5t1.5 -23.5q0 -23 -4.5 -34t-15.5 -11q-8 0 -20 5t-29.5 11t-40 11t-50.5 5q-83 0 -116 -58.5t-33 -186.5v-96h444v107q0 94 18 160t51.5 107.5t83 60.5t112.5 19q22 0 43.5 -2t38.5 -5.5t29.5 -8t17 -9
t7.5 -9.5t5 -11.5t3 -15.5t1 -21q0 -22 -4.5 -33t-15.5 -11q-8 0 -17.5 3.5t-23.5 8t-35 8.5t-52 4q-78 0 -110.5 -58.5t-32.5 -186.5v-107h526q20 0 29 -11.5t9 -29.5v-885zM1317 -249q0 44 17.5 63t60.5 19q44 0 61 -19t17 -63q0 -43 -17 -62t-61 -19q-43 0 -60.5 19
t-17.5 62z" />
    <glyph glyph-name="f_uni01D0.liga" unicode="f&#x1d0;" horiz-adv-x="1075" 
d="M908 20q0 -12 -12 -19t-47 -7t-47.5 7t-12.5 19v825h-462v-825q0 -12 -12.5 -19t-47.5 -7t-47 7t-12 19v825h-136q-29 0 -29 50q0 51 29 51h136v126q0 87 17.5 149t50.5 101.5t80 58.5t106 19q29 0 56.5 -3.5t45.5 -11.5q17 -7 21.5 -22t4.5 -38q0 -44 -21 -44
q-8 0 -18 3t-24.5 6.5t-29 5.5t-39.5 2q-70 0 -100.5 -55.5t-30.5 -170.5v-126h544q20 0 28.5 -11.5t8.5 -29.5v-885zM867 1176l141 198q11 16 21.5 21t39.5 5q39 0 44.5 -12t-12.5 -38l-165 -232q-10 -12 -23 -17t-42 -5q-17 0 -28.5 1t-19 3.5t-12.5 6.5t-10 11l-165 232
q-20 26 -15 38t44 12q26 0 38 -5t23 -21z" />
    <glyph glyph-name="f_uni0209.liga" unicode="f&#x209;" horiz-adv-x="1075" 
d="M908 20q0 -12 -12 -19t-47 -7t-47.5 7t-12.5 19v825h-462v-825q0 -12 -12.5 -19t-47.5 -7t-47 7t-12 19v825h-136q-29 0 -29 50q0 51 29 51h136v126q0 87 17.5 149t50.5 101.5t80 58.5t106 19q29 0 56.5 -3.5t45.5 -11.5q17 -7 21.5 -21.5t4.5 -38.5q0 -44 -21 -44
q-8 0 -18 3t-24.5 6.5t-29 5.5t-39.5 2q-70 0 -100.5 -55.5t-30.5 -170.5v-126h544q20 0 28.5 -11.5t8.5 -29.5v-885zM862 1133q7 -18 0.5 -27.5t-37.5 -9.5q-15 0 -25 1t-16 4t-10.5 8.5t-9.5 15.5l-124 234q-10 18 2.5 29.5t50.5 11.5q19 0 31 -1.5t19.5 -5t12 -10.5
t8.5 -17zM1062 1133q7 -18 0.5 -27.5t-37.5 -9.5q-15 0 -25 1t-16 4t-10.5 8.5t-9.5 15.5l-124 234q-10 18 2.5 29.5t50.5 11.5q19 0 31 -1.5t19.5 -5t12 -10.5t8.5 -17z" />
    <glyph glyph-name="f_uni020B.liga" unicode="f&#x20b;" horiz-adv-x="1075" 
d="M908 20q0 -12 -12 -19t-47 -7t-47 7t-12 19v825h-463v-825q0 -12 -12.5 -19t-47.5 -7t-47 7t-12 19v825h-136q-29 0 -29 50q0 51 29 51h136v126q0 87 17.5 149t50.5 101.5t80 58.5t106 19q29 0 57 -4t45 -11q14 -5 20 -19t6 -40q0 -45 -21 -45q-8 0 -16.5 2.5t-21.5 6
t-30.5 6t-42.5 2.5q-70 0 -100.5 -55.5t-30.5 -170.5v-126h544q20 0 28.5 -11.5t8.5 -29.5v-885zM992 1126q-5 93 -40.5 133t-96.5 40q-37 0 -62.5 -12t-41.5 -34.5t-24 -54.5t-10 -72q0 -13 -9 -18.5t-37 -5.5q-26 0 -35 7t-9 21q0 63 12.5 111.5t39.5 82.5t70.5 51.5
t105.5 17.5q115 0 171.5 -65.5t56.5 -201.5q0 -13 -8 -18.5t-37 -5.5q-28 0 -37 6.5t-9 17.5z" />
    <glyph glyph-name="f_uni1E2D.liga" unicode="f&#x1e2d;" horiz-adv-x="1057" 
d="M908 1229q0 -23 -3.5 -38.5t-12 -25t-23.5 -13.5t-38 -4t-38 4t-24 13.5t-12.5 25t-3.5 38.5t3.5 38.5t12.5 25.5t24 14t38 4t38 -4t23.5 -14t12 -25.5t3.5 -38.5zM890 20q0 -6 -3 -11t-9.5 -8t-18 -5t-28.5 -2q-18 0 -29.5 2t-18 5t-9.5 8t-3 11v825h-444v-825
q0 -6 -3 -11t-9.5 -8t-18 -5t-29.5 -2q-17 0 -28.5 2t-18.5 5t-9.5 8t-2.5 11v825h-136q-14 0 -21.5 12.5t-7.5 37.5q0 13 2 22.5t5.5 16t9 9.5t12.5 3h136v107q0 94 17.5 160t51.5 107.5t83.5 60.5t112.5 19q22 0 43 -2t38.5 -5.5t30 -8t17 -9t7.5 -9.5t4.5 -11.5
t2.5 -15.5t1 -21q0 -22 -4.5 -33t-15.5 -11q-8 0 -17 3.5t-23.5 8t-35.5 8.5t-52 4q-78 0 -110 -58.5t-32 -186.5v-107h526q20 0 28.5 -11.5t8.5 -29.5v-885zM1152 -199q0 -98 -49.5 -149.5t-130.5 -51.5q-36 0 -64.5 10.5t-52.5 26.5t-44.5 34.5t-40.5 34.5t-40 26.5
t-43 10.5q-44 0 -61 -32.5t-17 -84.5q0 -14 -9 -20t-43 -6q-26 0 -36 8.5t-10 34.5q0 90 46.5 145t132.5 55q54 0 92.5 -22.5t70 -49t60.5 -49t63 -22.5q78 0 78 117q0 14 8.5 20t37.5 6q32 0 42 -8t10 -34z" />
    <glyph glyph-name="f_uni1E2F.liga" unicode="f&#x1e2f;" horiz-adv-x="1075" 
d="M909 20q0 -6 -3 -11t-9.5 -8t-18 -5t-28.5 -2q-18 0 -29.5 2t-18.5 5t-9.5 8t-2.5 11v825h-463v-825q0 -6 -3 -11t-9.5 -8t-18.5 -5t-29 -2t-28.5 2t-18.5 5t-9.5 8t-2.5 11v825h-136q-14 0 -21.5 12.5t-7.5 37.5q0 13 2 22.5t5.5 16t9 9.5t12.5 3h136v126q0 87 17.5 149
t50.5 101.5t80 58.5t106 19q15 0 29.5 -1t27.5 -3t24.5 -5t19.5 -6t13 -7.5t8 -11.5t4.5 -17t1.5 -23q0 -23 -5 -34t-16 -11q-8 0 -16.5 2.5t-21.5 6t-30.5 6t-42.5 2.5q-70 0 -100.5 -55.5t-30.5 -170.5v-126h545q20 0 28.5 -11.5t8.5 -29.5v-885zM649 1229q0 22 3.5 37
t12 24t23 13t35.5 4q22 0 36 -4t22.5 -13t12 -24t3.5 -37q0 -21 -3.5 -36t-12 -24.5t-22.5 -13.5t-36 -4q-21 0 -35.5 4t-23 13.5t-12 24.5t-3.5 36zM927 1229q0 22 3.5 37t12 24t23 13t35.5 4q22 0 36 -4t22.5 -13t12 -24t3.5 -37q0 -21 -3.5 -36t-12 -24.5t-22.5 -13.5
t-36 -4q-21 0 -35.5 4t-23 13.5t-12 24.5t-3.5 36zM981 1629q6 10 13 17t16.5 10.5t23 5t32.5 1.5t31 -3t17 -8.5t3.5 -13t-8.5 -16.5l-174 -234q-7 -10 -12.5 -15.5t-12.5 -8.5t-17 -4t-25 -1t-24.5 2.5t-13 7t-2.5 11.5t7 16z" />
    <glyph glyph-name="f_uni0268.liga" unicode="f&#x268;" horiz-adv-x="1077" 
d="M890 20q0 -12 -12 -19t-47 -7t-47.5 7t-12.5 19v446h-208q-14 0 -22 12.5t-8 37.5t8 37.5t22 12.5h208v279h-444v-825q0 -12 -12.5 -19t-47.5 -7t-47 7t-12 19v825h-136q-29 0 -29 50q0 51 29 51h136v107q0 94 17.5 160t51.5 107.5t83.5 60.5t112.5 19q44 0 81.5 -7.5
t48.5 -18.5q7 -7 10.5 -19.5t3.5 -36.5q0 -44 -20 -44q-8 0 -17 3.5t-23.5 8t-35.5 8.5t-52 4q-78 0 -110 -58.5t-32 -186.5v-107h526q20 0 28.5 -11.5t8.5 -29.5v-339h207q30 0 30 -50t-30 -50h-207v-446zM908 1229q0 -46 -15.5 -63.5t-61.5 -17.5q-23 0 -38 4t-24 13.5
t-12.5 25t-3.5 38.5t3.5 38.5t12.5 25.5t24 14t38 4q46 0 61.5 -18t15.5 -64z" />
    <glyph glyph-name="f_f_uni01D0.liga" unicode="ff&#x1d0;" horiz-adv-x="1638" 
d="M1472 20q0 -12 -12.5 -19t-47.5 -7t-47 7t-12 19v825h-463v-825q0 -12 -12 -19t-47 -7t-47.5 7t-12.5 19v825h-444v-825q0 -12 -12.5 -19t-47.5 -7t-47 7t-12 19v825h-136q-29 0 -29 50q0 51 29 51h136v96q0 94 17.5 160t52 107.5t85.5 60.5t117 19q44 0 76 -8t50 -16
q17 -8 23.5 -23.5t6.5 -41.5q0 -45 -20 -45q-8 0 -20 5t-29.5 11t-40 11t-50.5 5q-83 0 -116 -58.5t-33 -186.5v-96h444v126q0 87 17.5 149t50.5 101.5t80 58.5t106 19q29 0 59.5 -4.5t48.5 -12.5q17 -7 23 -23t6 -42q0 -44 -20 -44q-8 0 -18 3.5t-24.5 8t-33.5 8.5t-44 4
q-70 0 -101 -55.5t-31 -170.5v-126h544q20 0 29 -11.5t9 -29.5v-885zM1431 1176l141 198q11 16 21.5 21t39.5 5q39 0 44.5 -12t-13.5 -38l-165 -232q-9 -12 -22 -17t-42 -5q-18 0 -29.5 1t-19 3.5t-12.5 6.5t-10 11l-165 232q-20 26 -14.5 38t44.5 12q26 0 38 -5t23 -21z
" />
    <glyph glyph-name="f_f_uni0209.liga" unicode="ff&#x209;" horiz-adv-x="1638" 
d="M1472 20q0 -12 -12.5 -19t-47.5 -7t-47 7t-12 19v825h-463v-825q0 -12 -12 -19t-47 -7t-47.5 7t-12.5 19v825h-444v-825q0 -12 -12.5 -19t-47.5 -7t-47 7t-12 19v825h-136q-29 0 -29 50q0 51 29 51h136v96q0 94 17.5 160t52 107.5t85.5 60.5t117 19q44 0 76 -8t50 -16
q17 -8 23.5 -23.5t6.5 -41.5q0 -45 -20 -45q-8 0 -20 5t-29.5 11t-40 11t-50.5 5q-83 0 -116 -58.5t-33 -186.5v-96h444v126q0 87 17.5 149t50.5 101.5t80 58.5t106 19q29 0 59.5 -4.5t48.5 -12.5q17 -7 23 -23t6 -42q0 -44 -20 -44q-8 0 -18 3.5t-24.5 8t-33.5 8.5t-44 4
q-70 0 -101 -55.5t-31 -170.5v-126h544q20 0 29 -11.5t9 -29.5v-885zM1446 1133q7 -18 0.5 -27.5t-37.5 -9.5q-15 0 -25 1t-16 4t-10.5 8.5t-9.5 15.5l-124 234q-10 18 2.5 29.5t50.5 11.5q19 0 31 -1.5t19.5 -5t12 -10.5t8.5 -17zM1646 1133q7 -18 0.5 -27.5t-37.5 -9.5
q-15 0 -25 1t-16 4t-10.5 8.5t-9.5 15.5l-124 234q-10 18 2.5 29.5t50.5 11.5q19 0 31 -1.5t19.5 -5t12 -10.5t8.5 -17z" />
    <glyph glyph-name="f_f_uni020B.liga" unicode="ff&#x20b;" horiz-adv-x="1639" 
d="M1472 20q0 -12 -12 -19t-47 -7t-47.5 7t-12.5 19v825h-463v-825q0 -12 -12 -19t-47 -7t-47.5 7t-12.5 19v825h-444v-825q0 -12 -12.5 -19t-47.5 -7t-47 7t-12 19v825h-136q-29 0 -29 50q0 51 29 51h136v96q0 94 17.5 160t52 107.5t85.5 60.5t117 19q44 0 76 -8t50 -16
q17 -8 23.5 -23.5t6.5 -41.5q0 -45 -20 -45q-8 0 -20 5t-29.5 11t-40 11t-50.5 5q-83 0 -116 -58.5t-33 -186.5v-96h444v126q0 87 17.5 149t50.5 101.5t80 58.5t106 19q29 0 57 -4t45 -11q14 -5 20 -19t6 -40q0 -45 -20 -45q-8 0 -17 2.5t-21.5 6t-30 6t-42.5 2.5
q-70 0 -101 -55.5t-31 -170.5v-126h545q20 0 28.5 -11.5t8.5 -29.5v-885zM1556 1128q-5 93 -41 133t-97 40q-37 0 -62 -12t-41 -34.5t-24 -54.5t-10 -72q0 -13 -9 -18.5t-37 -5.5q-26 0 -35.5 7t-9.5 21q0 63 12.5 111.5t39.5 82.5t70.5 51.5t105.5 17.5q115 0 171.5 -65.5
t56.5 -201.5q0 -13 -7.5 -18.5t-36.5 -5.5q-28 0 -37 6.5t-9 17.5z" />
    <glyph glyph-name="f_f_uni1E2D.liga" unicode="ff&#x1e2d;" horiz-adv-x="1620" 
d="M1472 1229q0 -23 -3.5 -38.5t-12.5 -25t-24 -13.5t-38 -4t-38 4t-24 13.5t-12.5 25t-3.5 38.5t3.5 38.5t12.5 25.5t24 14t38 4t38 -4t24 -14t12.5 -25.5t3.5 -38.5zM1454 20q0 -6 -3 -11t-9.5 -8t-18 -5t-29.5 -2q-17 0 -28.5 2t-18.5 5t-9.5 8t-2.5 11v825h-445v-825
q0 -6 -3 -11t-9.5 -8t-18 -5t-28.5 -2q-18 0 -29.5 2t-18 5t-9.5 8t-3 11v825h-444v-825q0 -6 -3 -11t-9.5 -8t-18.5 -5t-29 -2t-28.5 2t-18.5 5t-9.5 8t-2.5 11v825h-136q-14 0 -21.5 12.5t-7.5 37.5q0 13 2 22.5t5.5 16t9 9.5t12.5 3h136v96q0 94 17.5 160t52 107.5
t85.5 60.5t117 19q44 0 76 -8t45.5 -14t19 -11.5t9 -13.5t5 -18.5t1.5 -23.5q0 -23 -4.5 -34t-15.5 -11q-8 0 -20 5t-29.5 11t-40 11t-50.5 5q-83 0 -116 -58.5t-33 -186.5v-96h444v107q0 94 18 160t51.5 107.5t83 60.5t112.5 19q22 0 43.5 -2t38.5 -5.5t29.5 -8t17 -9
t7.5 -9.5t5 -11.5t3 -15.5t1 -21q0 -22 -4.5 -33t-15.5 -11q-8 0 -17.5 3.5t-23.5 8t-35 8.5t-52 4q-78 0 -110.5 -58.5t-32.5 -186.5v-107h526q20 0 29 -11.5t9 -29.5v-885zM1716 -199q0 -98 -49.5 -149.5t-130.5 -51.5q-36 0 -64.5 10.5t-52.5 26.5t-44.5 34.5t-40.5 34.5
t-40 26.5t-43 10.5q-44 0 -61 -32.5t-17 -84.5q0 -14 -9 -20t-43 -6q-26 0 -36 8.5t-10 34.5q0 90 46.5 145t132.5 55q54 0 92.5 -22.5t70 -49t60.5 -49t63 -22.5q78 0 78 117q0 14 8.5 20t37.5 6q32 0 42 -8t10 -34z" />
    <glyph glyph-name="f_f_uni1E2F.liga" unicode="ff&#x1e2f;" horiz-adv-x="1639" 
d="M1472 20q0 -6 -3 -11t-9.5 -8t-18 -5t-28.5 -2q-18 0 -29.5 2t-18 5t-9.5 8t-3 11v825h-463v-825q0 -6 -3 -11t-9.5 -8t-18 -5t-28.5 -2q-18 0 -29.5 2t-18 5t-9.5 8t-3 11v825h-444v-825q0 -6 -3 -11t-9.5 -8t-18 -5t-29.5 -2q-17 0 -28.5 2t-18.5 5t-9.5 8t-2.5 11v825
h-136q-14 0 -21.5 12.5t-7.5 37.5q0 13 2 22.5t5.5 16t9 9.5t12.5 3h136v96q0 94 17.5 160t52 107.5t85.5 60.5t117 19q44 0 76 -8t45.5 -14t19 -11.5t9 -13.5t5 -18.5t1.5 -23.5q0 -23 -4.5 -34t-15.5 -11q-8 0 -20 5t-29.5 11t-40 11t-50.5 5q-83 0 -116 -58.5t-33 -186.5
v-96h444v126q0 87 17.5 149t50.5 101.5t80 58.5t106 19q29 0 57 -4t40 -9t17 -9.5t8 -11.5t4.5 -17t1.5 -23q0 -23 -4.5 -34t-15.5 -11q-8 0 -17 2.5t-21.5 6t-30 6t-42.5 2.5q-70 0 -101 -55.5t-31 -170.5v-126h545q20 0 28.5 -11.5t8.5 -29.5v-885zM1213 1229q0 22 3.5 37
t12 24t22.5 13t36 4q21 0 35.5 -4t23 -13t12 -24t3.5 -37q0 -21 -3.5 -36t-12 -24.5t-23 -13.5t-35.5 -4q-22 0 -36 4t-22.5 13.5t-12 24.5t-3.5 36zM1491 1229q0 22 3.5 37t12 24t22.5 13t36 4q21 0 35.5 -4t23 -13t12 -24t3.5 -37q0 -21 -3.5 -36t-12 -24.5t-23 -13.5
t-35.5 -4q-22 0 -36 4t-22.5 13.5t-12 24.5t-3.5 36zM1537 1629q6 10 13 17t16.5 10.5t23 5t32.5 1.5t31 -3t17 -8.5t3.5 -13t-8.5 -16.5l-174 -234q-7 -10 -12.5 -15.5t-12.5 -8.5t-17 -4t-25 -1t-24.5 2.5t-13 7t-2.5 11.5t7 16z" />
    <glyph glyph-name="f_f_uni0268.liga" unicode="ff&#x268;" horiz-adv-x="1642" 
d="M1454 20q0 -12 -12.5 -19t-47.5 -7t-47 7t-12 19v446h-207q-14 0 -22 12.5t-8 37.5t8 37.5t22 12.5h207v279h-445v-825q0 -12 -12 -19t-47 -7t-47.5 7t-12.5 19v825h-444v-825q0 -12 -12.5 -19t-47.5 -7t-47 7t-12 19v825h-136q-29 0 -29 50q0 51 29 51h136v96
q0 94 17.5 160t52 107.5t85.5 60.5t117 19q44 0 76 -8t50 -16q17 -8 23.5 -23.5t6.5 -41.5q0 -45 -20 -45q-8 0 -20 5t-29.5 11t-40 11t-50.5 5q-83 0 -116 -58.5t-33 -186.5v-96h444v107q0 94 18 160t51.5 107.5t83 60.5t112.5 19q45 0 82 -7.5t48 -18.5q7 -7 11 -19.5
t4 -36.5q0 -44 -20 -44q-8 0 -17.5 3.5t-23.5 8t-35 8.5t-52 4q-78 0 -110.5 -58.5t-32.5 -186.5v-107h526q20 0 29 -11.5t9 -29.5v-339h208q30 0 30 -50t-30 -50h-208v-446zM1472 1229q0 -46 -16 -63.5t-62 -17.5t-62 17.5t-16 63.5t16 64t62 18t62 -18t16 -64z" />
    <glyph glyph-name="t_uni01D0.liga" unicode="t&#x1d0;" horiz-adv-x="1109" 
d="M903 946q23 0 31 -11.5t8 -31.5v-883q0 -6 -3 -11t-9.5 -8t-18 -5t-28.5 -2q-18 0 -29.5 2t-18 5t-9.5 8t-3 11v825h-500v-547q0 -103 29.5 -157t107.5 -54q24 0 43.5 5t34.5 11t25.5 11t18.5 5q5 0 9 -2t6.5 -7.5t4 -14t1.5 -21.5q0 -21 -3.5 -34t-11 -20.5t-22 -14
t-33.5 -11t-40 -7t-41 -2.5q-67 0 -114 18t-77 54.5t-43.5 92.5t-13.5 132v563h-135q-14 0 -22 12.5t-8 37.5q0 13 2 22.5t6 16t9.5 9.5t12.5 3h135v222q0 6 2.5 11t9.5 8.5t18.5 5t28.5 1.5q18 0 29.5 -1.5t18 -5t9.5 -8.5t3 -11v-222h580zM1025 1374q6 7 11 12t12 8
t16 4.5t22 1.5q19 0 30.5 -3t15 -9t0 -15.5t-13.5 -22.5l-169 -232q-5 -7 -10.5 -11.5t-13.5 -6.5t-19.5 -3t-28.5 -1q-15 0 -25 1t-17.5 3.5t-12.5 7t-10 10.5l-169 232q-9 12 -12.5 21.5t0 16t14 9.5t30.5 3q15 0 24 -1.5t15.5 -4.5t11 -8t10.5 -12l144 -199z" />
    <glyph glyph-name="t_uni0209.liga" unicode="t&#x209;" horiz-adv-x="1109" 
d="M903 946q23 0 31 -11.5t8 -31.5v-883q0 -6 -3 -11t-9.5 -8t-18 -5t-28.5 -2q-18 0 -29.5 2t-18 5t-9.5 8t-3 11v825h-500v-547q0 -103 29.5 -157t107.5 -54q24 0 43.5 5t34.5 11t25.5 11t18.5 5q5 0 9 -2t6.5 -7.5t4 -14t1.5 -21.5q0 -21 -3.5 -34t-11 -20.5t-22 -14
t-33.5 -11t-40 -7t-41 -2.5q-67 0 -114 18t-77 54.5t-43.5 92.5t-13.5 132v563h-135q-14 0 -22 12.5t-8 37.5q0 13 2 22.5t6 16t9.5 9.5t12.5 3h135v222q0 6 2.5 11t9.5 8.5t18.5 5t28.5 1.5q18 0 29.5 -1.5t18 -5t9.5 -8.5t3 -11v-222h580zM733 1337q-17 20 -6 31t56 11
q38 0 54.5 -5.5t24.5 -16.5l182 -267q14 -24 -33 -24q-28 0 -42.5 4.5t-22.5 14.5zM414 1337q-18 21 -6.5 31.5t56.5 10.5q40 0 55.5 -5.5t23.5 -16.5l182 -267q8 -11 -2 -17.5t-31 -6.5q-26 0 -40.5 4t-24.5 15z" />
    <glyph glyph-name="t_uni020B.liga" unicode="t&#x20b;" horiz-adv-x="1109" 
d="M903 946q23 0 31 -11.5t8 -31.5v-883q0 -6 -3 -11t-9.5 -8t-18 -5t-28.5 -2q-18 0 -29.5 2t-18 5t-9.5 8t-3 11v825h-500v-547q0 -103 29.5 -157t107.5 -54q24 0 43.5 5t34.5 11t25.5 11t18.5 5q5 0 9 -2t6.5 -7.5t4 -14t1.5 -21.5q0 -21 -3.5 -34t-11 -20.5t-22 -14
t-33.5 -11t-40 -7t-41 -2.5q-67 0 -114 18t-77 54.5t-43.5 92.5t-13.5 132v563h-135q-14 0 -22 12.5t-8 37.5q0 13 2 22.5t6 16t9.5 9.5t12.5 3h135v222q0 6 2.5 11t9.5 8.5t18.5 5t28.5 1.5q18 0 29.5 -1.5t18 -5t9.5 -8.5t3 -11v-222h580zM1027 1125q-2 46 -14 79
t-32 53.5t-46 30t-57 9.5q-74 0 -108.5 -46.5t-39.5 -125.5q0 -13 -9 -18.5t-37 -5.5q-26 0 -35.5 6.5t-9.5 20.5q0 125 57.5 194.5t181.5 69.5q115 0 177.5 -65.5t62.5 -201.5q0 -13 -8 -18.5t-37 -5.5q-28 0 -37 6.5t-9 17.5z" />
    <glyph glyph-name="t_uni1E2D.liga" unicode="t&#x1e2d;" horiz-adv-x="1109" 
d="M903 946q23 0 31 -11.5t8 -31.5v-883q0 -6 -3 -11t-9.5 -8t-18 -5t-28.5 -2q-18 0 -29.5 2t-18 5t-9.5 8t-3 11v825h-500v-547q0 -103 29.5 -157t107.5 -54q24 0 43.5 5t34.5 11t25.5 11t18.5 5q5 0 9 -2t6.5 -7.5t4 -14t1.5 -21.5q0 -21 -3.5 -34t-11 -20.5t-22 -14
t-33.5 -11t-40 -7t-41 -2.5q-67 0 -114 18t-77 54.5t-43.5 92.5t-13.5 132v563h-135q-14 0 -22 12.5t-8 37.5q0 13 2 22.5t6 16t9.5 9.5t12.5 3h135v222q0 6 2.5 11t9.5 8.5t18.5 5t28.5 1.5q18 0 29.5 -1.5t18 -5t9.5 -8.5t3 -11v-222h580zM963 1230q0 -48 -17 -65t-62 -17
q-44 0 -60.5 16.5t-16.5 64.5t17 65t62 17q44 0 60.5 -16.5t16.5 -64.5zM659 946zM1204 -199q0 -98 -49.5 -149.5t-130.5 -51.5q-36 0 -64.5 10.5t-52.5 26.5t-44.5 34.5t-40.5 34.5t-40 26.5t-43 10.5q-44 0 -61 -32.5t-17 -84.5q0 -14 -9 -20t-43 -6q-26 0 -36 8.5
t-10 34.5q0 90 46.5 145t132.5 55q54 0 92.5 -22.5t70 -49t60.5 -49t63 -22.5q78 0 78 117q0 14 8.5 20t37.5 6q32 0 42 -8t10 -34z" />
    <glyph glyph-name="t_uni1E2F.liga" unicode="t&#x1e2f;" horiz-adv-x="1109" 
d="M903 946q23 0 31 -11.5t8 -31.5v-883q0 -6 -3 -11t-9.5 -8t-18 -5t-28.5 -2q-18 0 -29.5 2t-18 5t-9.5 8t-3 11v825h-500v-547q0 -103 29.5 -157t107.5 -54q24 0 43.5 5t34.5 11t25.5 11t18.5 5q5 0 9 -2t6.5 -7.5t4 -14t1.5 -21.5q0 -21 -3.5 -34t-11 -20.5t-22 -14
t-33.5 -11t-40 -7t-41 -2.5q-67 0 -114 18t-77 54.5t-43.5 92.5t-13.5 132v563h-135q-14 0 -22 12.5t-8 37.5q0 13 2 22.5t6 16t9.5 9.5t12.5 3h135v222q0 6 2.5 11t9.5 8.5t18.5 5t28.5 1.5q18 0 29.5 -1.5t18 -5t9.5 -8.5t3 -11v-222h580zM622 1210q0 46 15.5 62.5
t58.5 16.5q44 0 59.5 -16t15.5 -62q0 -45 -16 -61.5t-59 -16.5t-58.5 15.5t-15.5 61.5zM956 1210q0 46 15.5 62.5t58.5 16.5q44 0 59.5 -16t15.5 -62q0 -45 -16 -61.5t-59 -16.5t-58.5 15.5t-15.5 61.5zM983 1628q13 21 30 27.5t55 6.5t47.5 -11.5t-4.5 -29.5l-174 -234
q-7 -10 -12.5 -15.5t-12.5 -8.5t-17 -4t-25 -1q-31 0 -37.5 9.5t4.5 27.5z" />
    <glyph glyph-name="t_uni0268.liga" unicode="t&#x268;" horiz-adv-x="1154" 
d="M903 946q23 0 31 -11.5t8 -31.5v-337h170q30 0 30 -50t-30 -50h-170v-446q0 -12 -12 -19t-47 -7t-47.5 7t-12.5 19v446h-170q-14 0 -22 12.5t-8 37.5t8 37.5t22 12.5h170v279h-500v-547q0 -103 29.5 -157t107.5 -54q24 0 43.5 5t34.5 11t25.5 11t18.5 5q10 0 15.5 -9.5
t5.5 -35.5q0 -40 -15 -55q-7 -7 -21.5 -13.5t-33.5 -11t-40 -7t-41 -2.5q-67 0 -114 18t-77 54.5t-43.5 92.5t-13.5 132v563h-135q-30 0 -30 50q0 51 30 51h135v222q0 13 12 19.5t47 6.5t47.5 -6.5t12.5 -19.5v-222h580zM960 1229q0 -46 -16 -63.5t-62 -17.5t-62 17.5
t-16 63.5t16 64t62 18t62 -18t16 -64z" />
    <glyph glyph-name="t_t_uni01D0.liga" unicode="tt&#x1d0;" horiz-adv-x="1709" 
d="M323 845v-547q0 -103 29.5 -157t107.5 -54q24 0 43.5 5t34.5 11t25.5 11t18.5 5q5 0 9 -2t6.5 -7.5t4 -14t1.5 -21.5q0 -21 -3.5 -34t-11 -20.5t-22 -14t-33.5 -11t-40 -7t-41 -2.5q-67 0 -114 18t-77 54.5t-43.5 92.5t-13.5 132v563h-135q-14 0 -22 12.5t-8 37.5
q0 13 2 22.5t6 16t9.5 9.5t12.5 3h135v222q0 6 2.5 11t9.5 8.5t18.5 5t28.5 1.5q18 0 29.5 -1.5t18 -5t9.5 -8.5t3 -11v-222h482v263q0 6 2.5 11t9.5 8t18.5 5t28.5 2q18 0 29.5 -2t18 -5t9.5 -8t3 -11v-263h580q22 0 30.5 -11.5t8.5 -31.5v-883q0 -6 -3 -11t-9.5 -8t-18 -5
t-29.5 -2q-17 0 -28.5 2t-18.5 5t-9.5 8t-2.5 11v825h-500v-547q0 -103 29.5 -157t106.5 -54q24 0 43.5 5t34.5 11t26 11t19 5q5 0 8.5 -2t6 -7.5t4 -14t1.5 -21.5q0 -21 -3 -34t-11 -20.5t-22 -14t-33 -11t-40 -7t-41 -2.5q-68 0 -115 18t-76.5 54.5t-43 92.5t-13.5 132
v563h-482zM1627 1374q6 7 11 12t12 8t16 4.5t22 1.5q19 0 30.5 -3t15 -9t0 -15.5t-13.5 -22.5l-169 -232q-5 -7 -10.5 -11.5t-13.5 -6.5t-19.5 -3t-28.5 -1q-15 0 -25 1t-17.5 3.5t-12.5 7t-10 10.5l-169 232q-9 12 -12.5 21.5t0 16t14 9.5t30.5 3q15 0 24 -1.5t15.5 -4.5
t11 -8t10.5 -12l144 -199z" />
    <glyph glyph-name="t_t_uni0209.liga" unicode="tt&#x209;" horiz-adv-x="1709" 
d="M323 845v-547q0 -103 29.5 -157t107.5 -54q24 0 43.5 5t34.5 11t25.5 11t18.5 5q5 0 9 -2t6.5 -7.5t4 -14t1.5 -21.5q0 -21 -3.5 -34t-11 -20.5t-22 -14t-33.5 -11t-40 -7t-41 -2.5q-67 0 -114 18t-77 54.5t-43.5 92.5t-13.5 132v563h-135q-14 0 -22 12.5t-8 37.5
q0 13 2 22.5t6 16t9.5 9.5t12.5 3h135v222q0 6 2.5 11t9.5 8.5t18.5 5t28.5 1.5q18 0 29.5 -1.5t18 -5t9.5 -8.5t3 -11v-222h482v263q0 6 2.5 11t9.5 8t18.5 5t28.5 2q18 0 29.5 -2t18 -5t9.5 -8t3 -11v-263h580q22 0 30.5 -11.5t8.5 -31.5v-883q0 -6 -3 -11t-9.5 -8t-18 -5
t-29.5 -2q-17 0 -28.5 2t-18.5 5t-9.5 8t-2.5 11v825h-500v-547q0 -103 29.5 -157t106.5 -54q24 0 43.5 5t34.5 11t26 11t19 5q5 0 8.5 -2t6 -7.5t4 -14t1.5 -21.5q0 -21 -3 -34t-11 -20.5t-22 -14t-33 -11t-40 -7t-41 -2.5q-68 0 -115 18t-76.5 54.5t-43 92.5t-13.5 132
v563h-482zM1371 1337q-17 20 -6 31t56 11q38 0 54.5 -5.5t24.5 -16.5l182 -267q14 -24 -33 -24q-28 0 -42.5 4.5t-22.5 14.5zM1052 1337q-18 21 -6.5 31.5t56.5 10.5q40 0 55.5 -5.5t23.5 -16.5l182 -267q8 -11 -2 -17.5t-31 -6.5q-26 0 -40.5 4t-24.5 15z" />
    <glyph glyph-name="t_t_uni020B.liga" unicode="tt&#x20b;" horiz-adv-x="1709" 
d="M323 845v-547q0 -103 29.5 -157t107.5 -54q24 0 43.5 5t34.5 11t25.5 11t18.5 5q5 0 9 -2t6.5 -7.5t4 -14t1.5 -21.5q0 -21 -3.5 -34t-11 -20.5t-22 -14t-33.5 -11t-40 -7t-41 -2.5q-67 0 -114 18t-77 54.5t-43.5 92.5t-13.5 132v563h-135q-14 0 -22 12.5t-8 37.5
q0 13 2 22.5t6 16t9.5 9.5t12.5 3h135v222q0 6 2.5 11t9.5 8.5t18.5 5t28.5 1.5q18 0 29.5 -1.5t18 -5t9.5 -8.5t3 -11v-222h482v263q0 6 2.5 11t9.5 8t18.5 5t28.5 2q18 0 29.5 -2t18 -5t9.5 -8t3 -11v-263h580q22 0 30.5 -11.5t8.5 -31.5v-883q0 -6 -3 -11t-9.5 -8t-18 -5
t-29.5 -2q-17 0 -28.5 2t-18.5 5t-9.5 8t-2.5 11v825h-500v-547q0 -103 29.5 -157t106.5 -54q24 0 43.5 5t34.5 11t26 11t19 5q5 0 8.5 -2t6 -7.5t4 -14t1.5 -21.5q0 -21 -3 -34t-11 -20.5t-22 -14t-33 -11t-40 -7t-41 -2.5q-68 0 -115 18t-76.5 54.5t-43 92.5t-13.5 132
v563h-482zM1628 1125q-2 46 -14 79t-32 53.5t-46 30t-57 9.5q-74 0 -108.5 -46.5t-39.5 -125.5q0 -13 -9 -18.5t-37 -5.5q-26 0 -35.5 6.5t-9.5 20.5q0 125 57.5 194.5t181.5 69.5q115 0 177.5 -65.5t62.5 -201.5q0 -13 -8 -18.5t-37 -5.5q-28 0 -37 6.5t-9 17.5z" />
    <glyph glyph-name="t_t_uni1E2D.liga" unicode="tt&#x1e2d;" horiz-adv-x="1709" 
d="M323 845v-547q0 -103 29.5 -157t107.5 -54q24 0 43.5 5t34.5 11t25.5 11t18.5 5q5 0 9 -2t6.5 -7.5t4 -14t1.5 -21.5q0 -21 -3.5 -34t-11 -20.5t-22 -14t-33.5 -11t-40 -7t-41 -2.5q-67 0 -114 18t-77 54.5t-43.5 92.5t-13.5 132v563h-135q-14 0 -22 12.5t-8 37.5
q0 13 2 22.5t6 16t9.5 9.5t12.5 3h135v222q0 6 2.5 11t9.5 8.5t18.5 5t28.5 1.5q18 0 29.5 -1.5t18 -5t9.5 -8.5t3 -11v-222h482v263q0 6 2.5 11t9.5 8t18.5 5t28.5 2q18 0 29.5 -2t18 -5t9.5 -8t3 -11v-263h580q22 0 30.5 -11.5t8.5 -31.5v-883q0 -6 -3 -11t-9.5 -8t-18 -5
t-29.5 -2q-17 0 -28.5 2t-18.5 5t-9.5 8t-2.5 11v825h-500v-547q0 -103 29.5 -157t106.5 -54q24 0 43.5 5t34.5 11t26 11t19 5q5 0 8.5 -2t6 -7.5t4 -14t1.5 -21.5q0 -21 -3 -34t-11 -20.5t-22 -14t-33 -11t-40 -7t-41 -2.5q-68 0 -115 18t-76.5 54.5t-43 92.5t-13.5 132
v563h-482zM1561 1230q0 -48 -17 -65t-62 -17q-44 0 -60.5 16.5t-16.5 64.5t17 65t62 17q44 0 60.5 -16.5t16.5 -64.5zM1257 946zM1805 -199q0 -98 -49.5 -149.5t-130.5 -51.5q-36 0 -64.5 10.5t-52.5 26.5t-44.5 34.5t-40.5 34.5t-40 26.5t-43 10.5q-44 0 -61 -32.5
t-17 -84.5q0 -14 -9 -20t-43 -6q-26 0 -36 8.5t-10 34.5q0 90 46.5 145t132.5 55q54 0 92.5 -22.5t70 -49t60.5 -49t63 -22.5q78 0 78 117q0 14 8.5 20t37.5 6q32 0 42 -8t10 -34z" />
    <glyph glyph-name="t_t_uni1E2F.liga" unicode="tt&#x1e2f;" horiz-adv-x="1709" 
d="M323 845v-547q0 -103 29.5 -157t107.5 -54q24 0 43.5 5t34.5 11t25.5 11t18.5 5q5 0 9 -2t6.5 -7.5t4 -14t1.5 -21.5q0 -21 -3.5 -34t-11 -20.5t-22 -14t-33.5 -11t-40 -7t-41 -2.5q-67 0 -114 18t-77 54.5t-43.5 92.5t-13.5 132v563h-135q-14 0 -22 12.5t-8 37.5
q0 13 2 22.5t6 16t9.5 9.5t12.5 3h135v222q0 6 2.5 11t9.5 8.5t18.5 5t28.5 1.5q18 0 29.5 -1.5t18 -5t9.5 -8.5t3 -11v-222h482v263q0 6 2.5 11t9.5 8t18.5 5t28.5 2q18 0 29.5 -2t18 -5t9.5 -8t3 -11v-263h580q22 0 30.5 -11.5t8.5 -31.5v-883q0 -6 -3 -11t-9.5 -8t-18 -5
t-29.5 -2q-17 0 -28.5 2t-18.5 5t-9.5 8t-2.5 11v825h-500v-547q0 -103 29.5 -157t106.5 -54q24 0 43.5 5t34.5 11t26 11t19 5q5 0 8.5 -2t6 -7.5t4 -14t1.5 -21.5q0 -21 -3 -34t-11 -20.5t-22 -14t-33 -11t-40 -7t-41 -2.5q-68 0 -115 18t-76.5 54.5t-43 92.5t-13.5 132
v563h-482zM1228 1210q0 46 15.5 62.5t58.5 16.5q44 0 59.5 -16t15.5 -62q0 -45 -16 -61.5t-59 -16.5t-58.5 15.5t-15.5 61.5zM1562 1210q0 46 15.5 62.5t58.5 16.5q44 0 59.5 -16t15.5 -62q0 -45 -16 -61.5t-59 -16.5t-58.5 15.5t-15.5 61.5zM1589 1628q13 21 30 27.5
t55 6.5t47.5 -11.5t-4.5 -29.5l-174 -234q-7 -10 -12.5 -15.5t-12.5 -8.5t-17 -4t-25 -1q-31 0 -37.5 9.5t4.5 27.5z" />
    <glyph glyph-name="t_t_uni0268.liga" unicode="tt&#x268;" horiz-adv-x="1755" 
d="M323 845v-547q0 -103 29.5 -157t107.5 -54q24 0 43.5 5t34.5 11t25.5 11t18.5 5q10 0 15.5 -9.5t5.5 -35.5q0 -40 -15 -55q-7 -7 -21.5 -13.5t-33.5 -11t-40 -7t-41 -2.5q-67 0 -114 18t-77 54.5t-43.5 92.5t-13.5 132v563h-135q-30 0 -30 50q0 51 30 51h135v222
q0 13 12 19.5t47 6.5t47.5 -6.5t12.5 -19.5v-222h482v263q0 12 12 19t47 7t47.5 -7t12.5 -19v-263h580q22 0 30.5 -11.5t8.5 -31.5v-337h170q30 0 30 -50t-30 -50h-170v-446q0 -12 -12.5 -19t-47.5 -7t-47 7t-12 19v446h-170q-14 0 -22 12.5t-8 37.5t8 37.5t22 12.5h170v279
h-500v-547q0 -103 29.5 -157t106.5 -54q24 0 43.5 5t34.5 11t26 11t19 5q10 0 15 -9.5t5 -35.5q0 -21 -3 -34t-12 -21q-7 -7 -21 -13.5t-33 -11t-40 -7t-41 -2.5q-68 0 -115 18t-76.5 54.5t-43 92.5t-13.5 132v563h-482zM1561 1229q0 -46 -16 -63.5t-62 -17.5t-62 17.5
t-16 63.5t16 64t62 18t62 -18t16 -64z" />
    <glyph glyph-name="f_uni0237.liga" unicode="f&#x237;" horiz-adv-x="1057" 
d="M890 -63q0 -68 -11 -123.5t-39.5 -95t-78 -61.5t-125.5 -22q-45 0 -80 9t-46 20q-6 6 -8.5 15t-2.5 30q0 52 24 52q9 0 17.5 -3.5t21 -7.5t31 -7.5t47.5 -3.5q33 0 58 11t41 36.5t24 66.5t8 101v891h-444v-825q0 -12 -12.5 -19t-47.5 -7t-47 7t-12 19v825h-136
q-29 0 -29 50q0 51 29 51h136v126q0 87 17.5 149t50.5 101.5t80 58.5t106 19q29 0 57 -4t45 -11q14 -5 20 -19t6 -40q0 -45 -21 -45q-8 0 -16.5 2.5t-21.5 6t-30.5 6t-42.5 2.5q-70 0 -100.5 -55.5t-30.5 -170.5v-126h526q20 0 28.5 -11.5t8.5 -29.5v-968z" />
    <glyph glyph-name="f_f_uni0237.liga" unicode="ff&#x237;" horiz-adv-x="1620" 
d="M771 1072q0 87 17.5 149t50.5 101.5t80 58.5t106 19q29 0 57 -4.5t45 -10.5q14 -5 20 -19t6 -40q0 -45 -20 -45q-8 0 -17 2.5t-21.5 6t-30 6t-42.5 2.5q-70 0 -101 -55.5t-31 -170.5v-126h526q20 0 29 -11.5t9 -29.5v-968q0 -68 -11 -123.5t-39.5 -95t-78 -61.5
t-125.5 -22q-45 0 -80.5 9t-46.5 20q-5 6 -8 15t-3 30q0 26 6.5 39t17.5 13q9 0 17.5 -3.5t21 -7.5t31 -7.5t47.5 -3.5q33 0 58 11t41.5 36.5t24.5 66.5t8 101v891h-445v-825q0 -12 -12 -19t-47 -7t-47.5 7t-12.5 19v825h-444v-825q0 -12 -12.5 -19t-47.5 -7t-47 7t-12 19
v825h-136q-29 0 -29 50q0 51 29 51h136v96q0 94 17.5 160t52 107.5t85.5 60.5t117 19q44 0 76 -8t50 -16q17 -8 23.5 -23.5t6.5 -41.5q0 -45 -20 -45q-8 0 -20 5t-29.5 11t-40 11t-50.5 5q-83 0 -116 -58.5t-33 -186.5v-96h444v126z" />
    <glyph glyph-name="uniFEDF_uniFEE0_uniFEEA.liga" unicode="&#xfedf;&#xfee0;&#xfeea;" horiz-adv-x="1771" 
d="M1671 416q0 -29 -6.5 -62t-17 -64t-23.5 -56.5t-27 -40.5q-19 -21 -52 -31.5t-69 -13.5q-41 -4 -83.5 4.5t-81 31t-69.5 60t-49 91.5h-6q-14 -59 -44.5 -99.5t-72.5 -65.5t-92 -36.5t-103 -11.5q-135 0 -207 66t-72 204h-5q-15 -17 -33 -36.5t-38 -36.5t-39.5 -28.5
t-37.5 -11.5q-34 0 -74 2t-80.5 7t-78 14t-66 23t-45 35t-13.5 50q1 16 12 39.5t26.5 48.5t33 48.5t31.5 39.5q29 33 125.5 92t276.5 136q1 16 1 34.5t2 33.5q2 11 11.5 35.5t26.5 50.5q13 19 24 31t18 12q10 0 10 -13q0 -72 -1.5 -131.5t-1.5 -107.5q1 -153 6 -308
q1 -56 18 -93t46.5 -59.5t69 -32t84.5 -9.5q51 0 97 12t80.5 34t55.5 54t22 72q0 17 -6 58.5t-15.5 94t-20.5 111t-20.5 110.5t-15.5 91.5t-6 53.5q0 21 9 53.5t20 65.5q8 24 16.5 40.5t16.5 16.5q11 0 14 -13q24 -158 49.5 -308t54.5 -304q12 -60 34 -101.5t53.5 -67
t71.5 -37t88 -11.5q24 0 51 6t38 23q0 21 -8 76.5t-20 128t-26.5 153t-26.5 150.5t-20 121t-8 65q0 24 7 54t17 56.5t20.5 45t16.5 18.5q12 0 13 -13q9 -64 21 -137.5t24.5 -149t25 -148t22 -134.5t15.5 -109.5t6 -71.5zM590 448v204q0 26 0.5 52t0.5 50h-3
q-20 -21 -43.5 -40.5t-48.5 -31.5q-62 -32 -113 -64t-88 -59.5t-59.5 -49t-28.5 -32.5q13 -17 37.5 -30t54.5 -21.5t63 -13t65 -4.5t76.5 6.5t86.5 33.5zM1090 1407q3 6 7.5 8.5t15.5 2.5q22 0 22 -9q0 -14 -4 -38t-9 -41q9 -7 22.5 -13.5t30.5 -6.5q22 0 37.5 14.5t26 37
t16.5 49t9 50.5q0 8 6.5 10.5t16.5 2.5q22 0 20 -14q0 -37 -6.5 -79t-22.5 -78t-44 -59.5t-70 -23.5q-29 0 -47.5 13t-26.5 22q-8 -14 -18 -28.5t-24.5 -27t-35 -20.5t-48.5 -8q-15 0 -28 4t-22.5 14t-15 28t-5.5 46q0 15 2.5 31t7 31t9.5 27t11 19q6 9 19 9q19 0 19 -10
q0 -4 -2.5 -11t-5 -15.5t-5 -17.5t-2.5 -15q0 -20 8 -33.5t35 -13.5q25 0 41.5 15.5t27.5 37.5t18.5 46.5t13.5 43.5zM1141 1482q-2 -5 -5.5 -6.5t-14.5 -1.5q-14 0 -14 8q0 18 -0.5 40t-2.5 45.5t-6 46.5t-11 41q-14 34 -28.5 54t-36.5 43q-3 1 -3 16q0 10 1.5 27t4.5 33.5
t7 28.5t9 12q8 0 15 -7q53 -53 76 -123.5t23 -145.5q0 -27 -4.5 -59.5t-9.5 -51.5z" />
    <glyph glyph-name="uniFEDF_uniFEE0_uniFEEA.liga" unicode="&#xfedf;&#xfee0;&#xfeea;" horiz-adv-x="1771" 
d="M1671 416q0 -29 -6.5 -62t-17 -64t-23.5 -56.5t-27 -40.5q-19 -21 -52 -31.5t-69 -13.5q-41 -4 -83.5 4.5t-81 31t-69.5 60t-49 91.5h-6q-14 -59 -44.5 -99.5t-72.5 -65.5t-92 -36.5t-103 -11.5q-135 0 -207 66t-72 204h-5q-15 -17 -33 -36.5t-38 -36.5t-39.5 -28.5
t-37.5 -11.5q-34 0 -74 2t-80.5 7t-78 14t-66 23t-45 35t-13.5 50q1 16 12 39.5t26.5 48.5t33 48.5t31.5 39.5q29 33 125.5 92t276.5 136q1 16 1 34.5t2 33.5q2 11 11.5 35.5t26.5 50.5q13 19 24 31t18 12q10 0 10 -13q0 -72 -1.5 -131.5t-1.5 -107.5q1 -153 6 -308
q1 -56 18 -93t46.5 -59.5t69 -32t84.5 -9.5q51 0 97 12t80.5 34t55.5 54t22 72q0 17 -6 58.5t-15.5 94t-20.5 111t-20.5 110.5t-15.5 91.5t-6 53.5q0 21 9 53.5t20 65.5q8 24 16.5 40.5t16.5 16.5q11 0 14 -13q24 -158 49.5 -308t54.5 -304q12 -60 34 -101.5t53.5 -67
t71.5 -37t88 -11.5q24 0 51 6t38 23q0 21 -8 76.5t-20 128t-26.5 153t-26.5 150.5t-20 121t-8 65q0 24 7 54t17 56.5t20.5 45t16.5 18.5q12 0 13 -13q9 -64 21 -137.5t24.5 -149t25 -148t22 -134.5t15.5 -109.5t6 -71.5zM590 448v204q0 26 0.5 52t0.5 50h-3
q-20 -21 -43.5 -40.5t-48.5 -31.5q-62 -32 -113 -64t-88 -59.5t-59.5 -49t-28.5 -32.5q13 -17 37.5 -30t54.5 -21.5t63 -13t65 -4.5t76.5 6.5t86.5 33.5z" />
    <glyph glyph-name="uniFEDF_uniFE8E.rlig" unicode="&#xfedf;&#xfe8e;" horiz-adv-x="1073" 
d="M854 1482q5 8 11 8q3 0 6 -2t3 -5q1 -18 4.5 -31.5t12.5 -28t24 -31t40 -40.5q12 -11 15 -19.5t3 -17.5q0 -12 -5 -29.5t-13 -35t-17.5 -31t-18.5 -17.5q11 -136 25 -260t14 -229q0 -43 -8 -104.5t-32 -130.5t-69.5 -140t-120.5 -133q-35 -29 -71 -51t-75.5 -38.5
t-83 -29.5t-92.5 -24q-29 -7 -66.5 -15t-74.5 -14.5t-69.5 -11t-50.5 -4.5q-9 0 -13 10.5t-4 26.5q0 18 13 21q78 18 155 44t150.5 60t141 74.5t126.5 87.5q-9 40 -19.5 80.5t-28.5 88t-47.5 103.5t-76.5 127q-45 66 -96 129t-122 125l-11 -34q-5 -14 -16 -15q-10 -2 -19 5
q-52 31 -91 57.5t-65 52t-39 52.5t-13 60q0 29 6.5 58.5t16.5 52.5q5 11 13 18.5t21 7.5q15 0 44 -18.5t66.5 -50.5t80.5 -73.5t85.5 -88t81 -94.5t67.5 -92q55 -86 92 -158t60 -134t34.5 -116t16.5 -103q40 41 65 75.5t38.5 66.5t18.5 64t5 70q0 19 -3.5 57t-9.5 87
t-12.5 104.5t-13.5 110t-12.5 102.5t-8.5 83q-2 22 0 42q-15 15 -23 37t-8 42q0 59 63 160z" />
    <glyph glyph-name="uniFEE0_uniFE8E.rlig" unicode="&#xfee0;&#xfe8e;" horiz-adv-x="1258" 
d="M1258 160q-28 0 -65 5.5t-73 25t-65.5 55.5t-42.5 98q-26 110 -35.5 217t-21.5 210h-4q-7 -66 -22.5 -139t-43.5 -147.5t-72 -145.5t-108 -132q-57 -54 -129.5 -87t-160.5 -54q-33 -8 -72.5 -17t-77 -16t-69.5 -11.5t-50 -4.5q-10 0 -13.5 10.5t-3.5 26.5q0 18 12 21
q79 19 159.5 46.5t156 65.5t143 87t121.5 111q-14 79 -49 162.5t-86.5 166t-118.5 161t-144 146.5l-11 -34q-6 -14 -16 -15q-8 -2 -20 6q-52 31 -90.5 57t-64 51.5t-38.5 52t-13 58.5q0 33 9 67t20 53q10 15 22 16q9 1 20 -5q43 -26 95.5 -67t108 -93.5t110.5 -115.5
t102 -132q52 -78 88.5 -147.5t60.5 -131.5t37 -117t18 -103q38 51 68 113.5t50.5 144t32 185.5t12.5 239l-9 204q0 29 9 57.5t20 56.5q12 25 21.5 40t17.5 15q11 0 12 -13q20 -221 37 -441t38 -446q9 -94 29.5 -151.5t48 -89t60 -42t64.5 -10.5z" />
    <glyph glyph-name="uniFEB3_uniFEAE.liga" unicode="&#xfeb3;&#xfeae;" horiz-adv-x="1985" 
d="M1788 555q0 8 4 25t20 43q13 22 21 34t13 12t8.5 -3.5t5.5 -6.5q6 -14 13 -35.5t13 -46.5t10 -51.5t4 -50.5q0 -46 -13 -97t-39 -102q-23 -38 -49 -59t-54 -21q-30 0 -65.5 14.5t-68 35.5t-57.5 43.5t-33 39.5q-21 -33 -50.5 -61t-64.5 -48.5t-75.5 -32t-83.5 -11.5
q-88 0 -133.5 43.5t-60.5 129.5l-8 5q-60 -26 -133.5 -48t-151.5 -40q-4 -71 -22.5 -141t-48.5 -134t-71 -119t-89.5 -95.5t-104 -63.5t-114.5 -23q-26 0 -57.5 4.5t-67 14t-72.5 24t-73 33.5q-12 7 -20 12t-12.5 10.5t-6 12.5t-1.5 18q0 35 17 35q7 0 24.5 -9t42.5 -19.5
t56 -19.5t67 -9q62 0 120.5 20.5t110.5 54.5t96.5 77.5t78 90t55.5 92t29 83.5q-9 6 -20.5 13t-21.5 15t-17 16t-7 16q0 12 1 28.5t3.5 32t6.5 26.5t11 13q51 10 111.5 25t122 33.5t121 39.5t107.5 43q13 0 24 -6t11 -16q0 -8 -5.5 -17t-10.5 -17q4 -40 16.5 -69.5t31.5 -49
t42 -29t48 -9.5q63 -1 110 22.5t85 71.5q13 16 24.5 40.5t22 52.5t19 55.5t14.5 49.5q2 7 9 11t29 4q17 0 23.5 -3t6.5 -11q0 -11 -3.5 -29t-8.5 -38.5t-11 -41t-11 -35.5q6 -25 28.5 -49t52 -43.5t61 -31.5t55.5 -12q51 0 51 91q0 31 -6.5 56.5t-14 44.5t-14 31t-6.5 16z
" />
    <glyph glyph-name="uniFEB4_uniFEAE.liga" unicode="&#xfeb4;&#xfeae;" horiz-adv-x="2084" 
d="M1825 547q2 8 10.5 18t30.5 22q18 10 25.5 12t10.5 -4q2 -4 2.5 -6t0.5 -7q-2 -31 -8 -64.5t-14 -69.5q14 -38 32 -68t43.5 -52t59.5 -33.5t80 -11.5l-14 -123q-35 0 -68.5 5t-64 20t-56.5 43t-46 74h-5q-8 -21 -19 -48t-27.5 -51t-38.5 -40.5t-51 -16.5q-31 0 -59 14
t-52.5 36t-45 49t-36.5 54q-45 -70 -119 -107t-159 -37q-84 0 -127 48.5t-57 134.5l-8 5q-60 -26 -133.5 -48.5t-151.5 -39.5q-6 -104 -43.5 -205t-98.5 -181t-140 -129.5t-168 -49.5q-26 0 -57.5 4.5t-67 14t-72.5 24t-73 33.5q-12 7 -20 12t-12.5 10.5t-6 12.5t-1.5 18
q0 35 17 35q7 0 24.5 -9t42.5 -19.5t56 -19.5t67 -9q62 0 120.5 20t110.5 53.5t96.5 76.5t78 88t55.5 89t29 80q-9 6 -20.5 13t-21.5 15t-17 16t-7 16q0 13 1 30t3.5 32t6.5 25.5t11 12.5q51 10 111.5 25t122 33.5t120.5 39.5t108 43q13 0 24 -6t11 -16q0 -8 -5.5 -17
t-10.5 -17q8 -78 44 -122t87 -44q69 0 117.5 27.5t81.5 69.5q26 33 46.5 81.5t34.5 94.5q2 7 9 11t29 4q17 0 23.5 -3t6.5 -11q0 -11 -3 -27t-7.5 -34t-10.5 -36t-11 -31q6 -26 20.5 -52t33.5 -46.5t39.5 -33.5t37.5 -13q27 0 48 32t36 86q8 31 15.5 69t13.5 76z" />
    <glyph glyph-name="uniFEBB_uniFEAE.liga" unicode="&#xfebb;&#xfeae;" horiz-adv-x="2323" 
d="M1379 261q17 -2 35.5 -3.5t37.5 -3.5q48 -3 93.5 -2.5t96.5 3.5q76 4 150.5 14t141.5 25.5t123 37t95 48.5q-1 10 -3 19.5t-4 20.5q-9 38 -31.5 71.5t-54 58.5t-70.5 39.5t-80 14.5q-48 0 -111.5 -25t-134 -70.5t-143.5 -108.5t-141 -139zM1298 141q-23 -38 -48.5 -92.5
t-45.5 -108.5q-5 -15 -12.5 -20t-24.5 -5q-30 0 -30 17q0 8 8.5 35.5t20.5 62t26.5 70t26.5 58.5q-35 9 -66 20.5t-57 31.5t-46.5 51t-33.5 79q-54 -23 -118.5 -40.5t-137.5 -35.5q-4 -71 -22.5 -141t-48.5 -134t-71 -119t-89.5 -95.5t-104 -63.5t-114.5 -23
q-26 0 -57.5 4.5t-67 14t-72.5 24t-73 33.5q-12 7 -20 12t-12.5 10.5t-6 12.5t-1.5 18q0 35 17 35q7 0 24.5 -9t42.5 -19.5t56 -19.5t67 -9q62 0 120.5 20.5t110.5 55t96.5 78t78 90t55.5 92t29 82.5q-9 6 -20.5 13t-21.5 15t-17 16t-7 16q0 12 1 28.5t3.5 32t6.5 26.5
t11 13q49 10 104 23.5t111.5 30t112 35.5t105.5 40q12 0 23 -6.5t11 -16.5q0 -8 -5.5 -17t-9.5 -17q4 -43 19.5 -73t40 -49.5t58 -30.5t73.5 -16q40 44 88 94t101.5 99.5t112.5 95.5t121.5 80.5t126.5 55.5t129 21q49 0 96 -21.5t84 -54t60 -71.5t23 -74q0 -45 -11 -84.5
t-27.5 -72t-36.5 -57.5t-37 -40q-57 -32 -127 -55.5t-146.5 -38.5t-156.5 -22.5t-157 -7.5q-75 0 -130.5 4t-110.5 14z" />
    <glyph glyph-name="uniFEBC_uniFEAE.liga" unicode="&#xfebc;&#xfeae;" horiz-adv-x="2357" 
d="M1298 153q-23 -38 -48 -92.5t-45 -108.5q-5 -15 -12.5 -20t-24.5 -5q-30 0 -30 17q0 8 8.5 35.5t20.5 62t26.5 69.5t26.5 58q-35 8 -66.5 19t-57.5 29.5t-46.5 47.5t-33.5 74q-54 -23 -118.5 -41t-137.5 -35q-4 -71 -22.5 -141t-48.5 -134t-71 -119t-89.5 -95.5
t-104 -63.5t-114.5 -23q-26 0 -57.5 4.5t-67 14t-72.5 24t-73 33.5q-12 7 -20 12t-12.5 10.5t-6 12.5t-1.5 18q0 35 17 35q7 0 24.5 -9t42.5 -19.5t56 -19.5t67 -9q62 0 120.5 20.5t110.5 55t96.5 78t78 90t55.5 92t29 82.5q-9 6 -20 13t-21.5 15t-17.5 16t-7 16
q0 12 1 28.5t3.5 32t6.5 26.5t11 13q49 10 104 23.5t111.5 30t112 35.5t105.5 40q12 0 23 -6t11 -17q0 -8 -5.5 -17t-9.5 -17q4 -41 19.5 -69t40 -46.5t58 -28.5t73.5 -15q40 44 88 94t101.5 100t112.5 95.5t121.5 80.5t126.5 56t129 21q49 0 96 -21.5t84 -54t60 -71.5
t23 -74q0 -39 -10 -74t-24.5 -63.5t-31.5 -50.5t-31 -35l9 -4q35 -1 90 -1h131l-14 -121q-60 0 -115.5 1.5t-103.5 6t-87.5 12t-66.5 19.5q-109 -32 -221.5 -49t-223.5 -17q-38 0 -70 1t-60.5 3t-55.5 5.5t-55 8.5zM1452 263q94 -5 196 1t197 22t175.5 42t131.5 61
q-1 10 -3 20t-4 21q-8 38 -30.5 71.5t-54.5 58.5t-71 39.5t-80 14.5q-48 0 -111.5 -25t-134 -70.5t-143.5 -108.5t-141 -139z" />
    <glyph glyph-name="uniFEA3_uniFEF0.liga" unicode="&#xfea3;&#xfef0;" horiz-adv-x="1980" 
d="M946 574q-5 0 -8 4t-3 18q0 20 6 31q19 28 39.5 51.5t45.5 40t55.5 25.5t69.5 9q75 0 153.5 -27t165.5 -63q69 -29 130 -52t118 -39t111.5 -24.5t108.5 -8.5q12 0 12 -10q0 -5 -3.5 -17.5t-14.5 -32.5q-30 -59 -46 -59q-27 0 -63 8t-73 8q-34 0 -80 -7t-97 -17.5
t-102.5 -23t-94.5 -24.5q-164 -45 -284 -86t-195 -75q23 -7 56 -15.5t69 -19.5t71 -24t63.5 -28t46 -33.5t17.5 -39.5q0 -43 -17 -87.5t-37 -83.5q-37 -41 -102 -83t-149 -75.5t-181.5 -55t-200.5 -21.5q-128 0 -214 32.5t-138 86t-74 122.5t-22 143q0 63 9.5 120.5
t23.5 107t30 90t30 69.5q10 21 19 29t30 8q33 0 33 -18q0 -7 -11.5 -37.5t-25.5 -75t-25.5 -98t-11.5 -105.5q0 -85 25.5 -148t73 -105t115.5 -63t153 -21q87 0 175.5 17.5t168 47.5t146 70t109.5 85q-2 15 -25 28t-58.5 24t-79 20.5t-87 18t-83 17.5t-65.5 18q-5 8 -6.5 16
t1.5 22q1 6 5.5 18t10.5 25.5t12.5 26t11.5 18.5q11 13 40.5 30t55.5 29q70 28 145 53.5t157 48.5t172 44.5t192 41.5v5q-55 16 -108.5 38t-107 42.5t-108 34.5t-111.5 14q-46 0 -74 -8.5t-45.5 -18t-28 -18t-22.5 -8.5z" />
    <glyph glyph-name="uniFEA4_uniFEF0.liga" unicode="&#xfea4;&#xfef0;" horiz-adv-x="2083" 
d="M2083 160q-57 0 -110 3.5t-104 14.5q-37 7 -70.5 19.5t-60.5 31t-46.5 45t-28.5 61.5q-6 32 -4 64t5 67l-4 7q-33 -5 -70.5 -12t-75 -15.5t-73 -17t-65.5 -16.5q-163 -45 -282.5 -85t-194.5 -74q22 -6 55 -14.5t68.5 -19t71 -24t63.5 -29t45.5 -34t17.5 -39.5
q0 -43 -17 -87.5t-37 -84.5q-37 -41 -102 -82t-149 -75t-182 -55t-200 -21q-128 0 -214 32t-138 85t-74 121t-22 141q0 64 9.5 122.5t23.5 108.5t30 90.5t30 69.5q10 21 19 29t30 8q33 0 33 -18q0 -7 -11.5 -37.5t-25.5 -75t-25.5 -98t-11.5 -105.5q0 -85 25 -148t72 -105
t115 -63t155 -21t175.5 17.5t168 47.5t146 70t109.5 85q-3 16 -26 29t-58.5 24t-79 20.5t-86.5 18.5t-82 17.5t-66 17.5q-5 7 -6.5 15t0.5 22q2 6 6.5 18t10.5 25t12 25.5t11 19.5q12 12 41 29t56 30q70 28 144.5 53t156 48t171.5 44t191 41v6q-55 17 -108 39t-106 42
t-107 34t-111 14q-46 0 -74 -8.5t-45.5 -18t-28 -18t-22.5 -8.5q-5 0 -8 4t-3 18q0 20 6 31q19 28 39.5 51.5t45.5 40t55.5 25.5t69.5 9q40 0 78.5 -7.5t78 -20t79.5 -29t83 -34.5q70 -29 131.5 -52t117.5 -39.5t110 -25t109 -8.5q12 0 12 -9q0 -5 -3.5 -17.5t-14.5 -32.5
q-29 -60 -47 -60q-27 0 -51.5 6t-50.5 8q-15 0 -31 -0.5t-33 -1.5q3 -53 25.5 -90t68 -60.5t116 -34.5t168.5 -11z" />
    <glyph glyph-name="uniFEB3_uniFEF0.liga" unicode="&#xfeb3;&#xfef0;" horiz-adv-x="2181" 
d="M1743 678q2 7 9 11t29 4q17 0 23 -3t6 -11q0 -11 -3.5 -29t-8.5 -38t-11 -40.5t-11 -35.5q6 -25 29 -49.5t52.5 -44t61 -31.5t54.5 -12q28 0 39.5 25t11.5 67q0 30 -6.5 55.5t-14 44.5t-13.5 31t-6 16q0 8 4 25t20 43q25 46 34 46q8 0 12 -10q7 -15 14.5 -36t13.5 -45.5
t10 -50.5t4 -51q0 -35 -10 -83.5t-29.5 -92t-48.5 -74t-67 -30.5q-29 0 -64.5 14.5t-68.5 35t-58 43.5t-33 40q-22 -39 -53 -68.5t-67 -48.5t-75 -28.5t-78 -9.5q-38 0 -67 9.5t-52 28.5t-42 47.5t-37 65.5q-13 26 -25 49.5t-28 41t-38.5 27.5t-55.5 10q-71 0 -134.5 -24
t-112 -56.5t-77 -67t-28.5 -55.5q0 -48 52 -75t158 -47q51 -10 89.5 -21t64 -26.5t38.5 -39t13 -59.5q0 -17 -4 -38.5t-10.5 -44t-14.5 -43.5t-16 -37q-50 -57 -118 -106.5t-146 -86.5t-162.5 -58t-168.5 -21q-127 0 -211 36.5t-134.5 95t-71 132t-20.5 148.5q0 53 8 105
t21.5 100t30 91.5t33.5 79.5q10 21 18.5 29t30.5 8q15 0 24 -4.5t9 -13.5q0 -7 -11.5 -37.5t-26 -75t-26 -98.5t-11.5 -108q0 -90 26 -156.5t74.5 -110t117 -64.5t153.5 -21q64 0 141 20t151.5 55.5t140 83t107.5 102.5q0 9 -9 19t-31 20t-58 20t-91 19q-51 9 -94.5 18.5
t-75 25.5t-49 41.5t-17.5 66.5q0 46 19.5 93.5t53 93t77.5 85.5t93.5 69.5t101.5 47t100 17.5q46 0 80 -14.5t59 -38t42.5 -53t31.5 -59.5q18 -34 36 -56t37 -34.5t37.5 -17.5t38.5 -5q58 0 101 22t74.5 61t53 92.5t36.5 117.5z" />
    <glyph glyph-name="uniFEB4_uniFEF0.liga" unicode="&#xfeb4;&#xfef0;" horiz-adv-x="2305" 
d="M1736 299q-42 -54 -108 -89t-163 -35q-48 0 -82 12.5t-59 35t-43 52t-33 64.5q-13 27 -25 50t-28 40t-39 27t-57 10q-71 0 -135 -24t-112.5 -56.5t-77 -66.5t-28.5 -55q0 -48 52.5 -75t158.5 -47q51 -9 89 -19t63.5 -25.5t38 -38t12.5 -56.5q0 -16 -4 -36t-10 -41
t-14 -41t-16 -36q-50 -54 -116.5 -101.5t-143.5 -82t-162 -54.5t-172 -20q-127 0 -211 36.5t-134.5 95t-71 132t-20.5 147.5q0 53 8 105.5t21.5 101t30 92t33.5 79.5q10 20 18.5 28t30.5 8q15 0 24 -4.5t9 -12.5q0 -7 -11.5 -37.5t-26 -75t-26 -98.5t-11.5 -108
q0 -91 26 -157.5t74.5 -110t117 -64.5t153.5 -21q68 0 145.5 19t151 52t137 78.5t105.5 98.5q0 8 -9 17.5t-30.5 19.5t-58 19t-90.5 17q-52 9 -95 18t-74.5 24.5t-49 39.5t-17.5 63q0 44 19.5 91.5t52.5 92t77 84t93.5 69t101.5 47t100 17.5q47 0 81 -15.5t59.5 -40
t44.5 -56t37 -64.5q15 -26 30 -47.5t33.5 -36.5t41.5 -23.5t54 -8.5q65 0 109 18.5t74 52.5t50 80.5t37 102.5q2 7 9 11t29 4q17 0 23.5 -3t6.5 -11q0 -11 -3 -27t-7.5 -34t-10 -36t-9.5 -33q6 -26 20.5 -52t33 -46t38.5 -32.5t37 -12.5q27 0 48 32t36 86q11 38 18.5 78.5
t11.5 66.5q1 8 9.5 18t30.5 22q18 10 25.5 11.5t10.5 -3.5q4 -4 3 -13q-2 -23 -8.5 -60.5t-13.5 -73.5q14 -38 32 -68t43.5 -52t60 -33.5t80.5 -11.5l-15 -123q-35 0 -68.5 5t-64 20t-56.5 43t-46 74h-4q-26 -69 -59 -112.5t-78 -43.5q-30 0 -57.5 14t-52 35.5t-45.5 49
t-38 54.5z" />
    <glyph glyph-name="uniFEBB_uniFEF0.liga" unicode="&#xfebb;&#xfef0;" horiz-adv-x="2479" 
d="M1536 357q17 -2 35 -4t38 -3q48 -3 93.5 -2t96.5 3q76 4 150.5 14t141.5 25.5t123.5 37.5t95.5 49q-1 9 -2.5 19t-6.5 20q-7 38 -29 72t-54 59t-71.5 39.5t-80.5 14.5q-48 0 -111.5 -25t-133.5 -70.5t-143.5 -109t-141.5 -139.5zM1447 242q-10 -15 -20 -34t-20 -39.5
t-19 -41.5t-16 -40q-6 -14 -13 -19t-24 -5q-30 0 -30 17q0 8 7 29.5t18.5 48.5t24.5 55t25 49q-23 4 -44 18t-39 33.5t-33 42t-25 42.5q-12 26 -23.5 49.5t-26.5 41t-36.5 27.5t-52.5 10q-71 0 -135 -23.5t-112.5 -56.5t-77 -67.5t-28.5 -56.5q0 -48 52.5 -74t160.5 -47
q50 -10 88 -20.5t63.5 -26t38 -38.5t12.5 -57q0 -17 -4.5 -38t-11.5 -43t-15.5 -42.5t-17.5 -36.5q-52 -57 -122 -106t-149 -85t-161.5 -57t-158.5 -21q-127 0 -211 36.5t-134.5 95t-71 132t-20.5 148.5q0 53 8 105t21.5 100t30 91.5t33.5 79.5q10 21 18.5 29t30.5 8
q15 0 24 -4.5t9 -13.5q0 -7 -11.5 -37.5t-26 -75t-26 -98.5t-11.5 -108q0 -90 26 -156.5t74.5 -110t117 -64.5t153.5 -21q58 0 132 20t149.5 54.5t144 81.5t114.5 101q0 9 -9 18.5t-31 19.5t-58.5 20t-90.5 19q-51 9 -94.5 18t-75 25t-49 40.5t-17.5 65.5q0 45 19.5 92.5
t52.5 92.5t77.5 85t93.5 69.5t101 47t100 17.5q45 0 77.5 -14.5t56.5 -37.5t40.5 -51.5t29.5 -57.5q20 -45 54 -78t81 -39q40 43 88 92.5t102 98.5t113 95t121 81t126.5 56t128.5 21q48 0 95 -21.5t84 -54t59.5 -71.5t22.5 -74q0 -45 -11 -84.5t-27.5 -72t-36 -57.5
t-36.5 -41q-57 -32 -127 -55t-146.5 -38t-156.5 -22.5t-157 -7.5t-134.5 4.5t-114.5 17.5z" />
    <glyph glyph-name="uniFEBC_uniFEF0.liga" unicode="&#xfebc;&#xfef0;" horiz-adv-x="2439" 
d="M1493 299l34 -4t37 -3q47 -4 90.5 -3t93.5 4q73 4 145.5 14t138 25.5t120 37t92.5 48.5q-1 9 -3 18.5t-4 20.5q-9 40 -31 74t-52.5 59t-68.5 39t-78 14q-46 0 -108 -25.5t-130.5 -71t-139.5 -108.5t-136 -139zM1407 184q-10 -15 -20 -34t-19.5 -39.5t-18 -41.5t-15.5 -40
q-5 -14 -12 -19.5t-24 -5.5q-29 0 -29 17q0 8 7 29.5t18 48.5t23.5 55t24.5 49q-22 4 -42.5 18t-38.5 33.5t-32 42t-24 43.5q-12 26 -23 49t-26 40.5t-35.5 27.5t-50.5 10q-69 0 -130 -24t-107 -56.5t-73 -67t-27 -55.5q0 -47 48.5 -73t152.5 -46q49 -10 85.5 -20t61 -25
t37 -37t12.5 -56q0 -17 -4 -37.5t-11 -41.5t-15 -41t-17 -36q-50 -54 -118.5 -101.5t-145 -82.5t-156.5 -55.5t-154 -20.5q-123 0 -204.5 36.5t-130.5 95t-69 132t-20 148.5q0 54 8 106t21 100.5t29 91.5t33 79q9 21 20 29t32 8q32 0 32 -18q0 -7 -11.5 -37.5t-25 -75
t-25 -98.5t-11.5 -108q0 -90 24.5 -156.5t70.5 -110t111.5 -65t148.5 -21.5q56 0 128.5 18.5t145.5 51t139 76.5t111 94q0 9 -9 18t-30 18.5t-56.5 18.5t-87.5 18q-50 8 -92 16.5t-72.5 23.5t-47.5 38.5t-17 61.5q0 48 19 97.5t51 95.5t75 86.5t91 70.5t98 47.5t97 17.5
q43 0 74.5 -14.5t54.5 -37.5t39 -52t29 -58q20 -43 52.5 -77t78.5 -40q39 43 85.5 92.5t99 98.5t110 95t117.5 81t122.5 56t124.5 21q47 0 92.5 -21.5t81 -54t57.5 -71.5t22 -73q0 -44 -10.5 -82.5t-26.5 -70t-34.5 -55.5t-34.5 -39l4 -5q38 -2 93 -3.5t139 -1.5l-16 -123
q-45 0 -99 1t-113 6q-58 5 -101 15t-87 30q-97 -26 -195.5 -37t-195.5 -11q-75 0 -130.5 4.5t-110.5 15.5z" />
    <glyph glyph-name="uniFEC3_uniFEF0.liga" unicode="&#xfec3;&#xfef0;" horiz-adv-x="2250" 
d="M1283 291q175 6 311 24t235.5 45t163.5 60t96 69q-5 25 -26.5 57.5t-55.5 61.5t-79.5 49.5t-97.5 20.5q-59 0 -128 -31.5t-141 -85t-143 -123.5t-135 -147zM2011 315q-83 -38 -173.5 -64t-189.5 -43.5t-206.5 -28t-224.5 -16.5q-42 -2 -86.5 -4.5t-85 -5.5t-75 -5.5
t-56.5 -4.5v-4q4 -6 28 -11t57 -11.5t70 -16t68.5 -24t52 -34.5t20.5 -48q0 -45 -17 -84.5t-36 -77.5q-37 -39 -101.5 -77t-147 -68t-179 -49t-197.5 -19q-128 0 -213.5 32t-137.5 85t-74 121.5t-22 140.5q0 64 9.5 122.5t23.5 108.5t30 90.5t30 69.5q10 21 19 29t29 8
q31 0 31 -18q0 -7 -11 -37.5t-24.5 -75t-24.5 -98t-11 -105.5q0 -170 96 -253t268 -83q87 0 174 14.5t165.5 40t144 61t107.5 76.5q-2 12 -33 22.5t-76 20.5t-96.5 19.5t-96 18t-74 17.5t-29.5 17q0 26 13 52t26 55q9 20 39.5 43t93.5 36q85 17 159.5 24.5t128.5 15.5l75 94
q5 7 9 20.5t6.5 29.5t3.5 33t1 32q-3 62 -11.5 148.5t-18.5 179t-18.5 181.5t-11.5 157q-2 17 -2.5 34t0.5 31q-19 19 -25 40.5t-6 38.5q0 32 18 74.5t45 85.5l4.5 6t6.5 2q8 0 8 -8q1 -17 4.5 -30.5t12.5 -28t24.5 -31t40.5 -40.5q11 -12 14.5 -20t3.5 -17q0 -12 -5.5 -30
t-13.5 -35.5t-17.5 -31t-18.5 -17.5q3 -67 7.5 -144.5t9 -156t8.5 -154.5t5 -140q0 -32 -2.5 -67t-7.5 -62q55 56 120.5 115.5t137 109t145 81.5t144.5 32q48 0 96.5 -21.5t87.5 -55t64 -74t25 -78.5q0 -36 -12 -75t-32.5 -74t-48.5 -63.5t-61 -44.5z" />
    <glyph glyph-name="uniFEC4_uniFEF0.liga" unicode="&#xfec4;&#xfef0;" horiz-adv-x="2268" 
d="M1282 271q175 6 311 24t235.5 45t163.5 60t96 69q-5 25 -26.5 57.5t-55.5 61.5t-79.5 49.5t-97.5 20.5q-59 0 -128 -31.5t-141 -85t-143 -123.5t-135 -147zM1861 227q-137 -40 -296.5 -56t-348.5 -22q-42 -2 -86.5 -4.5t-85 -4.5t-75 -4.5t-56.5 -4.5v-4q6 -5 30.5 -10
t57 -11.5t69.5 -16t67.5 -23.5t51 -34t20.5 -47q0 -42 -17 -81.5t-36 -76.5q-37 -38 -101.5 -75t-148 -66.5t-180.5 -48t-198 -18.5q-128 0 -213 32t-136 85t-72.5 121.5t-21.5 140.5q0 65 9.5 123.5t23.5 109t30.5 90.5t30.5 69q10 20 18.5 28.5t30.5 8.5q33 0 33 -18
q0 -7 -11.5 -37.5t-25.5 -75t-25.5 -98.5t-11.5 -106q0 -170 95.5 -253t266.5 -83q86 0 173.5 14.5t166 40t144 60.5t107.5 76q-2 11 -33 22t-76 20.5t-96.5 19t-96 18t-74 17.5t-29.5 17q0 23 13 46.5t26 49.5q9 19 39.5 39.5t93.5 32.5q85 17 159.5 24.5t128.5 15.5l75 94
q5 7 9 20.5t6.5 29.5t3.5 33t1 32q-2 41 -6.5 94t-10.5 112t-13 121.5t-13 123t-10.5 116t-6.5 99.5q-2 20 -2.5 35.5t0.5 29.5q-19 19 -25 40.5t-6 38.5q0 32 18 74.5t45 85.5q6 8 11 8q8 0 8 -8q1 -17 5 -30.5t13 -28t24.5 -31.5t39.5 -40q11 -12 14.5 -20t3.5 -17
q0 -12 -5.5 -30t-13.5 -35.5t-17.5 -31t-18.5 -17.5q4 -67 9 -145t9 -157.5t7.5 -155t4.5 -137.5q0 -32 -2.5 -67t-7.5 -62q55 56 121 115.5t137 109t144.5 81t144.5 31.5q48 0 96.5 -21.5t87.5 -54.5t64 -73.5t25 -78.5q0 -78 -44 -144.5t-117 -111.5l3 -4
q51 -6 118.5 -7.5t157.5 -1.5l-14 -117q-71 0 -124 0.5t-105 5.5q-60 5 -101.5 17.5t-76.5 37.5z" />
    <glyph glyph-name="uniFECB_uniFEF0.liga" unicode="&#xfecb;&#xfef0;" horiz-adv-x="1834" 
d="M1564 896q15 -11 20.5 -22t5.5 -34q0 -29 -16 -29q-9 0 -25.5 9t-39.5 19.5t-51.5 19.5t-60.5 9q-51 0 -100.5 -13.5t-90 -35.5t-69.5 -48.5t-40 -53.5q4 -36 28.5 -76.5t61.5 -76.5t82 -64t91 -40q37 4 83.5 13.5t95.5 21.5t96 24.5t85 23.5q29 6 29 -12q0 -14 -5.5 -33
t-13 -36.5t-16 -30t-15.5 -13.5q-81 -22 -167 -46t-188 -52q-118 -33 -215.5 -61t-191.5 -56q53 -8 108.5 -22.5t100.5 -35t74 -46t29 -54.5q0 -43 -17.5 -87t-37.5 -84q-38 -41 -104.5 -82.5t-152.5 -75.5t-186.5 -55t-206.5 -21q-132 0 -220 32.5t-141.5 85.5t-75.5 121.5
t-22 139.5q0 65 9.5 123.5t23.5 108.5t30 90.5t30 69.5q10 20 19 28.5t30 8.5q33 0 33 -18q0 -7 -11.5 -37.5t-25.5 -75t-25.5 -98.5t-11.5 -106q0 -85 25.5 -148t74 -105t119 -62.5t159.5 -20.5q90 0 181 17.5t173.5 47t150.5 69.5t112 85q-3 16 -26.5 28.5t-60.5 23
t-82.5 19.5t-92.5 18t-91 18t-78 20q-9 6 -6 19q0 7 3 18.5t7.5 23.5t10 23t10.5 17q11 15 39.5 31t57.5 30q54 23 129.5 52.5t163.5 55.5q-26 17 -53 40.5t-49.5 52.5t-36.5 62.5t-14 71.5q0 69 29.5 133.5t77.5 114.5t108 80.5t122 30.5q34 0 65.5 -8t59 -20.5t50.5 -27
t40 -27.5z" />
    <glyph glyph-name="uniFECC_uniFEF0.liga" unicode="&#xfecc;&#xfef0;" horiz-adv-x="1615" 
d="M928 473q-16 0 -16 24q0 10 2.5 28t8 37.5t14.5 37t23 26.5q32 24 77.5 43t102.5 19q43 0 90 -11.5t85 -31t63 -46t25 -55.5q0 -17 -7 -39t-20.5 -45t-35 -45t-49.5 -39q21 -24 56.5 -42t80.5 -29t96.5 -16.5t105.5 -5.5l-15 -123q-71 0 -131 9t-111 28t-95 48t-83 69
q-84 -39 -147.5 -69t-121.5 -61q50 -8 102 -22.5t95 -34.5t70 -45t27 -54q0 -45 -17 -89t-37 -83q-37 -41 -102 -82.5t-149 -75.5t-182 -55t-200 -21q-129 0 -215.5 32.5t-138 86t-73 121.5t-21.5 139q0 64 9.5 122.5t23.5 108.5t30 90.5t30 69.5q10 20 19 28.5t30 8.5
q33 0 33 -18q0 -7 -11.5 -37.5t-25.5 -75t-25.5 -98t-11.5 -105.5q0 -166 95 -251.5t272 -85.5q87 0 175.5 17.5t168 47.5t146 70t109.5 85q-3 15 -25 28t-55.5 23.5t-76 19.5t-86 18t-85.5 18t-74 19q-9 6 -6 21q0 5 3 16t7.5 23.5t9.5 24t10 17.5q18 33 73 61
q22 11 53.5 27t67.5 34t76 37t80 36l-36 30t-37 27t-38 20t-38 8q-12 0 -22.5 -6.5t-24.5 -6.5z" />
    <glyph glyph-name="uniFEDB_uniFEF0.liga" unicode="&#xfedb;&#xfef0;" horiz-adv-x="1573" 
d="M1147 338q-7 -13 -19.5 -25t-27.5 -21.5t-31 -17t-29 -11.5q60 -17 107.5 -34.5t82.5 -44.5q32 -32 32 -76q0 -10 -1.5 -25.5t-3.5 -26.5q-8 -32 -20 -63t-26 -61q-58 -60 -132.5 -113t-161 -92.5t-183.5 -63t-200 -23.5q-88 0 -155 16.5t-117 45t-84 67.5t-54.5 83.5
t-29.5 92.5t-9 96q0 57 8 110.5t21.5 101.5t30 91t33.5 79q10 21 18.5 29t30.5 8q15 0 24 -4t9 -14q0 -7 -11.5 -37.5t-26 -75t-26 -98t-11.5 -105.5q0 -88 27 -153.5t76.5 -109t119 -65t155.5 -21.5q90 0 183.5 23t178.5 61t155.5 87.5t114.5 103.5q-10 24 -44 44.5
t-87.5 37t-124 28t-152.5 17.5q-11 0 -11 11q0 6 4.5 21t17.5 44q12 28 20 39t16 13q90 14 165 44t120 76q-7 53 -32 105.5t-63.5 104t-87.5 102.5t-105 101l-9 -32q-9 -35 -38 -15q-38 24 -69.5 49t-52.5 61q-11 18 -15 43.5t-4 48.5q0 37 15.5 86t41.5 98q9 17 55.5 47.5
t118.5 69t164.5 81.5t194.5 86q86 37 162 70.5t159 68.5q7 2 13 0t6 -9q0 -8 -3.5 -19.5t-12.5 -29.5q-28 -56 -45 -64q-97 -43 -200.5 -89t-205.5 -93.5t-197 -94.5t-176 -93q40 -35 86 -77t92 -89t90.5 -97.5t81.5 -102.5q45 -60 72.5 -127t27.5 -127q0 -48 -9 -81
t-27 -71z" />
    <glyph glyph-name="uniFEDC_uniFEF0.liga" unicode="&#xfedc;&#xfef0;" horiz-adv-x="1602" 
d="M1185 341q-11 -19 -28.5 -36t-37.5 -31t-40.5 -24.5t-37.5 -16.5q60 -17 105 -33t80 -42q15 -16 23.5 -35t8.5 -40q0 -10 -1.5 -24.5t-3.5 -25.5q-16 -63 -45 -119q-58 -58 -132.5 -109.5t-160.5 -90.5t-182.5 -61.5t-198.5 -22.5q-131 0 -217.5 35.5t-138 93t-72.5 129
t-21 143.5q0 59 8 113.5t21.5 103.5t30 92t33.5 79q10 20 18.5 28t30.5 8q33 0 33 -17q0 -7 -11.5 -37.5t-25.5 -75.5t-25.5 -98.5t-11.5 -106.5q0 -87 27 -153.5t76 -111t118.5 -67t155.5 -22.5q89 0 182 22t177 58.5t154.5 84t114.5 98.5q-10 22 -44.5 42.5t-88 36.5
t-124 27t-153.5 15q-6 0 -9.5 3.5t-3.5 7.5q1 6 6 22t16 41q11 28 20 40.5t17 13.5q48 6 96 18t91.5 31t79 44t57.5 57q-7 53 -33 103.5t-66.5 101.5t-94 103t-116.5 108q-35 33 -73 65t-80 64q-8 8 -18.5 21t-10.5 34q0 28 15 68t41 86q9 17 57 47.5t122.5 68.5t169 81.5
t197.5 86.5q88 35 170.5 70t170.5 71q6 2 12 0.5t6 -9.5t-3 -18.5t-13 -30.5q-14 -29 -24 -45t-21 -21q-104 -44 -213 -90.5t-215 -94t-204 -95.5t-180 -94q39 -29 81 -64.5t85 -74.5t85.5 -81t81.5 -83q72 -77 129.5 -147t108.5 -148q46 -70 83 -114t72 -69t70 -34.5
t76 -9.5l-14 -124q-70 0 -120 15t-91 49t-80.5 90t-88.5 138l-11 -4q-2 -26 -10 -53.5t-19 -53.5z" />
    <glyph glyph-name="uniFEDF_uniFEF0.liga" unicode="&#xfedf;&#xfef0;" horiz-adv-x="1362" 
d="M1146 325q-17 -21 -47 -37.5t-58 -24.5q60 -17 107 -34.5t82 -44.5q32 -32 32 -76q0 -45 -15 -87.5t-36 -88.5q-58 -60 -132.5 -113t-161 -92.5t-183.5 -63t-200 -23.5q-88 0 -155 16.5t-117 45t-84 67.5t-54.5 83.5t-29.5 92.5t-9 96q0 59 8 113.5t21.5 103.5t30 92
t33.5 79q10 20 18.5 28.5t31.5 8.5q14 0 23 -4t9 -14q0 -7 -11.5 -37.5t-26 -75t-26 -98.5t-11.5 -106q0 -87 27 -153.5t76.5 -111t119 -67t155.5 -22.5q90 0 183.5 23t178.5 61t155.5 87.5t114.5 103.5q-10 23 -45 44t-89 38t-124 28.5t-149 16.5q-11 0 -11 11q0 14 21 65
q12 28 20.5 39t15.5 13q87 14 159.5 38t114.5 69q0 21 -1.5 41.5t-2.5 41.5q-6 70 -14.5 155.5t-17.5 174t-16.5 173.5t-11.5 153q0 11 -1.5 26t-0.5 29q-17 15 -23.5 39t-6.5 41q0 37 18.5 77.5t44.5 82.5q4 7 11 7q3 0 6 -1.5t3 -5.5q0 -18 3.5 -31.5t12.5 -27.5t25 -31
t40 -41q12 -11 15 -19.5t3 -17.5q0 -12 -5.5 -29.5t-13.5 -34.5t-17.5 -31t-17.5 -18q5 -81 11.5 -175t13.5 -184t12 -169t7 -131q0 -25 -4 -54.5t-9.5 -56.5t-12 -47t-12.5 -25z" />
    <glyph glyph-name="uniFEE0_uniFEF0.liga" unicode="&#xfee0;&#xfef0;" horiz-adv-x="1525" 
d="M1524 160q-48 0 -91.5 19t-79 58t-61.5 98t-40 139h-11q-16 -46 -37 -82t-47 -59q-29 -26 -68.5 -49.5t-75.5 -37.5q55 -15 100.5 -29t78.5 -31t51.5 -40.5t18.5 -56.5q0 -22 -4 -47t-10.5 -48.5t-16 -43.5t-20.5 -31q-58 -58 -132.5 -109.5t-161.5 -90t-184 -61
t-199 -22.5q-114 0 -194.5 27.5t-133 73.5t-80 105t-36.5 122q-3 18 -4 36t-1 36q0 57 8 111.5t21.5 104t30 93.5t33.5 80q10 21 18.5 28.5t30.5 7.5q19 0 26 -3.5t7 -13.5q0 -12 -11.5 -42t-26 -72.5t-26 -94.5t-11.5 -108q0 -49 9 -92q26 -129 121.5 -196t247.5 -67
q90 0 183.5 22t178.5 58t155.5 83.5t114.5 98.5q-6 14 -19 25.5t-31 21.5t-40 18t-45 14q-51 13 -118 26.5t-161 20.5q-12 0 -12 11q0 8 5 24t16 39q12 28 20 37.5t16 11.5q24 6 44 12t38 13t35 15t36 16q28 12 59 28t60.5 39t55.5 54t44 73q4 8 7 18.5t6 22.5q8 36 12 83
t4 94q0 11 -2.5 50t-5.5 91.5t-7.5 112t-7.5 113t-5.5 94.5t-2.5 55q0 11 3.5 27t8.5 35t12 38t15 34.5t15.5 25t14.5 9.5q5 0 8 -4t3 -9q10 -212 27 -416t31 -399q4 -65 17 -124t38 -103.5t62 -71t88 -26.5z" />
    <glyph glyph-name="uniFEE3_uniFEF0.liga" unicode="&#xfee3;&#xfef0;" horiz-adv-x="1514" 
d="M1151 719q36 4 85 -8.5t93 -35t74.5 -51.5t30.5 -57q0 -26 -8.5 -55.5t-21.5 -56t-28.5 -46.5t-28.5 -26q-20 -8 -49.5 -16.5t-63.5 -18.5t-70.5 -20.5t-70.5 -22.5q-79 -30 -133 -55.5t-87 -41.5q25 -7 60.5 -16t74 -20t76.5 -24.5t68 -29.5t49 -34.5t19 -40.5
q0 -43 -17 -87.5t-37 -83.5q-37 -41 -102 -83t-149 -75.5t-181.5 -55t-200.5 -21.5q-128 0 -214 32t-138 85t-74 121.5t-22 141.5q0 64 9.5 122.5t23.5 108.5t30 90.5t30 69.5q10 21 19 29t30 8q33 0 33 -18q0 -7 -11.5 -37.5t-25.5 -75t-25.5 -98t-11.5 -105.5
q0 -85 25 -148t72 -105t115 -63t155 -21t175.5 17.5t168 47.5t146 70t109.5 85q-3 14 -24 26.5t-53 24t-72 21t-81.5 18t-81.5 14.5t-72 10q-24 7 -24 33q0 8 5.5 23.5t13.5 32t16.5 32t14.5 23.5q11 15 27.5 29t35.5 27t39.5 24.5t39.5 21.5q42 21 78.5 37.5t75.5 32.5
q-24 26 -41.5 54t-17.5 61q0 26 9.5 56.5t26 57.5t38.5 45.5t46 20.5z" />
    <glyph glyph-name="uniFEE4_uniFEF0.liga" unicode="&#xfee4;&#xfef0;" horiz-adv-x="1827" 
d="M1827 160q-37 0 -65.5 5.5t-52 18t-44.5 31.5t-43 46q-9 -25 -21 -48t-25.5 -40t-28.5 -27.5t-30 -10.5q-44 0 -87.5 14.5t-85.5 39t-81.5 56.5t-75.5 66q-17 -34 -41.5 -58t-53 -40.5t-60 -25.5t-61.5 -12q45 -7 89.5 -20.5t80 -32.5t57.5 -42.5t22 -51.5q0 -45 -17 -89
t-37 -83q-37 -41 -102 -82.5t-149 -75.5t-182 -55t-200 -21q-128 0 -214 32t-138 85t-74 121t-22 141q0 64 9.5 122.5t23.5 108.5t30 90.5t30 69.5q10 20 19 28.5t30 8.5q33 0 33 -18q0 -7 -11.5 -37.5t-25.5 -75t-25.5 -98t-11.5 -105.5q0 -85 25 -148t72 -105t115 -63
t155 -21t175.5 17.5t168 47.5t146 70t109.5 85q-3 14 -22.5 26.5t-50.5 23t-70 20t-81 17.5t-84.5 15.5t-79.5 14.5q-20 5 -20 27q0 7 3 22.5t12 32.5t24.5 31.5t39.5 20.5q37 12 94 25.5t120 36.5q29 12 58.5 32.5t47.5 58.5q16 32 31 65t32 68q35 85 85.5 132t108.5 47
q40 0 71 -23.5t59 -63t57 -91.5t66 -108q18 -36 36 -60.5t40 -38.5t49 -20t63 -6zM1495 278q16 0 29.5 18.5t13.5 47.5q-5 34 -19 73t-34.5 74t-47 61.5t-56.5 35.5q-26 0 -47 -14.5t-38.5 -37t-30.5 -51t-22 -56.5q26 -30 59.5 -56.5t68 -47t67.5 -33t57 -14.5z" />
    <glyph glyph-name="uniFEEB_uniFEF0.liga" unicode="&#xfeeb;&#xfef0;" horiz-adv-x="1877" 
d="M1162 320q-19 13 -37.5 30t-32.5 38t-23 46t-9 54q0 43 15.5 88.5t42.5 88t63.5 78.5t78.5 61v4q-26 5 -40.5 8.5t-28.5 8.5q-11 5 -11 19q0 16 10.5 46.5t22.5 57.5q8 20 17.5 28t23.5 8q7 0 19 -5t26.5 -12.5t29.5 -16.5t28 -17q86 -56 165 -119t139 -131.5
t95.5 -141.5t35.5 -147q0 -36 -14.5 -70.5t-35.5 -64t-45.5 -51.5t-44.5 -32q-38 0 -85.5 6.5t-98 19t-100 29.5t-89.5 38q-37 -17 -70.5 -32t-66.5 -28.5t-67 -25t-70 -20.5q34 -7 72 -19t69.5 -29t52 -39t20.5 -48q0 -45 -16.5 -89t-36.5 -83q-37 -41 -102 -82.5
t-149 -75.5t-182 -55t-200 -21q-128 0 -214 32t-138 85t-74 121t-22 141q0 64 9.5 122.5t23.5 108.5t30 90.5t30 69.5q10 20 19 28.5t30 8.5q33 0 33 -18q0 -7 -11.5 -37.5t-25.5 -75t-25.5 -98t-11.5 -105.5q0 -85 25 -148t72 -105t115 -63t155 -21t175.5 17.5t168 47.5
t146 70t109.5 85q-5 21 -44.5 39.5t-97 34t-123.5 28t-124 21.5q-19 4 -19 27q0 6 2.5 15.5t5.5 19.5t6.5 18t6.5 13q5 12 11 18.5t17 8.5q40 6 85.5 15t93.5 21t96.5 27.5t93.5 35.5zM1323 739q-21 0 -49 -11t-55.5 -33t-52 -55.5t-39.5 -79.5q1 -30 13.5 -56.5t34 -48
t50.5 -39.5t64 -31q48 29 89.5 60.5t66.5 79.5q-2 47 -12.5 86.5t-27 68t-38 44t-44.5 15.5zM1730 339q0 25 -13.5 61.5t-40.5 79t-68.5 88.5t-96.5 90l-6 -3q2 -16 4 -34.5t2 -34.5q0 -29 -8.5 -60.5t-24 -62t-37 -60t-48.5 -53.5q19 -6 43.5 -13t50 -13.5t51.5 -11
t49 -5.5q36 -5 74 0.5t69 31.5z" />
    <glyph glyph-name="uniFEEC_uniFEF0.liga" unicode="&#xfeec;&#xfef0;" horiz-adv-x="1894" 
d="M1162 490q-19 12 -37.5 29t-32.5 38t-23 45.5t-9 52.5q0 42 15.5 85.5t43 84.5t64.5 76.5t80 61.5v4q-24 5 -38 8t-28 8q-11 3 -11 17t10 42.5t23 56.5q8 20 17.5 28.5t23.5 8.5q7 0 19 -5t26 -12.5t28.5 -17t27.5 -17.5q85 -54 163 -115.5t137.5 -128t95 -137.5
t35.5 -143q0 -28 -9.5 -55t-24.5 -51t-33.5 -45t-36.5 -36q6 -44 62 -67t157 -23l-13 -123q-35 0 -72 3t-69 14q-52 17 -83 42.5t-42 75.5q-2 11 -3.5 27.5t-1.5 27.5q-18 0 -56.5 5.5t-87.5 16.5t-101.5 27.5t-98.5 39.5q-37 -17 -70.5 -32t-66.5 -28.5t-67 -24.5t-70 -20
q34 -7 72 -19.5t69.5 -29.5t52 -39t20.5 -48q0 -43 -16.5 -87.5t-36.5 -83.5q-37 -41 -102 -83t-149 -75.5t-181.5 -55t-200.5 -21.5q-128 0 -214 32t-138 85t-74 121.5t-22 141.5q0 64 9.5 122.5t23.5 108.5t30 90.5t30 69.5q10 20 19 28t30 8q33 0 33 -17
q0 -7 -11.5 -37.5t-25.5 -75t-25.5 -98.5t-11.5 -106q0 -85 25 -148t72 -105t115 -62.5t155 -20.5t175.5 17.5t168.5 47.5t146 69.5t109 84.5q-4 24 -43 42.5t-96 33t-124 26.5t-126 22q-19 4 -19 26q0 14 7.5 35.5t13.5 31.5q5 12 11 18t17 8q39 6 84.5 15t93.5 21.5t97 28
t94 34.5zM1324 891q-22 0 -50 -10.5t-55.5 -31.5t-52 -53t-39.5 -74q1 -28 13.5 -53t34 -46t50.5 -38t64 -29q49 26 90.5 57t66.5 76q-2 45 -12.5 82t-27 63.5t-38 41.5t-44.5 15zM1730 509q0 25 -13 61.5t-39.5 77.5t-66.5 85.5t-94 86.5l-6 -2q2 -14 4 -33t2 -33
q0 -28 -8.5 -58.5t-25 -61t-39.5 -59t-51 -51.5q21 -7 47.5 -15.5t55 -15.5t56.5 -11.5t52 -4.5q37 0 67 5t59 29z" />
    <glyph glyph-name="uniFBAC_uniFEF0.liga" unicode="&#xfbac;&#xfef0;" horiz-adv-x="1877" 
d="M1162 320q-19 13 -37.5 31t-32.5 40t-23 48t-9 56q0 45 11.5 87t29.5 79.5t40.5 70t45.5 57.5q50 56 99 76.5t85 20.5q39 0 66 -24t47 -55q19 0 38.5 -5t41.5 -18.5t48 -37.5t58 -61q58 -67 90 -139t32 -146q0 -30 -10 -59.5t-26 -56t-35 -48.5t-38 -38q-8 -7 -25.5 -13
t-35.5 -6q-31 0 -73.5 6t-89 18t-93.5 28.5t-87 37.5q-37 -17 -70.5 -32t-66.5 -28.5t-67 -25t-70 -20.5q34 -7 72 -19t69.5 -29t52 -39t20.5 -48q0 -45 -16.5 -89t-36.5 -83q-37 -41 -102 -82.5t-149 -75.5t-182 -55t-200 -21q-128 0 -214 32t-138 85t-74 121t-22 141
q0 64 9.5 122.5t23.5 108.5t30 90.5t30 69.5q10 20 19 28.5t30 8.5q33 0 33 -18q0 -7 -11.5 -37.5t-25.5 -75t-25.5 -98t-11.5 -105.5q0 -85 25 -148t72 -105t115 -63t155 -21t175.5 17.5t168 47.5t146 70t109.5 85q-5 21 -44.5 39.5t-97 34t-123.5 28t-124 21.5
q-19 4 -19 27q0 6 2.5 15.5t5.5 19.5t6.5 18t6.5 13q5 12 11 18.5t17 8.5q40 6 85.5 15t93.5 21t96.5 27.5t93.5 35.5zM1323 745q-21 0 -49 -11t-55.5 -33.5t-52 -57t-39.5 -80.5q1 -31 13.5 -57.5t34 -48.5t50.5 -40t64 -32q48 29 89.5 61.5t66.5 80.5q-2 48 -12.5 88.5
t-27 69t-38 44.5t-44.5 16zM1730 339q0 27 -17 72t-46 93.5t-67.5 93t-81.5 70.5l-6 -3q2 -17 3.5 -31t1.5 -31q0 -71 -33.5 -135.5t-90.5 -117.5q19 -6 43.5 -13t50 -13.5t51.5 -11t49 -5.5q36 -5 74 0.5t69 31.5z" />
    <glyph glyph-name="uniFBAD_uniFEF0.liga" unicode="&#xfbad;&#xfef0;" horiz-adv-x="1999" 
d="M1331 126l5 41q-29 -3 -65 -6t-76.5 -6.5t-83 -6t-82.5 -3.5q33 -8 67 -19.5t61.5 -26.5t44.5 -32.5t17 -38.5q0 -22 -4.5 -47.5t-11.5 -49.5t-17 -44t-20 -31q-37 -41 -102.5 -82.5t-149.5 -75.5t-181.5 -55t-199.5 -21q-128 0 -214 32t-138 85t-74 121.5t-22 141.5
q0 64 9.5 122.5t23.5 108.5t30 90t30 69q10 20 19 28.5t30 8.5q33 0 33 -18q0 -7 -11.5 -37.5t-25.5 -75t-25.5 -98t-11.5 -105.5q0 -85 25 -148t72 -105t115 -63t155 -21q88 0 176.5 17.5t168 47.5t145.5 69.5t109 84.5q-3 12 -22.5 24.5t-50 24.5t-69.5 23t-81.5 21
t-86 18.5t-82.5 15.5q-17 3 -17 22q0 13 6.5 30.5t14.5 37.5q5 12 10.5 19.5t14.5 8.5q66 7 142.5 15t154.5 17t153 18.5t139 19.5q13 66 43.5 144.5t71.5 156t88 146t93 114.5q10 7 18 7t20 -15t26 -40.5t28 -58.5t25 -68q8 -42 10.5 -80.5t-2.5 -74.5q-4 -32 -16.5 -66.5
t-30 -68t-38.5 -64.5t-42 -55q39 3 82 5.5t87 4.5t87.5 3t84.5 1l-14 -123q-49 0 -108.5 -1t-114.5 -3q24 -15 43.5 -36.5t34 -45.5t22 -49.5t7.5 -47.5q0 -54 -15 -100t-41 -80.5t-60.5 -54t-73.5 -19.5q-83 0 -143 35.5t-100 93t-62 129t-29 143.5q-8 0 -15 0.5t-13 1.5z
M1653 702q-5 0 -9 -3q-30 -28 -63 -76t-63 -104t-53.5 -115t-34.5 -109q144 24 219 65t89 104q-1 38 -12.5 80t-26 77t-28 58t-18.5 23zM1821 -65q-8 49 -45 85t-92 60.5t-122.5 37.5t-136.5 16q14 -56 41 -107t65 -89.5t86.5 -61t107.5 -22.5q19 0 36 7t29.5 18.5t20.5 26
t10 29.5z" />
    <glyph glyph-name="uniFBA9_uniFEF0.liga" unicode="&#xfba9;&#xfef0;" horiz-adv-x="1881" 
d="M1895 283l-14 -123h-52q-28 0 -61 -7t-61 -21.5t-47 -37t-19 -53.5q0 -33 4.5 -61t13.5 -53t22 -50t29 -52q5 -10 2 -27t-19 -46t-31.5 -44t-23.5 -15q-9 0 -14.5 2t-11.5 6q-59 31 -101.5 76t-69.5 97.5t-40 108t-13 106.5q0 79 -11.5 145t-37.5 114t-69.5 75t-107.5 27
q-80 0 -152.5 -20.5t-127.5 -49t-87 -58t-32 -47.5q0 -21 13 -35.5t39 -25t65.5 -19t92.5 -17.5q102 -18 152.5 -51t50.5 -98q0 -21 -5 -45.5t-13.5 -48t-19 -43t-21.5 -30.5q-50 -53 -114 -97t-139 -75.5t-159.5 -49t-174.5 -17.5q-129 0 -214.5 36.5t-137 95.5
t-72.5 132.5t-21 148.5q0 52 8 104t21.5 100.5t30 91.5t33.5 79q8 17 17.5 27t31.5 10q15 0 24 -4.5t9 -12.5q0 -7 -11.5 -37.5t-26 -75.5t-26 -99t-11.5 -107q0 -91 27 -157.5t76.5 -110t119.5 -64.5t157 -21q71 0 149.5 19t152.5 52t138 78t106 98q0 10 -9 20t-30.5 19.5
t-57.5 18.5t-90 18q-52 9 -95.5 17t-75 22.5t-49 37t-17.5 60.5q0 41 21.5 84t58.5 82.5t86.5 74.5t104.5 61t112.5 41t111.5 15q85 0 138 -34t82.5 -92.5t40 -137.5t10.5 -169q0 -54 15.5 -100t38.5 -82t49 -60.5t47 -34.5l4 5q-6 21 -15 65.5t-9 102.5q0 59 20.5 104.5
t55.5 76t81.5 46.5t98.5 16h56z" />
    <glyph glyph-name="uniFEA3_uniFBAF.liga" unicode="&#xfea3;&#xfbaf;" horiz-adv-x="1691" 
d="M363 521q-5 0 -8 4t-3 18q0 20 6 31q19 28 39.5 51.5t45.5 40t55.5 25.5t69.5 9q75 0 153.5 -27t165.5 -63q69 -29 130 -52t118 -39t111.5 -24.5t108.5 -8.5q12 0 12 -10q0 -5 -3.5 -17.5t-14.5 -32.5q-30 -59 -46 -59q-26 0 -60 8t-69 8q-29 0 -78.5 -8.5t-110 -22.5
t-127 -32t-127.5 -37q-117 -36 -218.5 -75t-177.5 -75t-119.5 -66t-43.5 -48q0 -29 29.5 -52t81 -40t121.5 -26t151 -9h652q85 0 181 -5.5t181 -11.5q17 -2 27 -9t10 -30q0 -62 -33 -62h-1071q-91 0 -167.5 11.5t-132 32.5t-86.5 50t-31 65q0 29 13 65.5t34 72.5t47.5 67.5
t53.5 50.5q28 19 69.5 39.5t90 41t101 39.5t102.5 35q81 26 172 50.5t200 45.5v5q-55 16 -108.5 38t-107 42.5t-108 34.5t-111.5 14q-46 0 -74 -8.5t-45.5 -18t-28 -18t-22.5 -8.5z" />
    <glyph glyph-name="uniFEA4_uniFBAF.liga" unicode="&#xfea4;&#xfbaf;" horiz-adv-x="1661" 
d="M1242 443q-93 -13 -201.5 -42.5t-220.5 -64.5q-135 -42 -253.5 -88.5t-206 -90t-138 -80t-50.5 -58.5q0 -29 29.5 -52t81 -40t121.5 -26t151 -9h587q42 0 88.5 -1.5t94.5 -4t95 -5.5t89 -6q17 -2 24.5 -9t7.5 -30q0 -62 -33 -62h-1006q-91 0 -167.5 11.5t-132 32.5
t-86.5 50t-31 65q0 29 13 65.5t33.5 72.5t47 67.5t53.5 51.5q34 24 85.5 50t111.5 51.5t124.5 49.5t124.5 44q100 33 211.5 63t244.5 56v5q-55 15 -108.5 35.5t-107 38.5t-108 31t-111.5 13q-46 0 -74 -8.5t-45.5 -18t-28 -18t-22.5 -8.5q-5 0 -8 4t-3 18q0 20 6 31
q19 28 39.5 51.5t45.5 40t55.5 25.5t69.5 9q75 0 153 -25t166 -59q69 -27 130 -48t118 -35.5t111.5 -22.5t108.5 -8q12 0 12 -10q0 -6 -3 -17.5t-12 -31.5q-27 -61 -46 -61q-27 0 -63 8t-73 8q-10 0 -20 -0.5t-21 -1.5q3 -48 35 -79.5t84 -51t119.5 -27.5t141.5 -8l-14 -123
q-52 0 -105.5 3t-104.5 13q-41 8 -79 22t-68 36.5t-48 55.5t-18 80q0 19 2.5 38t4.5 33z" />
    <glyph glyph-name="uniFEB3_uniFBAF.liga" unicode="&#xfeb3;&#xfbaf;" horiz-adv-x="1731" 
d="M1293 603q2 7 9 11t29 4q17 0 23 -3t6 -11q0 -11 -3.5 -29t-8.5 -38t-11 -40.5t-11 -35.5q6 -25 29 -49.5t52.5 -44t61 -31.5t54.5 -12q28 0 39.5 25t11.5 67q0 30 -6.5 55.5t-14 44.5t-13.5 31t-6 16q0 8 4 25t19 43q27 46 35 46t12 -10q7 -15 14.5 -36t13.5 -45.5
t10 -50.5t4 -51q0 -35 -10 -83.5t-29.5 -92t-48.5 -74t-67 -30.5q-29 0 -64.5 14.5t-68.5 35t-58 43.5t-33 40q-22 -39 -53 -68.5t-67 -48.5t-75 -28.5t-78 -9.5q-76 0 -121.5 34t-74.5 115q-6 18 -11.5 37t-11.5 34.5t-13 25.5t-17 10t-31.5 -25.5t-48 -60t-54 -69.5
t-49.5 -55q-21 -19 -58 -38.5t-80.5 -38t-88 -37t-81 -35t-59.5 -32t-23 -28.5q0 -22 17.5 -40t47 -32t68.5 -24.5t81.5 -17t86 -10t82.5 -3.5h685q34 0 80 -1.5t95.5 -4t99.5 -5.5t92 -6q17 -2 24.5 -16t7.5 -23q0 -62 -32 -62h-1105q-73 0 -147 9.5t-134 29t-98 49.5
t-38 71q0 25 11 56.5t30 63.5t45 62t56 52q27 19 70.5 41t91.5 45.5t95 49t81 51.5q10 7 26.5 27.5t36.5 46.5t41.5 54t42 51.5t38 39t30.5 15.5q20 0 32.5 -14.5t22 -37.5t19.5 -52.5t25 -60.5q17 -35 35 -56.5t37 -34.5t38 -17.5t39 -4.5q58 0 101 22t74.5 61t53 92.5
t36.5 117.5z" />
    <glyph glyph-name="uniFEB4_uniFBAF.liga" unicode="&#xfeb4;&#xfbaf;" horiz-adv-x="1840" 
d="M1271 299q-42 -54 -108 -89t-163 -35q-48 0 -81 11t-57 31.5t-40 49.5t-29 64q-8 20 -13 39.5t-9.5 34.5t-10 24t-15.5 9t-31.5 -25t-47.5 -59.5t-54 -70t-50 -55.5q-21 -19 -58 -38.5t-80.5 -38t-88 -37t-81 -35t-59.5 -32t-23 -28.5q0 -22 17.5 -40t47 -32t68.5 -24.5
t81.5 -17t86 -10t82.5 -3.5h684q34 0 81 -1.5t97 -4t99.5 -5.5t89.5 -6q17 -2 24.5 -13t7.5 -26q0 -62 -32 -62h-1104q-73 0 -147 9.5t-134 29t-98 49.5t-38 71q0 26 11 57.5t30 63.5t45 61.5t56 51.5q27 19 71.5 42t93.5 47t95.5 49t77.5 49q10 7 26.5 27.5t36.5 46.5
t41.5 54t42 51.5t38 39t30.5 15.5q22 0 35.5 -15.5t23.5 -40.5t19 -55t23 -59q12 -27 25.5 -48.5t30.5 -36.5t40 -23t54 -8q65 0 109 18.5t74 52.5t50 80.5t37 102.5q2 7 9 11t29 4q17 0 23.5 -3t6.5 -11q0 -11 -3 -27t-7.5 -34t-10 -36t-9.5 -33q6 -26 20.5 -52t33 -46
t38.5 -32.5t37 -12.5q27 0 48 32t36 86q11 38 18.5 78.5t11.5 66.5q1 8 9.5 18t30.5 22q18 10 25.5 11.5t10.5 -3.5q4 -4 3 -13q-2 -23 -8.5 -60.5t-13.5 -73.5q14 -38 32 -68t43.5 -52t60 -33.5t80.5 -11.5l-15 -123q-35 0 -68.5 5t-64 20t-56.5 43t-46 74h-4
q-26 -69 -59 -112.5t-78 -43.5q-30 0 -57.5 14t-52 35.5t-45.5 49t-38 54.5z" />
    <glyph glyph-name="uniFEBB_uniFBAF.liga" unicode="&#xfebb;&#xfbaf;" horiz-adv-x="2039" 
d="M1007 177q-10 -15 -20 -34t-20 -39.5t-19 -41.5t-16 -40q-6 -14 -13 -19t-24 -5q-30 0 -30 17q0 8 7 29.5t18.5 48.5t24.5 55t25 49q-23 4 -44.5 15.5t-39.5 28t-32 36.5t-21 41q-9 26 -15.5 48t-12.5 38t-13 25t-17 9t-31.5 -25t-48 -59.5t-54 -69.5t-49.5 -56
q-21 -19 -58 -38.5t-80.5 -38.5t-88 -37t-81 -35t-59.5 -32t-23 -28q0 -22 17.5 -40t47 -32t68.5 -24.5t81.5 -17t86 -10t82.5 -3.5h685q34 0 80 -1.5t95.5 -4t99.5 -5.5t92 -6q17 -2 24.5 -13.5t7.5 -25.5q0 -30 -6 -46t-26 -16h-1105q-73 0 -147 9.5t-134 29t-98 49.5
t-38 71q0 25 11 57t30.5 64.5t45.5 62t55 50.5q27 19 70.5 41t91.5 45.5t95 49t81 51.5q10 7 26.5 27.5t36.5 46.5t41.5 54t42 51.5t38 39t30.5 15.5q22 0 35 -14.5t22.5 -37.5t18.5 -52t23 -57q21 -45 54 -78t81 -39q40 43 88 92.5t102 98.5t113 95t121 81t126.5 56
t128.5 21q48 0 95 -21.5t84 -54t59.5 -71.5t22.5 -74q0 -45 -11 -84.5t-27.5 -72t-36 -57.5t-36.5 -41q-57 -32 -127 -55t-146.5 -38t-156.5 -22.5t-157 -7.5t-134.5 4.5t-114.5 17.5zM1096 292q17 -2 35 -4t38 -3q48 -3 93.5 -2t96.5 3q76 4 150.5 14t141.5 25.5
t123.5 37.5t95.5 49l-7 39q-9 38 -31.5 72t-54.5 59t-71 39.5t-80 14.5q-48 0 -111.5 -25t-133.5 -70.5t-143.5 -109t-141.5 -139.5z" />
    <glyph glyph-name="uniFEBC_uniFBAF.liga" unicode="&#xfebc;&#xfbaf;" horiz-adv-x="2072" 
d="M1007 177q-10 -15 -20 -34t-20 -39.5t-19 -41.5t-16 -40q-6 -14 -13 -19t-24 -5q-30 0 -30 17q0 8 7 29.5t18.5 48.5t24.5 55t25 49q-23 4 -44.5 15.5t-39.5 28t-32 36.5t-21 41q-9 26 -15.5 48t-12.5 38t-13 25t-17 9t-31.5 -25t-48 -59.5t-54 -69.5t-49.5 -56
q-21 -19 -58 -38.5t-80.5 -38.5t-88 -37t-81 -35t-59.5 -32t-23 -28q0 -22 17.5 -40t47 -32t68.5 -24.5t81.5 -17t86 -10t82.5 -3.5h685q34 0 80 -1.5t95.5 -4t99.5 -5.5t92 -6q17 -2 24.5 -13.5t7.5 -25.5q0 -30 -6 -46t-26 -16h-1105q-73 0 -147 9.5t-134 29t-98 49.5
t-38 71q0 25 11 57t30.5 64.5t45.5 62t55 50.5q27 19 70.5 41t91.5 45.5t95 49t81 51.5q10 7 26.5 27.5t36.5 46.5t41.5 54t42 51.5t38 39t30.5 15.5q22 0 35 -14.5t22.5 -37.5t18.5 -52t23 -57q21 -45 54 -78t81 -39q40 43 88 92.5t102 98.5t113 95t121 81t126.5 56
t128.5 21q48 0 95 -21.5t84 -54t59.5 -71.5t22.5 -74q0 -40 -9.5 -76t-24 -67t-32 -56.5t-33.5 -43.5l3 -4q32 -2 87.5 -2.5t140.5 -0.5l-14 -123q-23 0 -51 0.5t-57.5 1.5t-60 2.5t-57.5 3.5q-54 5 -96.5 14t-80.5 26q-97 -27 -203.5 -40t-209.5 -13q-77 0 -134.5 4.5
t-114.5 17.5zM1096 292q17 -2 35 -4t38 -3q48 -3 93.5 -2t96.5 3q76 4 150.5 14t141.5 25.5t123.5 37.5t95.5 49l-7 39q-9 38 -31.5 72t-54.5 59t-71 39.5t-80 14.5q-48 0 -111.5 -25t-133.5 -70.5t-143.5 -109t-141.5 -139.5z" />
    <glyph glyph-name="uniFEC3_uniFBAF.liga" unicode="&#xfec3;&#xfbaf;" horiz-adv-x="1731" 
d="M648 311q175 6 311 24t235.5 45t163.5 60t96 69q-5 25 -26.5 57.5t-55.5 61.5t-79.5 49.5t-97.5 20.5q-59 0 -128 -31.5t-141 -85t-143 -123.5t-135 -147zM1376 335q-83 -38 -174 -64t-190 -43.5t-207 -28t-225 -16.5q-90 -13 -165 -33t-129 -42.5t-84 -46t-30 -42.5
q0 -29 29.5 -52t81 -40t121.5 -26t151 -9h695q42 0 88 -1.5t93.5 -4t94 -5.5t88.5 -6q17 -2 24.5 -13.5t7.5 -25.5q0 -30 -7.5 -46t-25.5 -16h-1111q-91 0 -167.5 11.5t-132 32.5t-86.5 50t-31 65q0 29 10.5 64t30 70t47 67t60.5 55q54 43 135.5 74t192.5 46l75 94
q5 7 9 20.5t6.5 29.5t3.5 33t1 32q-2 39 -6.5 89t-10.5 106t-12 115t-12 116t-10.5 109.5t-6.5 95.5q-2 17 -2.5 34t0.5 31q-19 19 -25 40.5t-6 38.5q0 33 18 75.5t45 85.5l4.5 6t6.5 2q8 0 8 -8q1 -17 4.5 -30.5t12.5 -27.5t24.5 -31t40.5 -41q11 -12 14.5 -20t3.5 -17
q0 -12 -5.5 -30t-13.5 -35.5t-17.5 -31t-18.5 -17.5q3 -63 7.5 -136t8.5 -147.5t7.5 -146t4.5 -131.5q0 -32 -2.5 -67t-7.5 -62q55 55 120.5 115t137 109.5t145 81.5t144.5 32q48 0 96.5 -21.5t87.5 -55t64 -74t25 -78.5q0 -36 -12 -75t-32.5 -74t-48.5 -63.5t-61 -44.5z
" />
    <glyph glyph-name="uniFEC4_uniFBAF.liga" unicode="&#xfec4;&#xfbaf;" horiz-adv-x="1646" 
d="M649 271q175 6 311 24t235.5 45t163.5 60t96 69q-5 25 -26.5 57.5t-55.5 61.5t-79.5 49.5t-97.5 20.5q-59 0 -128 -31.5t-141 -85t-143 -123.5t-135 -147zM1372 293q-5 -2 23 -3.5t72 -3t96.5 -2.5t96.5 -1l-14 -123q-32 0 -70 0.5t-77 2t-74.5 4.5t-61.5 7
q-32 5 -66.5 17t-69.5 41q-140 -42 -301 -58.5t-343 -24.5q-91 -10 -166.5 -26t-130 -34t-84.5 -36.5t-30 -33.5q0 -29 29.5 -52t81 -40t121.5 -26t151 -9h575q42 0 88 -1.5t93.5 -4t94 -5.5t88.5 -6q17 -2 24.5 -13.5t7.5 -25.5q0 -30 -7.5 -46t-25.5 -16h-991
q-91 0 -167.5 11.5t-132 32.5t-86.5 50t-31 65q0 27 10.5 58t30 62t47 59.5t60.5 49.5q54 38 136 65.5t193 41.5l74 99q5 7 9 21t6.5 30.5t3.5 34.5t1 34q-2 41 -6.5 93t-10.5 110t-12.5 119t-12.5 120t-10.5 113.5t-6.5 99.5q-2 17 -2.5 34t0.5 31q-19 19 -25 40.5t-6 38.5
q0 33 18 75.5t45 85.5l4.5 6t6.5 2q8 0 8 -8q1 -17 4.5 -30.5t12.5 -27.5t24.5 -31t40.5 -41q11 -12 14.5 -20t3.5 -17q0 -12 -5.5 -30t-13.5 -35.5t-17.5 -31t-18.5 -17.5q3 -71 7.5 -150.5t9 -158.5t8 -153t4.5 -134q0 -32 -2.5 -67t-7.5 -62q55 56 121 115.5t137.5 109
t145 81.5t144.5 32q48 0 96.5 -21.5t87.5 -54.5t64 -73.5t25 -78.5q0 -36 -12.5 -72.5t-34 -70t-50.5 -63t-63 -50.5z" />
    <glyph glyph-name="uniFECB_uniFBAF.liga" unicode="&#xfecb;&#xfbaf;" horiz-adv-x="1724" 
d="M940 834q15 -11 20.5 -22t5.5 -34q0 -29 -16 -29q-9 0 -25.5 9t-39.5 19.5t-51.5 19.5t-60.5 9q-51 0 -100.5 -13.5t-90 -35.5t-69.5 -48.5t-40 -53.5q4 -36 28.5 -76.5t61.5 -76.5t82 -64t91 -40q37 4 83.5 13.5t95.5 21.5t96 24.5t85 23.5q29 6 29 -12q0 -14 -5 -32.5
t-12 -35t-15.5 -28.5t-14.5 -13q-69 -19 -139 -39.5t-155 -44.5q-49 -14 -90 -25.5t-80.5 -23.5t-80 -25t-87.5 -29q-48 -17 -97 -36.5t-88.5 -39.5t-64 -40t-24.5 -38q0 -29 29.5 -52t81 -40t121.5 -26t151 -9h688q42 0 88 -1.5t93.5 -4t94 -5.5t88.5 -6q17 -2 24.5 -12.5
t7.5 -26.5q0 -30 -7.5 -46t-25.5 -16h-1104q-91 0 -167.5 11.5t-132 32.5t-86.5 50t-31 65q0 33 9.5 67t27 66.5t41.5 61.5t54 51q30 24 68.5 45.5t81 40t87.5 35.5t87 32q-26 16 -53.5 39.5t-49.5 53t-36 63.5t-14 70q0 69 29.5 133.5t77.5 114.5t108 80.5t122 30.5
q34 0 65.5 -8t59 -20.5t50.5 -27t40 -27.5z" />
    <glyph glyph-name="uniFECC_uniFBAF.liga" unicode="&#xfecc;&#xfbaf;" horiz-adv-x="1142" 
d="M454 473q-17 0 -17 24q0 10 2.5 28t8.5 37.5t15 37t23 26.5q32 24 77.5 43t102.5 19q43 0 90 -11.5t85 -31t63 -46t25 -55.5q0 -17 -7 -39t-20.5 -45t-35 -45t-49.5 -39q21 -24 56.5 -42t80.5 -29t96.5 -16.5t105.5 -5.5l-14 -123q-71 0 -131 9t-111 28t-95 48t-83 69
q-81 -42 -145 -71t-124 -55q-50 -23 -100 -45.5t-90.5 -43.5t-65.5 -41.5t-25 -38.5q0 -29 29.5 -52t81 -40t121.5 -26t151 -9h688q42 0 88 -1t93.5 -3.5t94 -5.5t88.5 -7q17 -2 24.5 -12.5t7.5 -26.5q0 -30 -7.5 -46t-25.5 -16h-1104q-91 0 -167.5 12t-132 33t-86.5 50
t-31 64q0 33 9.5 67t27 66t41.5 61t54 52q38 28 85.5 54t102 52.5t116.5 55t129 60.5l-36 30t-37 27t-38 20t-38 8q-12 0 -22.5 -6.5t-24.5 -6.5z" />
    <glyph glyph-name="uniFEDB_uniFBAF.liga" unicode="&#xfedb;&#xfbaf;" horiz-adv-x="1559" 
d="M731 338q-27 -54 -94.5 -92t-179.5 -76q-61 -21 -113 -41.5t-90.5 -39.5t-60 -36.5t-21.5 -33.5q0 -29 29.5 -52t81 -40t121.5 -26t151 -9h523q42 0 88 -1t93.5 -3.5t94 -5.5t88.5 -7q17 -2 24.5 -13.5t7.5 -25.5q0 -30 -7.5 -46t-25.5 -16h-939q-93 0 -169.5 11.5
t-131.5 32.5t-85.5 50t-30.5 65q0 34 10 70.5t29.5 71t46.5 64t62 50.5q30 18 74 36.5t93.5 37t99.5 38t92 40t72 42t39 44.5q-7 53 -32 105.5t-63.5 104t-87.5 102.5t-105 101l-9 -32q-9 -35 -38 -15q-38 24 -69.5 49t-52.5 61q-11 18 -15 43.5t-4 48.5q0 37 15.5 86
t41.5 98q9 17 55.5 47.5t118.5 69t164.5 81.5t194.5 86q86 37 162 70.5t159 68.5q7 2 13 0t6 -9q0 -8 -3.5 -19.5t-12.5 -29.5q-29 -57 -45 -64q-97 -43 -200.5 -89t-205.5 -93.5t-197.5 -94.5t-175.5 -93q40 -35 86 -77t92 -89t90.5 -97.5t81.5 -102.5q45 -60 72.5 -127
t27.5 -127q0 -48 -9 -81t-27 -71z" />
    <glyph glyph-name="uniFEDC_uniFBAF.liga" unicode="&#xfedc;&#xfbaf;" horiz-adv-x="1173" 
d="M1173 160q-70 0 -120 15t-91 49t-80.5 90t-88.5 138l-11 -4q-2 -26 -8.5 -53.5t-20.5 -53.5q-10 -19 -37 -40t-67 -42.5t-91 -43t-109 -40.5q-57 -19 -107 -40t-88 -41.5t-60 -40t-22 -34.5q0 -29 29.5 -52t81 -40t121.5 -26t151 -9h688q59 0 107.5 -1.5t91.5 -4t83 -5.5
t82 -6q18 -2 25 -9.5t7 -29.5q0 -62 -32 -62h-1105q-92 0 -168.5 11.5t-131.5 32.5t-86 50t-31 65q0 34 10.5 70.5t30 70.5t48 64.5t64.5 53.5q29 18 71.5 36.5t91 37.5t99 39t94 40t77 41t48.5 42q-7 53 -33 103.5t-66.5 101.5t-94 103t-116.5 108q-35 33 -73 65t-80 64
q-8 8 -18.5 21t-10.5 34q0 28 15 68t41 86q9 17 57 47.5t122.5 68.5t169 81.5t197.5 86.5q88 35 170.5 70t170.5 71q6 2 12 0.5t6 -9.5t-3 -18.5t-13 -30.5q-14 -29 -24 -45t-21 -21q-104 -44 -213 -90.5t-215 -94t-204 -95.5t-180 -94q39 -29 81 -64.5t85 -74.5t85.5 -81
t81.5 -83q72 -77 129.5 -147t108.5 -148q46 -70 83 -114t72 -69.5t70 -35t76 -9.5z" />
    <glyph glyph-name="uniFEDF_uniFBAF.liga" unicode="&#xfedf;&#xfbaf;" horiz-adv-x="1559" 
d="M723 325q-25 -45 -89.5 -81t-176.5 -74q-61 -21 -113 -41.5t-90.5 -39.5t-60 -36.5t-21.5 -33.5q0 -28 29.5 -51.5t81.5 -40t122 -26t150 -9.5h523q42 0 88 -1t93.5 -3.5t94 -5.5t88.5 -7q17 -2 24.5 -13.5t7.5 -25.5q0 -30 -7.5 -46t-25.5 -16h-939q-93 0 -170 11.5
t-131.5 32.5t-85 50t-30.5 65q0 34 10 70.5t29.5 71t46.5 64t62 50.5q26 16 68.5 33.5t91.5 36t99.5 37.5t93 38.5t71 39.5t33.5 40q0 21 -1.5 41.5t-2.5 41.5q-6 70 -14.5 155.5t-17.5 174t-16.5 173.5t-11.5 153q0 11 -1.5 26t-0.5 29q-17 15 -23.5 39t-6.5 41
q0 37 18.5 77.5t44.5 82.5q4 7 11 7q3 0 6 -1.5t3 -5.5q0 -18 3.5 -31.5t12.5 -27.5t25 -31t40 -41q12 -11 15 -19.5t3 -17.5q0 -12 -5.5 -29.5t-13.5 -34.5t-17.5 -31t-17.5 -18q5 -81 11.5 -175t13.5 -184t12 -169t7 -131q0 -31 -4.5 -61.5t-11.5 -56t-14 -43t-13 -22.5z
" />
    <glyph glyph-name="uniFEE0_uniFBAF.liga" unicode="&#xfee0;&#xfbaf;" horiz-adv-x="1011" 
d="M1026 283l-15 -123q-48 0 -93 18t-81.5 52t-61.5 84t-34 114h-9q-15 -54 -48 -101.5t-76 -69.5q-117 -59 -200 -96t-135.5 -61.5t-76.5 -42t-24 -38.5q0 -28 29.5 -51.5t81.5 -40t122 -26t150 -9.5h574q42 0 88 -1t93.5 -3.5t94 -5.5t88.5 -7q17 -2 24.5 -13.5t7.5 -25.5
q0 -30 -7.5 -46t-25.5 -16h-990q-93 0 -170 11.5t-131.5 32.5t-85 50t-30.5 65q0 34 12 72t32 73.5t47 66t57 49.5q56 35 124 62t133 55.5t119 64.5t83 90q9 16 14.5 40.5t9 53.5t4.5 61t1 63q0 12 -3 55.5t-7 103.5t-9 128t-9 129t-7 106.5t-3 60.5q0 27 6 52.5t23 61.5
q11 24 22 39.5t18 15.5q11 0 11 -13q2 -47 5.5 -98.5t8 -103t9 -102.5t7.5 -97q7 -109 13.5 -209t14.5 -205q4 -65 17.5 -124t38 -103.5t61.5 -71t88 -26.5z" />
    <glyph glyph-name="uniFEE3_uniFBAF.liga" unicode="&#xfee3;&#xfbaf;" horiz-adv-x="1724" 
d="M683 684q36 0 82 -13t86.5 -34.5t68.5 -49t28 -55.5q0 -26 -8.5 -56t-21.5 -56t-28.5 -45.5t-28.5 -25.5q-22 -9 -54.5 -19t-70 -22t-77 -25t-75.5 -28q-74 -31 -146 -64t-129 -64.5t-92 -59t-35 -48.5q0 -57 90 -91.5t283 -34.5h688q42 0 88 -1.5t93.5 -3.5t94 -5.5
t88.5 -7.5q17 -2 24.5 -12.5t7.5 -26.5q0 -31 -7.5 -46.5t-25.5 -15.5h-1104q-90 0 -166.5 11.5t-132 32.5t-87 50t-31.5 65q0 40 18 82.5t49 83t72.5 78t88.5 67.5q22 14 59.5 33t79 39.5t82.5 39.5t70 33q-24 26 -41.5 54t-17.5 61q0 26 11 57.5t29.5 58.5t43.5 45.5
t54 18.5z" />
    <glyph glyph-name="uniFEE4_uniFBAF.liga" unicode="&#xfee4;&#xfbaf;" horiz-adv-x="1242" 
d="M1242 160q-37 0 -65.5 5.5t-52 18t-44.5 31.5t-43 46q-9 -25 -21 -48t-25.5 -40t-28.5 -27.5t-30 -10.5q-44 0 -87.5 14.5t-85.5 39t-81.5 56.5t-75.5 66q-17 -32 -35.5 -55t-40 -40t-46.5 -30.5t-53 -25.5q-37 -16 -81.5 -34.5t-83 -37t-64.5 -36.5t-26 -33
q0 -57 95 -91.5t288 -34.5h688q42 0 88 -1.5t93.5 -3.5t94 -5.5t88.5 -7.5q17 -2 24.5 -13t7.5 -26q0 -31 -7.5 -46.5t-25.5 -15.5h-1104q-90 0 -166.5 11.5t-132 32.5t-87 50t-31.5 65q0 38 12.5 73t30.5 64t38.5 52t37.5 38q45 39 106 67.5t142 63.5q29 13 58.5 33
t47.5 58q16 32 31 65t32 68q35 85 85.5 132t108.5 47q40 0 71 -23.5t59 -63t57 -91.5t66 -108q18 -36 36 -60.5t40 -38.5t49 -20t63 -6zM910 278q16 0 29.5 18.5t13.5 47.5q-5 34 -19 73t-34.5 74t-47 61.5t-56.5 35.5q-26 0 -47 -14.5t-38.5 -37t-30.5 -51t-22 -56.5
q26 -30 59.5 -56.5t68 -47t67.5 -33t57 -14.5z" />
    <glyph glyph-name="uniFEEB_uniFBAF.liga" unicode="&#xfeeb;&#xfbaf;" horiz-adv-x="1724" 
d="M610 320q-19 13 -37.5 30t-32.5 38t-23 46t-9 54q0 43 15.5 88.5t42.5 87.5t63.5 78.5t78.5 61.5v4q-26 5 -40.5 8.5t-28.5 8.5q-11 5 -11 19q0 16 10.5 46.5t22.5 57.5q8 20 17.5 28t23.5 8q7 0 19 -5t26.5 -12.5t29 -16.5t27.5 -17q87 -56 166 -119t139 -131.5
t95.5 -141t35.5 -146.5q0 -29 -9.5 -57t-24.5 -53t-34 -46.5t-37 -37.5q-9 -8 -27.5 -15t-36.5 -7q-38 0 -81 6t-88 18t-90 28.5t-85 37.5q-63 -32 -131 -59t-143 -47q-135 -37 -208 -74.5t-73 -69.5q0 -29 29.5 -52t81 -40t121.5 -26t151 -9h688q42 0 88 -1t93.5 -3.5
t94 -5.5t88.5 -7q17 -2 24.5 -13.5t7.5 -25.5q0 -30 -7.5 -46t-25.5 -16h-1104q-92 0 -168.5 11.5t-132 32.5t-86 50t-30.5 65q0 34 10.5 69.5t30 69.5t47 64t60.5 53t79.5 39t97.5 30t103 28t97 34zM771 739q-21 0 -49 -11t-55.5 -33t-52 -55.5t-39.5 -79.5q2 -60 47 -105
t115 -70q48 29 89.5 60.5t66.5 79.5q-2 47 -12.5 86.5t-27 68t-38 44t-44.5 15.5zM1178 339q0 25 -13.5 61.5t-40.5 79t-68.5 88.5t-96.5 90l-6 -3q2 -16 4 -34.5t2 -34.5q0 -29 -8.5 -60t-23.5 -62.5t-37 -60.5t-49 -53q19 -8 45.5 -16.5t55.5 -15.5t57.5 -11t52.5 -4
q37 0 66 5t60 31z" />
    <glyph glyph-name="uniFBAC_uniFBAF.liga" unicode="&#xfbac;&#xfbaf;" horiz-adv-x="1724" 
d="M610 320q-19 13 -37.5 31t-32.5 40t-23 48t-9 56q0 45 11.5 87.5t29.5 80t40.5 69.5t45.5 57q50 56 99 77t85 21q39 0 66 -24.5t47 -55.5q38 0 75.5 -18t75.5 -63q69 -78 113 -159.5t44 -166.5q0 -30 -9.5 -59t-24.5 -54.5t-34 -47.5t-37 -38q-9 -8 -27.5 -15t-36.5 -7
q-38 0 -81 6t-88 18t-90 28.5t-85 37.5q-63 -32 -131 -59t-143 -47q-135 -37 -208 -74.5t-73 -69.5q0 -29 29.5 -52t81 -40t121.5 -26t151 -9h688q42 0 88 -1t93.5 -3.5t94 -5.5t88.5 -7q17 -2 24.5 -13.5t7.5 -25.5q0 -30 -7.5 -46t-25.5 -16h-1104q-92 0 -168.5 11.5
t-132 32.5t-86 50t-30.5 65q0 34 10.5 69.5t30 69.5t47 64t60.5 53t79.5 39t97.5 30t103 28t97 34zM771 745q-21 0 -49 -11t-55.5 -33.5t-52 -57t-39.5 -80.5q1 -31 13.5 -57.5t34 -48.5t50.5 -40t64 -32q48 29 89.5 61.5t66.5 80.5q-2 48 -12.5 88.5t-27 69t-38 44.5
t-44.5 16zM1178 339q0 27 -17 72t-46 93.5t-67.5 93t-81.5 70.5l-6 -3q2 -17 4 -37t2 -37q0 -63 -34 -125t-91 -116q19 -8 45.5 -16.5t55.5 -15.5t57.5 -11t52.5 -4q37 0 66 5t60 31z" />
    <glyph glyph-name="uniFBA8_uniFBAF.liga" unicode="&#xfba8;&#xfbaf;" horiz-adv-x="1724" 
d="M1607 -125q18 -2 25 -9t7 -30q0 -62 -33 -62h-1102q-73 0 -147.5 9.5t-135 29t-98.5 49.5t-38 71q0 25 11 56.5t30 63.5t45.5 62t56.5 52q27 19 71 41t92.5 46t95 49.5t79.5 50.5q10 7 26.5 27.5t36.5 46.5t41.5 54t42 51.5t38 39t30.5 15.5q18 0 29 -14t20 -36.5t20 -51
t30 -58.5q22 -34 48 -56.5t54 -36t56 -19.5t54 -6q15 0 26 9.5t18 23.5t10 30t3 29q0 53 -13 95.5t-29 74t-29 53t-13 32.5q0 16 7 38.5t16.5 42t20.5 33.5t20 14q10 0 27 -29q12 -21 26 -51.5t26.5 -68t20.5 -80t8 -86.5q0 -55 -10.5 -105.5t-32 -89.5t-53.5 -62t-74 -23
q-54 0 -111 22t-105 76q-22 25 -36.5 51.5t-26 48.5t-21 36t-21.5 14q-7 0 -19 -12t-27.5 -31t-33.5 -42.5t-36.5 -47t-35.5 -44t-31 -33.5q-21 -19 -58 -38.5t-80.5 -38t-88.5 -37t-81.5 -35.5t-59.5 -32.5t-23 -28.5q0 -33 38 -56.5t95.5 -39t124.5 -23t126 -7.5h684
q42 0 88.5 -1.5t94.5 -4t95 -5.5t89 -6z" />
    <glyph glyph-name="uniFBA8_uniFEF0.liga" unicode="&#xfba8;&#xfef0;" horiz-adv-x="2001" 
d="M1517 160q-60 0 -98.5 12.5t-65 34t-43.5 49.5t-33 58q-16 28 -29 52.5t-30 43t-41 29.5t-61 11q-71 0 -135 -20.5t-112.5 -49t-77 -58t-28.5 -47.5q0 -42 52 -61.5t158 -37.5q102 -18 152.5 -50t50.5 -97q0 -21 -5.5 -45.5t-14 -47.5t-19 -42.5t-20.5 -31.5
q-50 -53 -114 -97t-139 -75.5t-159.5 -49t-174.5 -17.5q-129 0 -214.5 36.5t-137 95.5t-72.5 132.5t-21 148.5q0 52 8 104t21.5 100.5t30 91.5t33.5 79q10 21 18.5 29t30.5 8q15 0 24 -4.5t9 -12.5q0 -7 -11.5 -37.5t-26 -75.5t-26 -99t-11.5 -107q0 -91 27 -157.5
t76.5 -110t119.5 -64.5t157 -21q71 0 149.5 19t152.5 52t138 78t106 98q0 9 -9 18.5t-30.5 19t-57.5 19.5t-90 19q-52 8 -95.5 16.5t-75 22.5t-49 37t-17.5 61q0 41 19.5 84t52.5 82.5t77 74.5t93.5 61t101 41t100.5 15t86 -15t64.5 -39t47 -54t34.5 -60q15 -32 30.5 -55.5
t34.5 -39.5t44 -23.5t59 -7.5q88 0 168.5 20t138.5 54q-6 61 -26.5 129t-70.5 150q-6 8 -10 15.5t-4 16.5q0 15 7 36t16.5 39.5t19.5 31.5t17 13q5 0 10.5 -4t18.5 -23q16 -25 33.5 -60t32.5 -76.5t24.5 -88.5t9.5 -96q0 -42 -8 -83t-20 -75q-6 -17 -14 -28t-23 -20
q-60 -31 -144 -52.5t-190 -21.5zM1702 133q5 8 12 10.5t30 2.5t23 -13q0 -5 -12.5 -27t-27 -52t-27 -63t-12.5 -58q0 -31 5 -49t21 -18t25 12l19 26q5 7 12.5 10.5t23.5 3.5q23 0 32.5 -14t9.5 -30q0 -6 -6 -19.5t-14.5 -29.5t-18.5 -30.5t-19 -23.5q-19 -21 -40 -34
t-59 -13q-23 0 -38 14t-23.5 34t-12 42t-3.5 38q0 77 29.5 146.5t70.5 134.5z" />
    <glyph glyph-name="uniFED3_uniFEE0_uniFEE0_uniFEEA.liga" unicode="&#xfed3;&#xfee0;&#xfee0;&#xfeea;" horiz-adv-x="2585" 
d="M1957 160q-51 0 -95.5 9.5t-81.5 29t-64.5 50t-43.5 72.5h-6q-5 -20 -9 -35t-9 -29t-13 -27.5t-22 -30.5q-20 -23 -53 -36.5t-74 -14.5q-46 0 -89.5 9t-80.5 30.5t-66 57.5t-47 90h-6q-14 -59 -44.5 -99.5t-72.5 -65.5t-92 -36.5t-103 -11.5q-136 0 -207.5 65.5
t-71.5 204.5h-5q-15 -17 -33 -36.5t-38 -36.5t-39.5 -28.5t-37.5 -11.5q-33 0 -73.5 2t-81 7t-78.5 14t-66.5 23.5t-44.5 35t-13 49.5q1 16 12 39.5t26.5 48.5t33 48.5t31.5 39.5q29 33 125.5 92t276.5 136q1 16 1 34.5t2 33.5q2 11 11.5 35.5t26.5 50.5q13 19 24 31t18 12
q10 0 10 -13q0 -72 -1.5 -131.5t-1.5 -107.5q2 -154 6 -308q1 -56 18 -93t46.5 -59.5t69 -32t84.5 -9.5q51 0 97 12t80.5 34t55.5 54t22 72q0 17 -6 58t-15.5 94t-20.5 111.5t-20.5 110.5t-15.5 91t-6 54q0 21 9 53.5t20 65.5q8 24 16.5 40.5t16.5 16.5q11 0 14 -13
q24 -158 49.5 -308t54.5 -304q12 -60 34 -101.5t54 -67t72.5 -37t90.5 -11.5q24 0 49 6t36 23q-1 21 -9.5 76.5t-21 128t-26 152.5t-25.5 150t-19.5 121.5t-7.5 65.5q0 32 8 61.5t19 56.5q11 25 19 40.5t16 15.5q11 0 12 -13q12 -79 22 -143t19.5 -122t19 -115.5
t20.5 -122.5q34 -189 115 -282.5t221 -93.5q61 0 120 5.5t112.5 16t100 27t83.5 38.5q1 7 2 18t1 20q0 43 -16 87l-10 1q-13 -30 -45.5 -53t-92.5 -23q-37 0 -79 9.5t-78 32.5t-59.5 60t-23.5 93q0 60 22 120.5t57 108.5t79.5 78.5t88.5 30.5q34 0 65 -16.5t58.5 -45.5
t50 -67.5t38 -82.5t24.5 -91t9 -93q0 -49 -8 -113.5t-33 -128.5q-7 -18 -18 -36t-20 -22q-105 -58 -218.5 -79.5t-236.5 -21.5zM600 652q0 26 0.5 52t0.5 50h-3q-20 -21 -43.5 -40.5t-48.5 -31.5q-62 -32 -113 -64t-88 -59.5t-59.5 -49t-28.5 -32.5q13 -17 37.5 -30
t54.5 -21.5t63 -13t65 -4.5t76.5 6.5t86.5 33.5v204zM2366 592q-5 39 -18.5 78.5t-33.5 72t-46.5 52.5t-57.5 20q-27 0 -50.5 -13.5t-40.5 -35t-27.5 -47t-12.5 -49.5q5 -26 21.5 -48t41 -37.5t55.5 -24t65 -8.5q30 0 57.5 11.5t46.5 28.5zM2096 1291q14 20 29.5 33t31.5 13
q11 0 25.5 -7t37.5 -25q22 -17 34 -33.5t12 -34.5q0 -10 -6.5 -24.5t-21.5 -34.5q-15 -22 -30.5 -35t-32.5 -13q-10 0 -24.5 6t-37.5 25q-20 17 -32 34t-12 33q0 13 6.5 28t20.5 35zM1100 1407q3 6 7.5 8.5t15.5 2.5q22 0 22 -9q0 -14 -4 -38t-9 -41q9 -7 22.5 -13.5
t30.5 -6.5q22 0 37.5 14.5t26 37t16.5 49t9 50.5q0 8 6.5 10.5t16.5 2.5q22 0 20 -14q0 -37 -6.5 -79t-22.5 -78t-44 -59.5t-70 -23.5q-29 0 -47.5 13t-26.5 22q-8 -14 -18 -28.5t-24.5 -27t-35 -20.5t-48.5 -8q-15 0 -28 4t-22.5 14t-15 28t-5.5 46q0 15 2.5 31t7 31
t9.5 27t11 19q6 9 19 9q19 0 19 -10q0 -4 -2.5 -11t-5 -15.5t-5 -17.5t-2.5 -15q0 -20 8 -33.5t35 -13.5q25 0 41.5 15.5t27.5 37.5t18.5 46.5t13.5 43.5zM1151 1482q-2 -5 -5.5 -6.5t-14.5 -1.5q-14 0 -14 8q0 18 -0.5 40t-2.5 45.5t-6 46.5t-11 41q-14 34 -28.5 54
t-36.5 43q-3 1 -3 16q0 10 1.5 27t4.5 33.5t7 28.5t9 12q8 0 15 -7q54 -54 76.5 -124t22.5 -145q0 -27 -4.5 -59.5t-9.5 -51.5z" />
    <glyph glyph-name="uniFED3_uniFEE0_uniFEE0_uniFEEA.liga" unicode="&#xfed3;&#xfee0;&#xfee0;&#xfeea;" horiz-adv-x="2585" 
d="M1957 160q-51 0 -95.5 9.5t-81.5 29t-64.5 50t-43.5 72.5h-6q-5 -20 -9 -35t-9 -29t-13 -27.5t-22 -30.5q-20 -23 -53 -36.5t-74 -14.5q-46 0 -89.5 9t-80.5 30.5t-66 57.5t-47 90h-6q-14 -59 -44.5 -99.5t-72.5 -65.5t-92 -36.5t-103 -11.5q-136 0 -207.5 65.5
t-71.5 204.5h-5q-15 -17 -33 -36.5t-38 -36.5t-39.5 -28.5t-37.5 -11.5q-33 0 -73.5 2t-81 7t-78.5 14t-66.5 23.5t-44.5 35t-13 49.5q1 16 12 39.5t26.5 48.5t33 48.5t31.5 39.5q29 33 125.5 92t276.5 136q1 16 1 34.5t2 33.5q2 11 11.5 35.5t26.5 50.5q13 19 24 31t18 12
q10 0 10 -13q0 -72 -1.5 -131.5t-1.5 -107.5q2 -154 6 -308q1 -56 18 -93t46.5 -59.5t69 -32t84.5 -9.5q51 0 97 12t80.5 34t55.5 54t22 72q0 17 -6 58t-15.5 94t-20.5 111.5t-20.5 110.5t-15.5 91t-6 54q0 21 9 53.5t20 65.5q8 24 16.5 40.5t16.5 16.5q11 0 14 -13
q24 -158 49.5 -308t54.5 -304q12 -60 34 -101.5t54 -67t72.5 -37t90.5 -11.5q24 0 49 6t36 23q-1 21 -9.5 76.5t-21 128t-26 152.5t-25.5 150t-19.5 121.5t-7.5 65.5q0 32 8 61.5t19 56.5q11 25 19 40.5t16 15.5q11 0 12 -13q12 -79 22 -143t19.5 -122t19 -115.5
t20.5 -122.5q34 -189 115 -282.5t221 -93.5q61 0 120 5.5t112.5 16t100 27t83.5 38.5q1 7 2 18t1 20q0 43 -16 87l-10 1q-13 -30 -45.5 -53t-92.5 -23q-37 0 -79 9.5t-78 32.5t-59.5 60t-23.5 93q0 60 22 120.5t57 108.5t79.5 78.5t88.5 30.5q34 0 65 -16.5t58.5 -45.5
t50 -67.5t38 -82.5t24.5 -91t9 -93q0 -49 -8 -113.5t-33 -128.5q-7 -18 -18 -36t-20 -22q-105 -58 -218.5 -79.5t-236.5 -21.5zM600 652q0 26 0.5 52t0.5 50h-3q-20 -21 -43.5 -40.5t-48.5 -31.5q-62 -32 -113 -64t-88 -59.5t-59.5 -49t-28.5 -32.5q13 -17 37.5 -30
t54.5 -21.5t63 -13t65 -4.5t76.5 6.5t86.5 33.5v204zM2366 592q-5 39 -18.5 78.5t-33.5 72t-46.5 52.5t-57.5 20q-27 0 -50.5 -13.5t-40.5 -35t-27.5 -47t-12.5 -49.5q5 -26 21.5 -48t41 -37.5t55.5 -24t65 -8.5q30 0 57.5 11.5t46.5 28.5zM2096 1291q14 20 29.5 33t31.5 13
q11 0 25.5 -7t37.5 -25q22 -17 34 -33.5t12 -34.5q0 -10 -6.5 -24.5t-21.5 -34.5q-15 -22 -30.5 -35t-32.5 -13q-10 0 -24.5 6t-37.5 25q-20 17 -32 34t-12 33q0 13 6.5 28t20.5 35z" />
    <glyph glyph-name="uni0620.init" unicode="&#x620;" horiz-adv-x="484" 
d="M0 160q-12 0 -27.5 3.5t-29 9.5t-22.5 15.5t-9 21.5v35q0 10 9.5 17.5t24.5 12t33 6.5t35 2q87 0 168 20t139 54q-6 61 -26.5 129t-70.5 150q-6 8 -10 15.5t-4 16.5q0 15 7 36t16.5 39.5t19.5 31.5t17 13q5 0 10.5 -4t18.5 -23q16 -25 33.5 -60t32.5 -76.5t24.5 -88.5
t9.5 -96q0 -42 -8 -83t-20 -75q-6 -17 -14 -28t-23 -20q-60 -31 -144 -52.5t-190 -21.5zM331 -93q0 -36 -8 -68t-27.5 -55.5t-53 -37t-84.5 -13.5q-34 0 -58.5 27.5t-24.5 71.5q0 41 11.5 80t29.5 70t39 49.5t40 18.5t43 -10t44.5 -29t34.5 -45t14 -59zM179 -186
q18 0 35.5 3.5t32 9.5t23 14t8.5 17q1 45 -24 77.5t-69 32.5q-10 0 -20 -9.5t-18.5 -24t-14 -31t-5.5 -31.5q0 -27 10 -42.5t42 -15.5z" />
    <glyph glyph-name="uni0620.medi" unicode="&#x620;" horiz-adv-x="567" 
d="M567 160q-39 0 -75.5 9.5t-68 30.5t-55.5 53.5t-37 78.5h-4q-5 -11 -12.5 -23.5t-16.5 -24.5t-18 -22.5t-16 -17.5q-23 -19 -54.5 -34.5t-67 -26.5t-72.5 -17t-70 -6q-12 0 -27.5 3.5t-29 9.5t-22.5 15.5t-9 21.5v35q0 10 9.5 17.5t24.5 12t33 6.5t35 2q27 0 57 5t58 14
t51.5 21.5t38.5 27.5q17 15 31 42t25.5 61t21.5 71.5t19 73.5q2 8 4 13.5t8 8.5t18.5 4.5t34.5 1.5q11 0 15.5 -5t4.5 -12q0 -10 -3.5 -27t-8.5 -36.5t-10.5 -40.5t-9.5 -38q10 -91 65.5 -138t146.5 -47zM327 -94q0 -36 -8 -68t-27.5 -55.5t-53 -37t-84.5 -13.5
q-34 0 -58.5 27.5t-24.5 71.5q0 41 11.5 80t29.5 70t39 49.5t40 18.5t43 -10t44.5 -29t34.5 -45t14 -59zM175 -187q18 0 35.5 3.5t32 9.5t23 14t8.5 17q1 45 -24 77.5t-69 32.5q-10 0 -20 -9.5t-18.5 -24t-14 -31t-5.5 -31.5q0 -27 10 -42.5t42 -15.5z" />
    <glyph glyph-name="uni0620.fina" unicode="&#x620;" horiz-adv-x="1174" 
d="M1174 160q-45 -2 -86 -4t-72 -5.5t-49 -8t-18 -9.5q0 -2 22.5 -6.5t56.5 -11t73.5 -15.5t73.5 -20.5t56.5 -25.5t22.5 -31q0 -16 -5.5 -34.5t-13.5 -37t-18 -36.5t-20 -32q-42 -35 -110.5 -67.5t-154 -58t-184 -41t-201.5 -15.5q-125 0 -212.5 32t-143 86t-81 124.5
t-25.5 148.5q0 52 9 103.5t22.5 98.5t30 88.5t31.5 73.5q10 17 18 26t31 9q18 0 25.5 -3t7.5 -14q0 -12 -11.5 -40t-26 -67t-26 -88.5t-11.5 -104.5q0 -84 28.5 -147t79.5 -105t121 -63t154 -21t173.5 11.5t170.5 32t146.5 48t100.5 59.5q-7 8 -34 15.5t-64 15.5t-79 15.5
t-78.5 15.5t-62.5 16.5t-31 17.5q-8 9 -14 23t-6 28t11 31t36.5 34.5t66 34t100.5 30.5q31 6 80.5 11.5t103.5 5.5zM1079 -398q0 -32 -8 -59t-27.5 -47t-53 -31.5t-84.5 -11.5q-34 0 -58.5 23.5t-24.5 61.5q0 35 11.5 68.5t29.5 60t39 42.5t40 16t43 -8.5t44.5 -24.5
t34.5 -39t14 -51zM927 -473q18 0 35.5 2.5t32 7t23 11t8.5 13.5q1 35 -23.5 60t-69.5 25q-10 0 -20 -7.5t-18.5 -18.5t-14 -24t-5.5 -24q0 -21 10 -33t42 -12z" />
    <glyph glyph-name="uni0621" unicode="&#x621;" horiz-adv-x="763" arabic-form="isolated" 
d="M667 413q11 0 11 -9q0 -7 -3.5 -20t-14.5 -37q-21 -48 -42 -53q-130 -27 -212 -56.5t-130 -54t-67.5 -40.5t-23.5 -16q-8 0 -11 15.5t-3 27.5q0 18 30.5 54.5t93.5 72.5q-64 24 -104.5 64.5t-40.5 87.5q0 37 25 84t65 88t89 69.5t97 28.5q28 0 51.5 -6.5t40 -17t25.5 -24
t9 -26.5q0 -41 -25 -81l-4.5 -4.5t-4.5 -2.5q-9 0 -17 8.5t-22 19t-38 19.5t-66 9q-26 0 -50.5 -8.5t-43 -22t-30 -31.5t-11.5 -36q0 -29 24.5 -54t58.5 -43t70.5 -28t60.5 -10q30 0 64.5 5t65 11.5t53.5 11.5t30 5z" />
    <glyph glyph-name="uni0622.fina" unicode="&#x622;" horiz-adv-x="483" arabic-form="final" 
d="M483 160q-74 0 -125 20t-84 61.5t-50.5 105.5t-23.5 153q-13 184 -22.5 371.5t-27.5 366.5q0 34 8 62.5t22 59.5q11 26 21.5 42.5t18.5 16.5q11 0 14 -10q8 -42 13.5 -100t8.5 -115l33 -668q3 -62 20 -108t44.5 -76t64 -44.5t79.5 -14.5zM550 1647q12 9 22 9t10 -11
q0 -21 -6 -33t-17 -22q-25 -21 -56.5 -42t-69.5 -38t-82 -27.5t-95 -10.5q-62 0 -113.5 20.5t-86.5 60.5l-100 -60q-5 -3 -9 -5t-9 -2q-10 0 -10 12q0 29 4 41.5t18 22.5l121 81q14 11 33 11q9 0 16.5 -3t13.5 -8q21 -18 40 -30.5t41.5 -20.5t51 -11.5t66.5 -3.5q40 0 95 17
t122 53z" />
    <glyph glyph-name="uni0623" unicode="&#x623;" horiz-adv-x="368" arabic-form="isolated" 
d="M253 180q-2 -5 -5.5 -8t-14.5 -3t-15 3t-5 8q-1 17 0 44t0 59q-3 71 -9 149.5t-13 158.5t-14 159t-13 151t-10 134t-4 109q0 26 9 53.5t20 51.5q11 23 21 37t18 14q9 0 9 -8q4 -65 10 -143t13 -160t13.5 -164t12 -155t9 -132.5t3.5 -97.5q0 -105 -12 -168.5t-23 -91.5z
M356 1514q8 0 8 -7q0 -5 -2 -14.5t-10 -28.5q-15 -37 -30 -40q-86 -18 -139 -37.5t-83.5 -35.5t-42.5 -26.5t-15 -10.5q-8 0 -10 9t-2 32q0 11 18 33.5t56 45.5q-38 15 -62.5 42t-24.5 58q0 33 17 66.5t44 59.5t60 42.5t66 16.5q39 0 63 -15.5t24 -33.5q0 -15 -5 -29
t-13 -31q-4 -4 -7 -4q-6 0 -11 5.5t-14 12t-24 12t-40 5.5q-14 0 -29 -5.5t-27 -15t-19.5 -21.5t-7.5 -25q0 -17 14 -31.5t34 -25.5t41.5 -17.5t36.5 -6.5q20 0 42 3.5t41 7t33.5 7t19.5 3.5z" />
    <glyph glyph-name="uni0624" unicode="&#x624;" horiz-adv-x="872" arabic-form="isolated" 
d="M679 471q-7 47 -22.5 88t-36.5 71.5t-47 48t-54 17.5q-32 0 -54 -16t-35.5 -37.5t-20 -44t-8.5 -34.5q1 -23 12 -46.5t31 -42.5t50 -31t70 -12q12 0 28 3t32.5 8t31 12t23.5 16zM690 371q-10 -14 -22.5 -27t-30.5 -23.5t-42.5 -17t-57.5 -6.5q-42 0 -80.5 15.5
t-68.5 42.5t-48 64t-18 81q0 71 21 133t55 107.5t75 72t82 26.5q57 0 101 -39.5t74 -101.5t46 -138t16 -148q0 -75 -15.5 -154t-44.5 -154t-70.5 -141.5t-93.5 -116t-113.5 -78.5t-130.5 -29q-58 0 -130 14t-153 57q-24 13 -32.5 22.5t-8.5 29.5q0 35 18 35q8 0 25 -9
t41.5 -20.5t56 -20.5t69.5 -9q57 0 113 18t108 50t98 75.5t82.5 95t61.5 108t36 113.5q0 20 -1.5 38t-3.5 35h-14zM697 1095q8 0 8 -7q0 -5 -2 -14.5t-10 -28.5q-15 -37 -30 -40q-86 -18 -139 -37.5t-83.5 -35.5t-42.5 -26.5t-15 -10.5q-8 0 -10 9t-2 32q0 11 18 33.5
t56 45.5q-38 15 -62.5 42t-24.5 58q0 33 17 66.5t44 59.5t60 42.5t66 16.5q39 0 63 -15.5t24 -33.5q0 -15 -5 -29t-13 -31q-4 -4 -7 -4q-6 0 -11 5.5t-14 12t-24 12t-40 5.5q-14 0 -29 -5.5t-27 -15t-19.5 -21.5t-7.5 -25q0 -17 14 -31.5t34 -25.5t41.5 -17.5t36.5 -6.5
q20 0 42 3.5t41 7t33.5 7t19.5 3.5z" />
    <glyph glyph-name="uni0625" unicode="&#x625;" horiz-adv-x="391" arabic-form="isolated" 
d="M256 180q-1 -5 -4.5 -8t-14.5 -3q-12 0 -15.5 3t-4.5 8q-1 19 -0.5 48t0.5 64q-3 76 -9 160.5t-13.5 170t-15.5 170.5t-14.5 162t-10.5 144t-4 117q0 26 9.5 54t20.5 52q11 23 21.5 37t18.5 14q7 0 9 -8q4 -69 10 -150.5t13 -168t14 -172.5t12.5 -163.5t9 -142
t3.5 -106.5q0 -112 -12 -181.5t-23 -100.5zM403 -126q8 0 8 -7q0 -5 -2 -14.5t-10 -28.5q-15 -37 -30 -40q-86 -18 -139 -37.5t-83.5 -35.5t-42.5 -26.5t-15 -10.5q-8 0 -10 9t-2 32q0 11 18 33.5t56 45.5q-38 15 -62.5 42t-24.5 58q0 33 17 66.5t44 59.5t60 42.5t66 16.5
q39 0 63 -15.5t24 -33.5q0 -15 -5 -29t-13 -31q-4 -4 -7 -4q-6 0 -11 5.5t-14 12t-24 12t-40 5.5q-14 0 -29 -5.5t-27 -15t-19.5 -21.5t-7.5 -25q0 -17 14 -31.5t34 -25.5t41.5 -17.5t36.5 -6.5q20 0 42 3.5t41 7t33.5 7t19.5 3.5z" />
    <glyph glyph-name="uni0626" unicode="&#x626;" horiz-adv-x="1370" arabic-form="isolated" 
d="M1254 879q-5 -8 -13 -8q-9 0 -14 11.5t-15 25t-29.5 25t-56.5 11.5q-35 0 -74.5 -16t-79 -43t-76 -61t-64.5 -70t-44.5 -70.5t-16.5 -62.5q0 -42 60.5 -73.5t198.5 -56.5q57 -11 99.5 -23t70 -29.5t41 -42.5t13.5 -63q0 -22 -5.5 -50.5t-14.5 -56t-19.5 -50t-20.5 -32.5
q-55 -61 -128 -112.5t-159.5 -89t-182 -58.5t-195.5 -21q-128 0 -213 37t-136.5 96t-73 132.5t-21.5 147.5q0 57 8 109.5t21.5 100t30 89.5t33.5 77q10 21 18.5 29t30.5 8q15 0 24 -4.5t9 -12.5q0 -7 -11.5 -37.5t-26 -75t-26 -98.5t-11.5 -106q0 -92 26.5 -158.5
t75.5 -110.5t119.5 -65t157.5 -21q81 0 170.5 22t174.5 60.5t159 91t123 112.5q0 9 -8 20.5t-31 23.5t-63.5 23.5t-106.5 20.5t-117.5 22.5t-87.5 35t-54.5 52.5t-18.5 75q0 55 20 114t54 116t80 107.5t98 89t107 61t108 22.5q29 0 51 -8t37 -21t22.5 -30t7.5 -34
q1 -22 -10.5 -50t-24.5 -47zM411 920q8 0 8 -7q0 -5 -2 -14.5t-10 -28.5q-15 -37 -30 -40q-86 -18 -139 -37.5t-83.5 -35.5t-42.5 -26.5t-15 -10.5q-8 0 -10 9t-2 32q0 11 18 33.5t56 45.5q-38 15 -62.5 42t-24.5 58q0 33 17 66.5t44 59.5t60 42.5t66 16.5q39 0 63 -15.5
t24 -33.5q0 -15 -5 -29t-13 -31q-4 -4 -7 -4q-6 0 -11 5.5t-14 12t-24 12t-40 5.5q-14 0 -29 -5.5t-27 -15t-19.5 -21.5t-7.5 -25q0 -17 14 -31.5t34 -25.5t41.5 -17.5t36.5 -6.5q20 0 42 3.5t41 7t33.5 7t19.5 3.5z" />
    <glyph glyph-name="uni0627" unicode="&#x627;" horiz-adv-x="391" arabic-form="isolated" 
d="M256 180q-1 -5 -4.5 -8t-14.5 -3q-12 0 -15.5 3t-4.5 8q-1 19 -0.5 48t0.5 64q-3 76 -9 160.5t-13.5 170t-15.5 170.5t-14.5 162t-10.5 144t-4 117q0 26 9.5 54t20.5 52q11 23 21.5 37t18.5 14q7 0 9 -8q4 -69 10 -150.5t13 -168t14 -172.5t12.5 -163.5t9 -142
t3.5 -106.5q0 -112 -12 -181.5t-23 -100.5z" />
    <glyph glyph-name="uni0628" unicode="&#x628;" horiz-adv-x="1627" arabic-form="isolated" 
d="M1475 269q-363 -152 -805 -152q-170 0 -282.5 30t-179.5 80.5t-95 115.5t-28 135q0 75 18 134t39 104q6 13 10.5 21.5t10 13.5t12 6.5t17.5 1.5q19 0 26.5 -4.5t7.5 -15.5q0 -8 -8 -24.5t-18 -41.5t-18 -59t-8 -77q0 -59 27 -110.5t88.5 -90.5t161.5 -61.5t246 -22.5
q65 0 136 5t142.5 14t141.5 22t133.5 28.5t117.5 33.5t94 37q0 72 -25.5 140t-58.5 125q-10 18 -10 31q0 18 6.5 39t15.5 38t18.5 28.5t15.5 11.5q9 0 15 -8t17 -28q17 -30 32.5 -65.5t27.5 -72.5t19 -74.5t7 -71.5q0 -41 -7.5 -84t-21.5 -82q-6 -17 -16 -31t-22 -19z
M787 -111q14 20 29.5 33t31.5 13q11 0 25.5 -7t37.5 -25q22 -17 34 -33.5t12 -34.5q0 -10 -6.5 -24.5t-21.5 -34.5q-15 -22 -30.5 -35t-32.5 -13q-10 0 -24.5 6t-37.5 25q-20 17 -32 34t-12 33q0 13 6.5 28t20.5 35z" />
    <glyph glyph-name="uni0629" unicode="&#x629;" horiz-adv-x="696" arabic-form="isolated" 
d="M230 896q13 0 38.5 -9.5t54.5 -23t57.5 -29t46.5 -27.5q51 -37 86 -68.5t56.5 -67.5t31.5 -79.5t10 -104.5q0 -31 -6 -63.5t-16 -62.5t-23.5 -55.5t-28.5 -42.5t-38 -34t-54 -30.5t-71.5 -22t-89.5 -8.5q-105 0 -152 55t-47 165q0 50 10.5 100t28.5 98t40.5 92.5
t46.5 83.5q-12 5 -21.5 11.5t-9.5 12.5q0 9 5.5 27t13.5 36.5t16.5 32.5t14.5 14zM551 449q0 39 -24.5 80t-63.5 78.5t-86.5 69.5t-92.5 53q-23 -24 -47 -57t-43.5 -68.5t-31.5 -70.5t-12 -64q0 -23 8 -51t27 -52t50.5 -40.5t79.5 -16.5q55 0 99 13t74.5 33.5t46.5 45
t16 47.5zM169 1200q14 18 27.5 29.5t27.5 11.5q11 0 24.5 -6t33.5 -22q41 -30 41 -61q0 -9 -5.5 -23t-18.5 -31q-14 -20 -28 -31.5t-30 -11.5q-9 0 -22.5 5.5t-33.5 22.5q-19 14 -30 30t-11 31q0 11 5.5 24.5t19.5 31.5zM365 1215q13 18 27 29.5t28 11.5q11 0 24.5 -5.5
t33.5 -21.5q41 -32 41 -62q0 -9 -5 -23t-18 -31q-15 -20 -29 -31t-30 -11q-9 0 -22.5 5.5t-33.5 22.5q-18 15 -29.5 30.5t-11.5 29.5q0 11 5.5 24.5t19.5 31.5z" />
    <glyph glyph-name="uni062A" unicode="&#x62a;" horiz-adv-x="1627" arabic-form="isolated" 
d="M1475 269q-363 -152 -805 -152q-170 0 -282.5 30t-179.5 80.5t-95 115.5t-28 135q0 75 18 134t39 104q6 13 10.5 21.5t10 13.5t12 6.5t17.5 1.5q19 0 26.5 -4.5t7.5 -15.5q0 -8 -8 -24.5t-18 -41.5t-18 -59t-8 -77q0 -59 27 -110.5t88.5 -90.5t161.5 -61.5t246 -22.5
q65 0 136 5t142.5 14t141.5 22t133.5 28.5t117.5 33.5t94 37q0 72 -25.5 140t-58.5 125q-10 18 -10 31q0 18 6.5 39t15.5 38t18.5 28.5t15.5 11.5q9 0 15 -8t17 -28q17 -30 32.5 -65.5t27.5 -72.5t19 -74.5t7 -71.5q0 -41 -7.5 -84t-21.5 -82q-6 -17 -16 -31t-22 -19z
M658 926q14 18 27.5 29.5t27.5 11.5q11 0 24.5 -6t33.5 -22q41 -30 41 -61q0 -9 -5.5 -23t-18.5 -31q-14 -20 -28 -31.5t-30 -11.5q-9 0 -22.5 5.5t-33.5 22.5q-19 14 -30 30t-11 31q0 11 5.5 24.5t19.5 31.5zM854 941q13 18 27 29.5t28 11.5q11 0 24.5 -5.5t33.5 -21.5
q41 -32 41 -62q0 -9 -5 -23t-18 -31q-15 -20 -29 -31t-30 -11q-9 0 -22.5 5.5t-33.5 22.5q-18 15 -29.5 30.5t-11.5 29.5q0 11 5.5 24.5t19.5 31.5z" />
    <glyph glyph-name="uni062B" unicode="&#x62b;" horiz-adv-x="1627" arabic-form="isolated" 
d="M1475 269q-363 -152 -805 -152q-170 0 -282.5 30t-179.5 80.5t-95 115.5t-28 135q0 75 18 134t39 104q6 13 10.5 21.5t10 13.5t12 6.5t17.5 1.5q19 0 26.5 -4.5t7.5 -15.5q0 -8 -8 -24.5t-18 -41.5t-18 -59t-8 -77q0 -59 27 -110.5t88.5 -90.5t161.5 -61.5t246 -22.5
q65 0 136 5t142.5 14t141.5 22t133.5 28.5t117.5 33.5t94 37q0 72 -25.5 140t-58.5 125q-10 18 -10 31q0 18 6.5 39t15.5 38t18.5 28.5t15.5 11.5q9 0 15 -8t17 -28q17 -30 32.5 -65.5t27.5 -72.5t19 -74.5t7 -71.5q0 -41 -7.5 -84t-21.5 -82q-6 -17 -16 -31t-22 -19z
M659 894q13 18 27 29t28 11q11 0 24.5 -6t33.5 -21q41 -30 41 -60q0 -9 -5.5 -22.5t-18.5 -30.5q-14 -19 -28 -30.5t-30 -11.5q-9 0 -22.5 5.5t-33.5 22.5q-19 14 -30 29.5t-11 29.5q0 11 5.5 24.5t19.5 30.5zM855 909q13 17 27 28.5t28 11.5q11 0 24.5 -5.5t33.5 -21.5
q41 -30 41 -60q0 -9 -5.5 -22.5t-18.5 -30.5q-15 -20 -28.5 -31t-29.5 -11q-9 0 -22.5 5t-33.5 22q-19 14 -30 29.5t-11 30.5q0 11 5.5 24t19.5 31zM731 1102q13 17 27 28.5t28 11.5q11 0 24.5 -5.5t33.5 -21.5q41 -30 41 -60q0 -9 -5.5 -22.5t-19.5 -30.5
q-14 -20 -27.5 -30.5t-29.5 -10.5q-9 0 -22.5 4.5t-33.5 21.5q-19 14 -30 30t-11 30q0 11 5.5 24t19.5 31z" />
    <glyph glyph-name="uni062C" unicode="&#x62c;" horiz-adv-x="1205" arabic-form="isolated" 
d="M663 689q-46 9 -93.5 18.5t-95 17.5t-93.5 13t-88 5q-52 0 -84.5 -10.5t-53 -22.5t-32 -22.5t-21.5 -10.5q-5 0 -7.5 4.5t-2.5 18.5q0 11 0.5 17t4.5 13q29 61 78.5 101t129.5 40q55 0 114 -7t121.5 -17t128.5 -21.5t136 -20.5q69 -11 137.5 -17t119.5 -6q11 0 11 -10
q0 -6 -3 -17.5t-13 -31.5q-16 -29 -28.5 -46t-23.5 -18q-30 -2 -60 -3.5t-65.5 -6t-78 -12.5t-97.5 -23q-69 -19 -137 -48.5t-130 -69.5t-114.5 -89.5t-91 -106.5t-60.5 -122.5t-22 -136.5q0 -129 55.5 -217t151 -142.5t224 -78t275.5 -23.5q54 0 104 3t90 6t67 6t36 3
q7 0 10 -4t3 -16q0 -29 -15 -35q-47 -20 -99.5 -37t-104 -29.5t-99 -19.5t-84.5 -7q-139 0 -243 19t-179.5 53.5t-124.5 83.5t-78.5 109.5t-41 130.5t-11.5 148q0 103 28.5 189t68.5 151.5t81 110t67 64.5q75 63 160 104t173 72v4zM596 163q14 20 29.5 33t31.5 13
q11 0 25.5 -7t37.5 -25q22 -17 34 -33.5t12 -34.5q0 -10 -6.5 -24.5t-21.5 -34.5q-15 -22 -30.5 -35t-32.5 -13q-10 0 -24.5 6t-37.5 25q-20 17 -32 34t-12 33q0 13 6.5 28t20.5 35z" />
    <glyph glyph-name="uni062D" unicode="&#x62d;" horiz-adv-x="1205" arabic-form="isolated" 
d="M663 689q-46 9 -93.5 18.5t-95 17.5t-93.5 13t-88 5q-52 0 -84.5 -10.5t-53 -22.5t-32 -22.5t-21.5 -10.5q-5 0 -7.5 4.5t-2.5 18.5q0 11 0.5 17t4.5 13q29 61 78.5 101t129.5 40q55 0 114 -7t121.5 -17t128.5 -21.5t136 -20.5q69 -11 137.5 -17t119.5 -6q11 0 11 -10
q0 -6 -3 -17.5t-13 -31.5q-16 -29 -28.5 -46t-23.5 -18q-30 -2 -60 -3.5t-65.5 -6t-78 -12.5t-97.5 -23q-69 -19 -137 -48.5t-130 -69.5t-114.5 -89.5t-91 -106.5t-60.5 -122.5t-22 -136.5q0 -129 55.5 -217t151 -142.5t224 -78t275.5 -23.5q54 0 104 3t90 6t67 6t36 3
q7 0 10 -4t3 -16q0 -29 -15 -35q-47 -20 -99.5 -37t-104 -29.5t-99 -19.5t-84.5 -7q-139 0 -243 19t-179.5 53.5t-124.5 83.5t-78.5 109.5t-41 130.5t-11.5 148q0 103 28.5 189t68.5 151.5t81 110t67 64.5q75 63 160 104t173 72v4z" />
    <glyph glyph-name="uni062E" unicode="&#x62e;" horiz-adv-x="1205" arabic-form="isolated" 
d="M663 689q-46 9 -93.5 18.5t-95 17.5t-93.5 13t-88 5q-52 0 -84.5 -10.5t-53 -22.5t-32 -22.5t-21.5 -10.5q-5 0 -7.5 4.5t-2.5 18.5q0 11 0.5 17t4.5 13q29 61 78.5 101t129.5 40q55 0 114 -7t121.5 -17t128.5 -21.5t136 -20.5q69 -11 137.5 -17t119.5 -6q11 0 11 -10
q0 -6 -3 -17.5t-13 -31.5q-16 -29 -28.5 -46t-23.5 -18q-30 -2 -60 -3.5t-65.5 -6t-78 -12.5t-97.5 -23q-69 -19 -137 -48.5t-130 -69.5t-114.5 -89.5t-91 -106.5t-60.5 -122.5t-22 -136.5q0 -129 55.5 -217t151 -142.5t224 -78t275.5 -23.5q54 0 104 3t90 6t67 6t36 3
q7 0 10 -4t3 -16q0 -29 -15 -35q-47 -20 -99.5 -37t-104 -29.5t-99 -19.5t-84.5 -7q-139 0 -243 19t-179.5 53.5t-124.5 83.5t-78.5 109.5t-41 130.5t-11.5 148q0 103 28.5 189t68.5 151.5t81 110t67 64.5q75 63 160 104t173 72v4zM472 1206q14 20 29.5 33t31.5 13
q11 0 25.5 -7t37.5 -25q22 -17 34 -33.5t12 -34.5q0 -10 -6.5 -24.5t-21.5 -34.5q-15 -22 -30.5 -35t-32.5 -13q-10 0 -24.5 6t-37.5 25q-20 17 -32 34t-12 33q0 13 6.5 28t20.5 35z" />
    <glyph glyph-name="uni062F" unicode="&#x62f;" horiz-adv-x="809" arabic-form="isolated" 
d="M674 230q-39 -22 -87 -39.5t-100 -29.5t-104 -18.5t-98 -6.5q-56 0 -91.5 6t-56 19.5t-29.5 35.5t-12 54q-6 29 -5 70q1 14 2 33.5t4 34.5q2 5 6 7.5t15 2.5q12 0 16 -2.5t4 -7.5q0 -29 7 -51t25 -36.5t48.5 -22t77.5 -7.5q35 0 75.5 4.5t81.5 11.5t79 16t67.5 18
t47 17.5t17.5 14.5q-2 40 -17 85t-39.5 89.5t-55.5 86.5t-65 77.5t-69 62.5t-66 40l-25 7q-9 4 -15.5 6.5t-6.5 7.5q0 6 3.5 18.5t8.5 28t12 32t13 31.5q5 10 11 19t19 9q18 0 47 -19q81 -55 139.5 -124.5t96.5 -141.5t56 -138.5t18 -115.5q0 -48 -5.5 -83t-16.5 -62
q-9 -27 -33 -40z" />
    <glyph glyph-name="uni0630" unicode="&#x630;" horiz-adv-x="809" arabic-form="isolated" 
d="M674 230q-39 -22 -87 -39.5t-100 -29.5t-104 -18.5t-98 -6.5q-56 0 -91.5 6t-56 19.5t-29.5 35.5t-12 54q-6 29 -5 70q1 14 2 33.5t4 34.5q2 5 6 7.5t15 2.5q12 0 16 -2.5t4 -7.5q0 -29 7 -51t25 -36.5t48.5 -22t77.5 -7.5q35 0 75.5 4.5t81.5 11.5t79 16t67.5 18
t47 17.5t17.5 14.5q-2 40 -17 85t-39.5 89.5t-55.5 86.5t-65 77.5t-69 62.5t-66 40l-25 7q-9 4 -15.5 6.5t-6.5 7.5q0 6 3.5 18.5t8.5 28t12 32t13 31.5q5 10 11 19t19 9q18 0 47 -19q81 -55 139.5 -124.5t96.5 -141.5t56 -138.5t18 -115.5q0 -48 -5.5 -83t-16.5 -62
q-9 -27 -33 -40zM295 1302q14 20 29.5 33t31.5 13q11 0 25.5 -7t37.5 -25q22 -17 34 -33.5t12 -34.5q0 -10 -6.5 -24.5t-21.5 -34.5q-15 -22 -30.5 -35t-32.5 -13q-10 0 -24.5 6t-37.5 25q-20 17 -32 34t-12 33q0 13 6.5 28t20.5 35z" />
    <glyph glyph-name="uni0631" unicode="&#x631;" horiz-adv-x="842" arabic-form="isolated" 
d="M571 620q-5 7 -7.5 13.5t-2.5 17.5q0 19 5.5 39.5t13.5 37.5t17 28t16 11q9 0 16.5 -10t17.5 -24q48 -75 81.5 -175.5t33.5 -229.5q0 -60 -15.5 -126.5t-44 -131t-68.5 -123t-89.5 -103t-107 -71t-119.5 -26.5q-64 0 -133.5 17t-144.5 59q-12 7 -20 12t-12.5 10.5
t-6 12.5t-1.5 18q0 34 17 34q9 0 25.5 -9t41 -19.5t56 -19.5t69.5 -9q66 0 127.5 24.5t115.5 64t99 88.5t77 97.5t49.5 91.5t17.5 70t-11 69.5t-29 89t-40 92.5t-44 80z" />
    <glyph glyph-name="uni0632" unicode="&#x632;" horiz-adv-x="842" arabic-form="isolated" 
d="M571 620q-5 7 -7.5 13.5t-2.5 17.5q0 19 5.5 39.5t13.5 37.5t17 28t16 11q9 0 16.5 -10t17.5 -24q48 -75 81.5 -175.5t33.5 -229.5q0 -60 -15.5 -126.5t-44 -131t-68.5 -123t-89.5 -103t-107 -71t-119.5 -26.5q-64 0 -133.5 17t-144.5 59q-12 7 -20 12t-12.5 10.5
t-6 12.5t-1.5 18q0 34 17 34q9 0 25.5 -9t41 -19.5t56 -19.5t69.5 -9q66 0 127.5 24.5t115.5 64t99 88.5t77 97.5t49.5 91.5t17.5 70t-11 69.5t-29 89t-40 92.5t-44 80zM484 1145q14 20 29.5 33t31.5 13q11 0 25.5 -7t37.5 -25q22 -17 34 -33.5t12 -34.5q0 -10 -6.5 -24.5
t-21.5 -34.5q-15 -22 -30.5 -35t-32.5 -13q-10 0 -24.5 6t-37.5 25q-20 17 -32 34t-12 33q0 13 6.5 28t20.5 35z" />
    <glyph glyph-name="uni0633" unicode="&#x633;" horiz-adv-x="1798" arabic-form="isolated" 
d="M1601 564q0 8 3.5 25t19.5 44q13 22 21.5 34t13.5 12q7 0 12 -11q6 -12 13.5 -33t14 -45.5t10.5 -51.5t4 -51q0 -33 -9 -80.5t-27.5 -90.5t-47.5 -73.5t-68 -30.5q-36 0 -72.5 14t-68 34t-54.5 41.5t-31 36.5q-19 -35 -45.5 -60t-57 -41.5t-63.5 -24t-64 -6.5
q-23 0 -43.5 3t-40.5 7q0 -14 1 -31.5t1 -34.5q0 -23 -2.5 -49t-8 -53.5t-12.5 -54t-16 -48.5q-30 -66 -82.5 -118.5t-119.5 -89t-146 -56.5t-161 -20q-112 0 -187 29.5t-120 79t-64 115t-19 137.5q0 85 22.5 171t60.5 167q8 17 17 24t29 7q15 0 24 -4.5t9 -12.5
q0 -7 -10 -32t-21.5 -62t-21.5 -83t-10 -94q0 -69 17.5 -125.5t55.5 -96t98.5 -61.5t146.5 -22q68 0 135.5 16.5t127 47.5t107.5 75t76 98q2 106 -18 204t-71 194q-5 9 -8 17t-3 17q0 18 6 38.5t15 38t18.5 29t15.5 11.5q9 0 13.5 -10.5t11.5 -25.5q19 -43 33 -80.5
t28 -82.5q9 -19 23.5 -30t31.5 -17t34.5 -7.5t31.5 -1.5q61 0 101.5 19t68 54.5t45.5 85t35 110.5q2 7 9 11t29 4q17 0 23 -3t6 -11q0 -11 -3.5 -29t-8.5 -38.5t-10.5 -40.5t-10.5 -35q13 -27 36.5 -49t51 -38t56.5 -25t53 -9q26 0 38 20.5t12 65.5q0 30 -6.5 54.5t-14 43
t-13.5 30t-6 15.5z" />
    <glyph glyph-name="uni0634" unicode="&#x634;" horiz-adv-x="1798" arabic-form="isolated" 
d="M1601 564q0 8 3.5 25t19.5 44q13 22 21.5 34t13.5 12q7 0 12 -11q6 -12 13.5 -33t14 -45.5t10.5 -51.5t4 -51q0 -33 -9 -80.5t-27.5 -90.5t-47.5 -73.5t-68 -30.5q-36 0 -72.5 14t-68 34t-54.5 41.5t-31 36.5q-19 -35 -45.5 -60t-57 -41.5t-63.5 -24t-64 -6.5
q-23 0 -43.5 3t-40.5 7q0 -14 1 -31.5t1 -34.5q0 -23 -2.5 -49t-8 -53.5t-12.5 -54t-16 -48.5q-30 -66 -82.5 -118.5t-119.5 -89t-146 -56.5t-161 -20q-112 0 -187 29.5t-120 79t-64 115t-19 137.5q0 85 22.5 171t60.5 167q8 17 17 24t29 7q15 0 24 -4.5t9 -12.5
q0 -7 -10 -32t-21.5 -62t-21.5 -83t-10 -94q0 -69 17.5 -125.5t55.5 -96t98.5 -61.5t146.5 -22q68 0 135.5 16.5t127 47.5t107.5 75t76 98q2 106 -18 204t-71 194q-5 9 -8 17t-3 17q0 18 6 38.5t15 38t18.5 29t15.5 11.5q9 0 13.5 -10.5t11.5 -25.5q19 -43 33 -80.5
t28 -82.5q9 -19 23.5 -30t31.5 -17t34.5 -7.5t31.5 -1.5q61 0 101.5 19t68 54.5t45.5 85t35 110.5q2 7 9 11t29 4q17 0 23 -3t6 -11q0 -11 -3.5 -29t-8.5 -38.5t-10.5 -40.5t-10.5 -35q13 -27 36.5 -49t51 -38t56.5 -25t53 -9q26 0 38 20.5t12 65.5q0 30 -6.5 54.5t-14 43
t-13.5 30t-6 15.5zM1103 914q13 18 27 29t28 11q11 0 24.5 -6t33.5 -21q41 -30 41 -60q0 -9 -5.5 -22.5t-18.5 -30.5q-14 -19 -28 -30.5t-30 -11.5q-9 0 -22.5 5.5t-33.5 22.5q-19 14 -30 29.5t-11 29.5q0 11 5.5 24.5t19.5 30.5zM1299 929q13 17 27 28.5t28 11.5
q11 0 24.5 -5.5t33.5 -21.5q41 -30 41 -60q0 -9 -5.5 -22.5t-18.5 -30.5q-15 -20 -28.5 -31t-29.5 -11q-9 0 -22.5 5t-33.5 22q-19 14 -30 29.5t-11 30.5q0 11 5.5 24t19.5 31zM1175 1122q13 17 27 28.5t28 11.5q11 0 24.5 -5.5t33.5 -21.5q41 -30 41 -60q0 -9 -5.5 -22.5
t-19.5 -30.5q-14 -20 -27.5 -30.5t-29.5 -10.5q-9 0 -22.5 4.5t-33.5 21.5q-19 14 -30 30t-11 30q0 11 5.5 24t19.5 31z" />
    <glyph glyph-name="uni0635" unicode="&#x635;" horiz-adv-x="2091" arabic-form="isolated" 
d="M1020 198q1 -11 1.5 -27t0.5 -28q0 -111 -43 -200t-116.5 -151.5t-172.5 -96.5t-210 -34q-197 0 -296 91t-99 274q0 43 7 87.5t18 87.5t25.5 82t29.5 70q11 22 19.5 30t29.5 8q15 0 24 -4.5t9 -12.5q0 -7 -9.5 -31.5t-21.5 -61.5t-21.5 -83t-9.5 -95q0 -152 84 -228.5
t235 -76.5q65 0 131.5 15.5t126.5 45t108.5 73.5t77.5 101q0 65 -5 119.5t-16.5 102.5t-28.5 92.5t-41 89.5q-5 8 -7 14t-2 16q0 18 6 38.5t15 38t18.5 29t15.5 11.5q8 0 14 -10.5t14 -25.5l39 -86q25 -54 47.5 -89t51.5 -42q41 41 88 88.5t99.5 95t109 91.5t117 78t124 54
t129.5 20q50 0 98.5 -21t86.5 -53.5t61.5 -72t23.5 -75.5q0 -38 -9 -73.5t-24 -67.5t-34 -59.5t-39 -49.5q-40 -26 -102.5 -48t-138 -37.5t-160 -24.5t-167.5 -9q-76 0 -155 7t-157 24zM1918 414q-1 14 -4 26t-6 26q-6 33 -26.5 64.5t-52 56t-71.5 40t-85 15.5
q-49 0 -111.5 -24.5t-132 -69t-142.5 -106.5t-142 -137q52 -7 103.5 -10t109.5 -3q83 0 166 9t157.5 25t135.5 38.5t101 49.5z" />
    <glyph glyph-name="uni0636" unicode="&#x636;" horiz-adv-x="2091" arabic-form="isolated" 
d="M1020 198q1 -11 1.5 -27t0.5 -28q0 -111 -43 -200t-116.5 -151.5t-172.5 -96.5t-210 -34q-197 0 -296 91t-99 274q0 43 7 87.5t18 87.5t25.5 82t29.5 70q11 22 19.5 30t29.5 8q15 0 24 -4.5t9 -12.5q0 -7 -9.5 -31.5t-21.5 -61.5t-21.5 -83t-9.5 -95q0 -152 84 -228.5
t235 -76.5q65 0 131.5 15.5t126.5 45t108.5 73.5t77.5 101q0 65 -5 119.5t-16.5 102.5t-28.5 92.5t-41 89.5q-5 8 -7 14t-2 16q0 18 6 38.5t15 38t18.5 29t15.5 11.5q8 0 14 -10.5t14 -25.5l39 -86q25 -54 47.5 -89t51.5 -42q41 41 88 88.5t99.5 95t109 91.5t117 78t124 54
t129.5 20q50 0 98.5 -21t86.5 -53.5t61.5 -72t23.5 -75.5q0 -38 -9 -73.5t-24 -67.5t-34 -59.5t-39 -49.5q-40 -26 -102.5 -48t-138 -37.5t-160 -24.5t-167.5 -9q-76 0 -155 7t-157 24zM1918 414q-1 14 -4 26t-6 26q-6 33 -26.5 64.5t-52 56t-71.5 40t-85 15.5
q-49 0 -111.5 -24.5t-132 -69t-142.5 -106.5t-142 -137q52 -7 103.5 -10t109.5 -3q83 0 166 9t157.5 25t135.5 38.5t101 49.5zM1337 1051q14 20 29.5 33t31.5 13q11 0 25.5 -7t37.5 -25q22 -17 34 -33.5t12 -34.5q0 -10 -6.5 -24.5t-21.5 -34.5q-15 -22 -30.5 -35t-32.5 -13
q-10 0 -24.5 6t-37.5 25q-20 17 -32 34t-12 33q0 13 6.5 28t20.5 35z" />
    <glyph glyph-name="uni0637" unicode="&#x637;" horiz-adv-x="1535" arabic-form="isolated" 
d="M569 272q176 3 312 20.5t235 45t162.5 61.5t95.5 70q-4 25 -25.5 57.5t-56 61.5t-80 49.5t-97.5 20.5q-59 0 -128 -31.5t-140.5 -84.5t-142.5 -123t-135 -147zM1300 288q-169 -76 -367.5 -109t-422.5 -35q-26 0 -50.5 0.5t-47.5 1.5q-34 2 -76 11.5t-86 23t-86.5 30
t-77.5 32.5q-16 7 -16 36q0 19 12 19q9 0 40 -4t82 -8.5t121.5 -8.5t157.5 -4l74 90q5 7 8.5 20t6 29.5t4 33.5t1.5 32q-4 63 -12.5 150t-18 180.5t-18 184t-12.5 161.5q-2 16 -2.5 29.5t0.5 24.5q-18 19 -24.5 41t-6.5 39q1 32 18.5 74.5t45.5 85.5q4 7 10 7q8 0 9 -7
q1 -17 4.5 -31t12.5 -28t24 -31t40 -41q12 -11 15.5 -19.5t3.5 -17.5q0 -12 -5.5 -29.5t-13.5 -35t-18 -31t-19 -17.5q3 -67 8 -145t9.5 -157.5t8.5 -155t5 -137.5q-1 -32 -3 -67t-7 -62q55 56 121 115.5t137 109t144.5 81t143.5 31.5q48 0 96.5 -21.5t87.5 -54.5t64 -73.5
t25 -78.5q0 -73 -40.5 -143t-109.5 -121z" />
    <glyph glyph-name="uni0638" unicode="&#x638;" horiz-adv-x="1535" arabic-form="isolated" 
d="M569 272q176 3 312 20.5t235 45t162.5 61.5t95.5 70q-4 25 -25.5 57.5t-56 61.5t-80 49.5t-97.5 20.5q-59 0 -128 -31.5t-140.5 -84.5t-142.5 -123t-135 -147zM1300 288q-169 -76 -367.5 -109t-422.5 -35q-26 0 -50.5 0.5t-47.5 1.5q-34 2 -76 11.5t-86 23t-86.5 30
t-77.5 32.5q-16 7 -16 36q0 19 12 19q9 0 40 -4t82 -8.5t121.5 -8.5t157.5 -4l74 90q5 7 8.5 20t6 29.5t4 33.5t1.5 32q-4 63 -12.5 150t-18 180.5t-18 184t-12.5 161.5q-2 16 -2.5 29.5t0.5 24.5q-18 19 -24.5 41t-6.5 39q1 32 18.5 74.5t45.5 85.5q4 7 10 7q8 0 9 -7
q1 -17 4.5 -31t12.5 -28t24 -31t40 -41q12 -11 15.5 -19.5t3.5 -17.5q0 -12 -5.5 -29.5t-13.5 -35t-18 -31t-19 -17.5q3 -67 8 -145t9.5 -157.5t8.5 -155t5 -137.5q-1 -32 -3 -67t-7 -62q55 56 121 115.5t137 109t144.5 81t143.5 31.5q48 0 96.5 -21.5t87.5 -54.5t64 -73.5
t25 -78.5q0 -73 -40.5 -143t-109.5 -121zM916 1154q14 20 29.5 33t31.5 13q11 0 25.5 -7t37.5 -25q22 -17 34 -33.5t12 -34.5q0 -10 -6.5 -24.5t-21.5 -34.5q-15 -22 -30.5 -35t-32.5 -13q-10 0 -24.5 6t-37.5 25q-20 17 -32 34t-12 33q0 13 6.5 28t20.5 35z" />
    <glyph glyph-name="uni0639" unicode="&#x639;" horiz-adv-x="1193" arabic-form="isolated" 
d="M852 771q0 -9 -5.5 -26.5t-14 -35.5t-19 -33t-20.5 -19q-150 -61 -268.5 -127.5t-201.5 -143.5t-127 -166t-44 -194q0 -116 48.5 -197t135.5 -133.5t208 -79t266 -33.5q118 -7 205.5 1t138.5 14q14 0 14 -20q0 -29 -16 -35q-49 -19 -101 -36t-104.5 -29.5t-103.5 -20
t-96 -7.5q-200 0 -328.5 39.5t-202.5 109t-102.5 165t-28.5 207.5q0 117 27 206.5t67.5 158t87.5 117.5t88 84q-40 17 -82.5 45.5t-78 63.5t-58.5 74.5t-23 77.5q0 58 25.5 122t67.5 118t97.5 89t115.5 35q49 0 86.5 -8t66 -20t49 -26.5t36.5 -27.5q16 -11 21.5 -22.5
t5.5 -34.5q0 -16 -4.5 -22t-12.5 -6t-23.5 9.5t-37.5 21t-49.5 21t-59.5 9.5q-29 0 -69 -9.5t-82 -30t-81 -52.5t-65 -76q0 -24 15 -50.5t39 -52.5t55 -49.5t63 -41.5t62.5 -28.5t54.5 -10.5q10 0 27.5 4.5t39 12t45.5 17.5t47 21l175 75q16 7 22.5 2.5t6.5 -16.5z" />
    <glyph glyph-name="uni063A" unicode="&#x63a;" horiz-adv-x="1193" arabic-form="isolated" 
d="M852 771q0 -9 -5.5 -26.5t-14 -35.5t-19 -33t-20.5 -19q-150 -61 -268.5 -127.5t-201.5 -143.5t-127 -166t-44 -194q0 -116 48.5 -197t135.5 -133.5t208 -79t266 -33.5q118 -7 205.5 1t138.5 14q14 0 14 -20q0 -29 -16 -35q-49 -19 -101 -36t-104.5 -29.5t-103.5 -20
t-96 -7.5q-200 0 -328.5 39.5t-202.5 109t-102.5 165t-28.5 207.5q0 117 27 206.5t67.5 158t87.5 117.5t88 84q-40 17 -82.5 45.5t-78 63.5t-58.5 74.5t-23 77.5q0 58 25.5 122t67.5 118t97.5 89t115.5 35q49 0 86.5 -8t66 -20t49 -26.5t36.5 -27.5q16 -11 21.5 -22.5
t5.5 -34.5q0 -16 -4.5 -22t-12.5 -6t-23.5 9.5t-37.5 21t-49.5 21t-59.5 9.5q-29 0 -69 -9.5t-82 -30t-81 -52.5t-65 -76q0 -24 15 -50.5t39 -52.5t55 -49.5t63 -41.5t62.5 -28.5t54.5 -10.5q10 0 27.5 4.5t39 12t45.5 17.5t47 21l175 75q16 7 22.5 2.5t6.5 -16.5zM273 1426
q14 20 29.5 33t31.5 13q11 0 25.5 -7t37.5 -25q22 -17 34 -33.5t12 -34.5q0 -10 -6.5 -24.5t-21.5 -34.5q-15 -22 -30.5 -35t-32.5 -13q-10 0 -24.5 6t-37.5 25q-20 17 -32 34t-12 33q0 13 6.5 28t20.5 35z" />
    <glyph glyph-name="uni063B.init" unicode="&#x63b;" horiz-adv-x="940" 
d="M99 1110q49 -37 103.5 -82t108.5 -94.5t105.5 -103t95.5 -107.5q21 -27 42.5 -60t38.5 -68t28 -71t11 -70q0 -37 -14 -76.5t-38 -78.5q-7 -11 -12.5 -18.5t-12.5 -13.5t-15 -11.5t-20 -11.5q-30 -15 -76.5 -30t-110.5 -27t-147 -19.5t-186 -7.5q-12 0 -27.5 3.5t-29 9.5
t-22.5 15.5t-9 21.5v35q0 10 9.5 17.5t24.5 12t33 6.5t35 2q93 0 180.5 7t161.5 21.5t130.5 35.5t86.5 49q-10 54 -41 110.5t-78 114.5t-107 115.5t-128 113.5l-10 -36q-10 -28 -35 -14q-19 10 -40 22t-41 25t-36.5 27t-26.5 29q-10 17 -15 43t-5 49q0 37 15.5 86.5
t40.5 97.5q9 16 55.5 47t119 69.5t165 82t193.5 85.5l322 139q6 2 12.5 0.5t6.5 -9.5t-3.5 -19t-12.5 -30q-15 -30 -25.5 -45t-20.5 -19q-95 -43 -200 -90t-208.5 -95t-199 -95t-171.5 -90zM218 1554q12 14 24 23.5t26 9.5q8 0 20.5 -4t29.5 -18q36 -27 36 -52q0 -8 -4 -19
t-16 -26q-14 -17 -26 -26t-26 -9q-8 0 -19.5 5t-30.5 20q-16 13 -25.5 25t-9.5 24q0 19 21 47zM391 1635q12 17 23.5 26t25.5 9q9 0 21.5 -4.5t29.5 -17.5q36 -27 36 -52q0 -8 -4 -19.5t-16 -25.5q-15 -17 -26.5 -26t-25.5 -9q-8 0 -20 4.5t-30 18.5q-16 12 -25.5 24
t-9.5 26q0 10 4.5 21t16.5 25z" />
    <glyph glyph-name="uni063B.medi" unicode="&#x63b;" horiz-adv-x="953" 
d="M953 160q-70 0 -121 14.5t-94 48t-83.5 88.5t-89.5 137h-3q-2 -36 -10 -68.5t-30 -71.5q-13 -23 -26 -35.5t-35 -23.5q-48 -23 -97 -39.5t-103.5 -27.5t-118.5 -16.5t-142 -5.5q-12 0 -27.5 3.5t-29 9.5t-22.5 15.5t-9 21.5v35q0 10 9.5 17.5t24.5 12t33 6.5t35 2
q80 0 156 8t140.5 23t114.5 35t79 44q-3 52 -20.5 102.5t-52.5 103t-88.5 109t-128.5 121.5q-54 46 -96 79t-82 62q-11 8 -18 18t-7 34q0 14 5 34t13 41.5t18 43t20 38.5q11 21 58.5 52t119 66.5t160.5 75t183 79t186.5 77t170.5 69.5q6 3 12.5 1t6.5 -10t-3.5 -18.5
t-12.5 -29.5q-15 -30 -25.5 -46.5t-20.5 -20.5q-107 -46 -210 -90t-203.5 -89t-199.5 -93t-198 -102q166 -124 310.5 -266.5t263.5 -323.5q46 -70 83 -114t71.5 -69t70 -34.5t77.5 -9.5zM218 1554q12 14 24 23.5t26 9.5q8 0 20.5 -4t29.5 -18q36 -27 36 -52q0 -8 -4 -19
t-16 -26q-14 -17 -26 -26t-26 -9q-8 0 -19.5 5t-30.5 20q-16 13 -25.5 25t-9.5 24q0 19 21 47zM391 1635q12 17 23.5 26t25.5 9q9 0 21.5 -4.5t29.5 -17.5q36 -27 36 -52q0 -8 -4 -19.5t-16 -25.5q-15 -17 -26.5 -26t-25.5 -9q-8 0 -20 4.5t-30 18.5q-16 12 -25.5 24
t-9.5 26q0 10 4.5 21t16.5 25z" />
    <glyph glyph-name="uni063B.fina" unicode="&#x63b;" horiz-adv-x="1831" 
d="M1831 160q-50 0 -91 7t-77 25t-69 48.5t-67 78.5q-18 24 -39.5 56.5t-40.5 65.5h-4q-2 -27 -9.5 -57.5t-17.5 -57.5t-22 -47.5t-23 -26.5q-39 -24 -101.5 -50t-150.5 -47t-203 -34.5t-259 -13.5q-117 0 -205 14.5t-151.5 40.5t-105 61.5t-66 77.5t-34.5 88.5t-10 93.5
q0 58 17 119t41 112q6 12 11 20.5t10 13t11.5 6.5t17.5 2q33 0 33 -18q0 -9 -8 -27t-17.5 -44t-17.5 -58t-8 -69q0 -51 21.5 -103.5t78 -95.5t155 -70.5t251.5 -27.5q126 0 236 10.5t200 29.5t157.5 46.5t108.5 61.5q-9 114 -84.5 219.5t-201.5 215.5q-18 16 -42 35
t-49 38.5t-49 37.5t-42 32q-11 8 -18.5 18.5t-7.5 34.5q0 14 5 33.5t13 40.5t18 43t20 40q10 20 54 49t112 63.5t154 73.5t180 79t191 79t187 75q6 3 12 1t6 -10t-3 -18.5t-12 -29.5q-15 -30 -25.5 -46.5t-20.5 -20.5q-201 -84 -402.5 -174.5t-409.5 -199.5
q162 -120 300 -252t241 -291q51 -77 92 -129.5t79.5 -84.5t77.5 -46t87 -14zM1101 1558q12 14 24 23.5t26 9.5q8 0 20.5 -4t29.5 -18q36 -27 36 -52q0 -8 -4 -19t-16 -26q-14 -17 -26 -26t-26 -9q-8 0 -19.5 5t-30.5 20q-16 13 -25.5 25t-9.5 24q0 19 21 47zM1274 1639
q12 17 23.5 26t25.5 9q9 0 21.5 -4.5t29.5 -17.5q36 -27 36 -52q0 -8 -4 -19.5t-16 -25.5q-15 -17 -26.5 -26t-25.5 -9q-8 0 -20 4.5t-30 18.5q-16 12 -25.5 24t-9.5 26q0 10 4.5 21t16.5 25z" />
    <glyph glyph-name="uni063C.init" unicode="&#x63c;" horiz-adv-x="940" 
d="M99 1110q49 -37 103.5 -82t108.5 -94.5t105.5 -103t95.5 -107.5q21 -27 42.5 -60t38.5 -68t28 -71t11 -70q0 -37 -14 -76.5t-38 -78.5q-7 -11 -12.5 -18.5t-12.5 -13.5t-15 -11.5t-20 -11.5q-30 -15 -76.5 -30t-110.5 -27t-147 -19.5t-186 -7.5q-12 0 -27.5 3.5t-29 9.5
t-22.5 15.5t-9 21.5v35q0 10 9.5 17.5t24.5 12t33 6.5t35 2q93 0 180.5 7t161.5 21.5t130.5 35.5t86.5 49q-10 54 -41 110.5t-78 114.5t-107 115.5t-128 113.5l-10 -36q-10 -28 -35 -14q-19 10 -40 22t-41 25t-36.5 27t-26.5 29q-10 17 -15 43t-5 49q0 37 15.5 86.5
t40.5 97.5q9 16 55.5 47t119 69.5t165 82t193.5 85.5l322 139q6 2 12.5 0.5t6.5 -9.5t-3.5 -19t-12.5 -30q-15 -30 -25.5 -45t-20.5 -19q-95 -43 -200 -90t-208.5 -95t-199 -95t-171.5 -90zM265 -35q13 18 26.5 29t28.5 11q11 0 24 -5.5t34 -20.5q41 -30 41 -61
q0 -10 -5.5 -23t-18.5 -30q-15 -19 -28.5 -30.5t-29.5 -11.5q-9 0 -22.5 5t-34.5 22q-19 15 -29.5 30t-10.5 30q0 11 5 24.5t20 30.5zM460 -20q14 17 27.5 28.5t27.5 11.5q11 0 25 -5.5t34 -21.5q41 -32 41 -60q0 -10 -5 -23t-20 -30q-28 -42 -57 -42q-10 0 -23 5t-33 22
q-19 14 -30.5 29.5t-11.5 30.5q0 11 5.5 23.5t19.5 31.5zM385 -218q13 17 26.5 28.5t28.5 11.5q11 0 24 -6t34 -21q41 -30 41 -60q0 -9 -5.5 -22.5t-18.5 -30.5q-15 -19 -28.5 -30.5t-29.5 -11.5q-9 0 -22.5 5.5t-34.5 22.5q-19 14 -29.5 29.5t-10.5 29.5q0 11 5 24.5
t20 30.5z" />
    <glyph glyph-name="uni063C.medi" unicode="&#x63c;" horiz-adv-x="953" 
d="M953 160q-70 0 -121 14.5t-94 48t-83.5 88.5t-89.5 137h-3q-2 -36 -10 -68.5t-30 -71.5q-13 -23 -26 -35.5t-35 -23.5q-48 -23 -97 -39.5t-103.5 -27.5t-118.5 -16.5t-142 -5.5q-12 0 -27.5 3.5t-29 9.5t-22.5 15.5t-9 21.5v35q0 10 9.5 17.5t24.5 12t33 6.5t35 2
q80 0 156 8t140.5 23t114.5 35t79 44q-3 52 -20.5 102.5t-52.5 103t-88.5 109t-128.5 121.5q-54 46 -96 79t-82 62q-11 8 -18 18t-7 34q0 14 5 34t13 41.5t18 43t20 38.5q11 21 58.5 52t119 66.5t160.5 75t183 79t186.5 77t170.5 69.5q6 3 12.5 1t6.5 -10t-3.5 -18.5
t-12.5 -29.5q-15 -30 -25.5 -46.5t-20.5 -20.5q-107 -46 -210 -90t-203.5 -89t-199.5 -93t-198 -102q166 -124 310.5 -266.5t263.5 -323.5q46 -70 83 -114t71.5 -69t70 -34.5t77.5 -9.5zM326 -35q13 18 26.5 29t28.5 11q11 0 24 -5.5t34 -20.5q41 -30 41 -61q0 -10 -5.5 -23
t-18.5 -30q-15 -19 -28.5 -30.5t-29.5 -11.5q-9 0 -22.5 5t-34.5 22q-19 15 -29.5 30t-10.5 30q0 11 5 24.5t20 30.5zM521 -20q14 17 27.5 28.5t27.5 11.5q11 0 25 -5.5t34 -21.5q41 -32 41 -60q0 -10 -5 -23t-20 -30q-28 -42 -57 -42q-10 0 -23 5t-33 22q-19 14 -30.5 29.5
t-11.5 30.5q0 11 5.5 23.5t19.5 31.5zM446 -218q13 17 26.5 28.5t28.5 11.5q11 0 24 -6t34 -21q41 -30 41 -60q0 -9 -5.5 -22.5t-18.5 -30.5q-15 -19 -28.5 -30.5t-29.5 -11.5q-9 0 -22.5 5.5t-34.5 22.5q-19 14 -29.5 29.5t-10.5 29.5q0 11 5 24.5t20 30.5z" />
    <glyph glyph-name="uni063C.fina" unicode="&#x63c;" horiz-adv-x="1831" 
d="M690 -98q13 18 26.5 29t28.5 11q11 0 24 -5.5t34 -20.5q41 -30 41 -61q0 -10 -5.5 -23t-18.5 -30q-15 -19 -28.5 -30.5t-29.5 -11.5q-9 0 -22.5 5t-34.5 22q-19 15 -29.5 30t-10.5 30q0 11 5 24.5t20 30.5zM885 -83q14 17 27.5 28.5t27.5 11.5q11 0 25 -5.5t34 -21.5
q41 -32 41 -60q0 -10 -5 -23t-20 -30q-28 -42 -57 -42q-10 0 -23 5t-33 22q-19 14 -30.5 29.5t-11.5 30.5q0 11 5.5 23.5t19.5 31.5zM810 -281q13 17 26.5 28.5t28.5 11.5q11 0 24 -6t34 -21q41 -30 41 -60q0 -9 -5.5 -22.5t-18.5 -30.5q-15 -19 -28.5 -30.5t-29.5 -11.5
q-9 0 -22.5 5.5t-34.5 22.5q-19 14 -29.5 29.5t-10.5 29.5q0 11 5 24.5t20 30.5zM1831 160q-50 0 -91 7t-77 25t-69 48.5t-67 78.5q-18 24 -39.5 56.5t-40.5 65.5h-4q-2 -27 -9.5 -57.5t-17.5 -57.5t-22 -47.5t-23 -26.5q-39 -24 -101.5 -50t-150.5 -47t-203 -34.5
t-259 -13.5q-117 0 -205 14.5t-151.5 40.5t-105 61.5t-66 77.5t-34.5 88.5t-10 93.5q0 58 17 119t41 112q6 12 11 20.5t10 13t11.5 6.5t17.5 2q33 0 33 -18q0 -9 -8 -27t-17.5 -44t-17.5 -58t-8 -69q0 -51 21.5 -103.5t78 -95.5t155 -70.5t251.5 -27.5q126 0 236 10.5
t200 29.5t157.5 46.5t108.5 61.5q-9 114 -84.5 219.5t-201.5 215.5q-18 16 -42 35t-49 38.5t-49 37.5t-42 32q-11 8 -18.5 18.5t-7.5 34.5q0 14 5 33.5t13 40.5t18 43t20 40q10 20 54 49t112 63.5t154 73.5t180 79t191 79t187 75q6 3 12 1t6 -10t-3 -18.5t-12 -29.5
q-15 -30 -25.5 -46.5t-20.5 -20.5q-201 -84 -402.5 -174.5t-409.5 -199.5q162 -120 300 -252t241 -291q51 -77 92 -129.5t79.5 -84.5t77.5 -46t87 -14z" />
    <glyph glyph-name="uni063D.init" unicode="&#x63d;" horiz-adv-x="484" 
d="M0 160q-12 0 -27.5 3.5t-29 9.5t-22.5 15.5t-9 21.5v35q0 10 9.5 17.5t24.5 12t33 6.5t35 2q87 0 168 20t139 54q-6 61 -26.5 129t-70.5 150q-6 8 -10 15.5t-4 16.5q0 15 7 36t16.5 39.5t19.5 31.5t17 13q5 0 10.5 -4t18.5 -23q16 -25 33.5 -60t32.5 -76.5t24.5 -88.5
t9.5 -96q0 -42 -8 -83t-20 -75q-6 -17 -14 -28t-23 -20q-60 -31 -144 -52.5t-190 -21.5zM106 931q-9 -17 -23.5 -21t-43.5 -4q-20 0 -23 10.5t12 36.5l106 188q8 14 25 19t50 5q32 0 47 -6t23 -20l107 -186q14 -25 6.5 -36t-37.5 -11q-15 0 -24 1t-15 3.5t-10.5 7.5t-8.5 13
l-96 172zM19 -91q14 18 27.5 29.5t27.5 11.5q11 0 24.5 -6t33.5 -22q41 -30 41 -61q0 -9 -5.5 -23t-18.5 -31q-14 -20 -28 -31.5t-30 -11.5q-9 0 -22.5 5.5t-33.5 22.5q-19 14 -30 30t-11 31q0 11 5.5 24.5t19.5 31.5zM215 -76q13 18 27 29.5t28 11.5q11 0 24.5 -5.5
t33.5 -21.5q41 -32 41 -62q0 -9 -5 -23t-18 -31q-15 -20 -29 -31t-30 -11q-9 0 -22.5 5.5t-33.5 22.5q-18 15 -29.5 30.5t-11.5 29.5q0 11 5.5 24.5t19.5 31.5z" />
    <glyph glyph-name="uni063D.medi" unicode="&#x63d;" horiz-adv-x="567" 
d="M567 160q-39 0 -75.5 9.5t-68 30.5t-55.5 53.5t-37 78.5h-4q-5 -11 -12.5 -23.5t-16.5 -24.5t-18 -22.5t-16 -17.5q-23 -19 -54.5 -34.5t-67 -26.5t-72.5 -17t-70 -6q-12 0 -27.5 3.5t-29 9.5t-22.5 15.5t-9 21.5v35q0 10 9.5 17.5t24.5 12t33 6.5t35 2q27 0 57 5t58 14
t51.5 21.5t38.5 27.5q17 15 31 42t25.5 61t21.5 71.5t19 73.5q2 8 4 13.5t8 8.5t18.5 4.5t34.5 1.5q11 0 15.5 -5t4.5 -12q0 -10 -3.5 -27t-8.5 -36.5t-10.5 -40.5t-9.5 -38q10 -91 65.5 -138t146.5 -47zM153 810q-9 -17 -23.5 -21t-43.5 -4q-20 0 -23 10.5t12 36.5l106 188
q8 14 25 19t50 5q32 0 47 -6t23 -20l107 -186q14 -25 6.5 -36t-37.5 -11q-15 0 -24 1t-15 3.5t-10.5 7.5t-8.5 13l-96 172zM14 -61q14 18 27.5 29.5t27.5 11.5q11 0 24.5 -6t33.5 -22q41 -30 41 -61q0 -9 -5.5 -23t-18.5 -31q-14 -20 -28 -31.5t-30 -11.5q-9 0 -22.5 5.5
t-33.5 22.5q-19 14 -30 30t-11 31q0 11 5.5 24.5t19.5 31.5zM210 -46q13 18 27 29.5t28 11.5q11 0 24.5 -5.5t33.5 -21.5q41 -32 41 -62q0 -9 -5 -23t-18 -31q-15 -20 -29 -31t-30 -11q-9 0 -22.5 5.5t-33.5 22.5q-18 15 -29.5 30.5t-11.5 29.5q0 11 5.5 24.5t19.5 31.5z
" />
    <glyph glyph-name="uni063D.fina" unicode="&#x63d;" horiz-adv-x="1174" 
d="M1174 160q-45 -2 -86 -4t-72 -5.5t-49 -8t-18 -9.5q0 -2 22.5 -6.5t56.5 -11t73.5 -15.5t73.5 -20.5t56.5 -25.5t22.5 -31q0 -16 -5.5 -34.5t-13.5 -37t-18 -36.5t-20 -32q-42 -35 -110.5 -67.5t-154 -58t-184 -41t-201.5 -15.5q-125 0 -212.5 32t-143 86t-81 124.5
t-25.5 148.5q0 52 9 103.5t22.5 98.5t30 88.5t31.5 73.5q10 17 18 26t31 9q18 0 25.5 -3t7.5 -14q0 -12 -11.5 -40t-26 -67t-26 -88.5t-11.5 -104.5q0 -84 28.5 -147t79.5 -105t121 -63t154 -21t173.5 11.5t170.5 32t146.5 48t100.5 59.5q-7 8 -34 15.5t-64 15.5t-79 15.5
t-78.5 15.5t-62.5 16.5t-31 17.5q-8 9 -14 23t-6 28t11 31t36.5 34.5t66 34t100.5 30.5q31 6 80.5 11.5t103.5 5.5zM183 587q-9 -17 -23.5 -21t-43.5 -4q-20 0 -23 10.5t12 36.5l106 188q8 14 25 19t50 5q32 0 47 -6t23 -20l107 -186q14 -25 6.5 -36t-37.5 -11q-15 0 -24 1
t-15 3.5t-10.5 7.5t-8.5 13l-96 172z" />
    <glyph glyph-name="uni063E.init" unicode="&#x63e;" horiz-adv-x="484" 
d="M0 160q-12 0 -27.5 3.5t-29 9.5t-22.5 15.5t-9 21.5v35q0 10 9.5 17.5t24.5 12t33 6.5t35 2q87 0 168 20t139 54q-6 61 -26.5 129t-70.5 150q-6 8 -10 15.5t-4 16.5q0 15 7 36t16.5 39.5t19.5 31.5t17 13q5 0 10.5 -4t18.5 -23q16 -25 33.5 -60t32.5 -76.5t24.5 -88.5
t9.5 -96q0 -42 -8 -83t-20 -75q-6 -17 -14 -28t-23 -20q-60 -31 -144 -52.5t-190 -21.5zM42 1140q14 18 27.5 29.5t27.5 11.5q11 0 24.5 -6t33.5 -22q41 -30 41 -61q0 -9 -5.5 -23t-18.5 -31q-14 -20 -28 -31.5t-30 -11.5q-9 0 -22.5 5.5t-33.5 22.5q-19 14 -30 30t-11 31
q0 11 5.5 24.5t19.5 31.5zM238 1155q13 18 27 29.5t28 11.5q11 0 24.5 -5.5t33.5 -21.5q41 -32 41 -62q0 -9 -5 -23t-18 -31q-15 -20 -29 -31t-30 -11q-9 0 -22.5 5.5t-33.5 22.5q-18 15 -29.5 30.5t-11.5 29.5q0 11 5.5 24.5t19.5 31.5zM19 -91q14 18 27.5 29.5t27.5 11.5
q11 0 24.5 -6t33.5 -22q41 -30 41 -61q0 -9 -5.5 -23t-18.5 -31q-14 -20 -28 -31.5t-30 -11.5q-9 0 -22.5 5.5t-33.5 22.5q-19 14 -30 30t-11 31q0 11 5.5 24.5t19.5 31.5zM215 -76q13 18 27 29.5t28 11.5q11 0 24.5 -5.5t33.5 -21.5q41 -32 41 -62q0 -9 -5 -23t-18 -31
q-15 -20 -29 -31t-30 -11q-9 0 -22.5 5.5t-33.5 22.5q-18 15 -29.5 30.5t-11.5 29.5q0 11 5.5 24.5t19.5 31.5z" />
    <glyph glyph-name="uni063E.medi" unicode="&#x63e;" horiz-adv-x="567" 
d="M567 160q-39 0 -75.5 9.5t-68 30.5t-55.5 53.5t-37 78.5h-4q-5 -11 -12.5 -23.5t-16.5 -24.5t-18 -22.5t-16 -17.5q-23 -19 -54.5 -34.5t-67 -26.5t-72.5 -17t-70 -6q-12 0 -27.5 3.5t-29 9.5t-22.5 15.5t-9 21.5v35q0 10 9.5 17.5t24.5 12t33 6.5t35 2q27 0 57 5t58 14
t51.5 21.5t38.5 27.5q17 15 31 42t25.5 61t21.5 71.5t19 73.5q2 8 4 13.5t8 8.5t18.5 4.5t34.5 1.5q11 0 15.5 -5t4.5 -12q0 -10 -3.5 -27t-8.5 -36.5t-10.5 -40.5t-9.5 -38q10 -91 65.5 -138t146.5 -47zM89 964q14 18 27.5 29.5t27.5 11.5q11 0 24.5 -6t33.5 -22
q41 -30 41 -61q0 -9 -5.5 -23t-18.5 -31q-14 -20 -28 -31.5t-30 -11.5q-9 0 -22.5 5.5t-33.5 22.5q-19 14 -30 30t-11 31q0 11 5.5 24.5t19.5 31.5zM285 979q13 18 27 29.5t28 11.5q11 0 24.5 -5.5t33.5 -21.5q41 -32 41 -62q0 -9 -5 -23t-18 -31q-15 -20 -29 -31t-30 -11
q-9 0 -22.5 5.5t-33.5 22.5q-18 15 -29.5 30.5t-11.5 29.5q0 11 5.5 24.5t19.5 31.5zM14 -61q14 18 27.5 29.5t27.5 11.5q11 0 24.5 -6t33.5 -22q41 -30 41 -61q0 -9 -5.5 -23t-18.5 -31q-14 -20 -28 -31.5t-30 -11.5q-9 0 -22.5 5.5t-33.5 22.5q-19 14 -30 30t-11 31
q0 11 5.5 24.5t19.5 31.5zM210 -46q13 18 27 29.5t28 11.5q11 0 24.5 -5.5t33.5 -21.5q41 -32 41 -62q0 -9 -5 -23t-18 -31q-15 -20 -29 -31t-30 -11q-9 0 -22.5 5.5t-33.5 22.5q-18 15 -29.5 30.5t-11.5 29.5q0 11 5.5 24.5t19.5 31.5z" />
    <glyph glyph-name="uni063E.fina" unicode="&#x63e;" horiz-adv-x="1174" 
d="M1174 160q-45 -2 -86 -4t-72 -5.5t-49 -8t-18 -9.5q0 -2 22.5 -6.5t56.5 -11t73.5 -15.5t73.5 -20.5t56.5 -25.5t22.5 -31q0 -16 -5.5 -34.5t-13.5 -37t-18 -36.5t-20 -32q-42 -35 -110.5 -67.5t-154 -58t-184 -41t-201.5 -15.5q-125 0 -212.5 32t-143 86t-81 124.5
t-25.5 148.5q0 52 9 103.5t22.5 98.5t30 88.5t31.5 73.5q10 17 18 26t31 9q18 0 25.5 -3t7.5 -14q0 -12 -11.5 -40t-26 -67t-26 -88.5t-11.5 -104.5q0 -84 28.5 -147t79.5 -105t121 -63t154 -21t173.5 11.5t170.5 32t146.5 48t100.5 59.5q-7 8 -34 15.5t-64 15.5t-79 15.5
t-78.5 15.5t-62.5 16.5t-31 17.5q-8 9 -14 23t-6 28t11 31t36.5 34.5t66 34t100.5 30.5q31 6 80.5 11.5t103.5 5.5zM119 699q14 18 27.5 29.5t27.5 11.5q11 0 24.5 -6t33.5 -22q41 -30 41 -61q0 -9 -5.5 -23t-18.5 -31q-14 -20 -28 -31.5t-30 -11.5q-9 0 -22.5 5.5
t-33.5 22.5q-19 14 -30 30t-11 31q0 11 5.5 24.5t19.5 31.5zM315 714q13 18 27 29.5t28 11.5q11 0 24.5 -5.5t33.5 -21.5q41 -32 41 -62q0 -9 -5 -23t-18 -31q-15 -20 -29 -31t-30 -11q-9 0 -22.5 5.5t-33.5 22.5q-18 15 -29.5 30.5t-11.5 29.5q0 11 5.5 24.5t19.5 31.5z
" />
    <glyph glyph-name="uni063F.init" unicode="&#x63f;" horiz-adv-x="484" 
d="M0 160q-12 0 -27.5 3.5t-29 9.5t-22.5 15.5t-9 21.5v35q0 10 9.5 17.5t24.5 12t33 6.5t35 2q87 0 168 20t139 54q-6 61 -26.5 129t-70.5 150q-6 8 -10 15.5t-4 16.5q0 15 7 36t16.5 39.5t19.5 31.5t17 13q5 0 10.5 -4t18.5 -23q16 -25 33.5 -60t32.5 -76.5t24.5 -88.5
t9.5 -96q0 -42 -8 -83t-20 -75q-6 -17 -14 -28t-23 -20q-60 -31 -144 -52.5t-190 -21.5zM42 1048q13 18 27 29t28 11q11 0 24.5 -6t33.5 -21q41 -30 41 -60q0 -9 -5.5 -22.5t-18.5 -30.5q-14 -19 -28 -30.5t-30 -11.5q-9 0 -22.5 5.5t-33.5 22.5q-19 14 -30 29.5t-11 29.5
q0 11 5.5 24.5t19.5 30.5zM238 1063q13 17 27 28.5t28 11.5q11 0 24.5 -5.5t33.5 -21.5q41 -30 41 -60q0 -9 -5.5 -22.5t-18.5 -30.5q-15 -20 -28.5 -31t-29.5 -11q-9 0 -22.5 5t-33.5 22q-19 14 -30 29.5t-11 30.5q0 11 5.5 24t19.5 31zM114 1256q13 17 27 28.5t28 11.5
q11 0 24.5 -5.5t33.5 -21.5q41 -30 41 -60q0 -9 -5.5 -22.5t-19.5 -30.5q-14 -20 -27.5 -30.5t-29.5 -10.5q-9 0 -22.5 4.5t-33.5 21.5q-19 14 -30 30t-11 30q0 11 5.5 24t19.5 31zM19 -91q14 18 27.5 29.5t27.5 11.5q11 0 24.5 -6t33.5 -22q41 -30 41 -61q0 -9 -5.5 -23
t-18.5 -31q-14 -20 -28 -31.5t-30 -11.5q-9 0 -22.5 5.5t-33.5 22.5q-19 14 -30 30t-11 31q0 11 5.5 24.5t19.5 31.5zM215 -76q13 18 27 29.5t28 11.5q11 0 24.5 -5.5t33.5 -21.5q41 -32 41 -62q0 -9 -5 -23t-18 -31q-15 -20 -29 -31t-30 -11q-9 0 -22.5 5.5t-33.5 22.5
q-18 15 -29.5 30.5t-11.5 29.5q0 11 5.5 24.5t19.5 31.5z" />
    </font>
</defs>
</svg>
