<?xml version="1.0" standalone="no"?>
<!DOCTYPE svg PUBLIC "-//W3C//DTD SVG 1.1//EN" "http://www.w3.org/Graphics/SVG/1.1/DTD/svg11.dtd" >
<svg xmlns="http://www.w3.org/2000/svg" xmlns:xlink="http://www.w3.org/1999/xlink" version="1.1">
<metadata>
Created by FontForge 20170731 at Mon Oct 30 16:13:17 2017
 By Aleksey,,,
Copyright 2016 The Oswald Project Authors (https://github.com/googlefonts/OswaldFont)
</metadata>
<defs>
<font id="Oswald-Light" horiz-adv-x="0" >
  <font-face 
    font-family="Oswald Light"
    font-weight="300"
    font-stretch="normal"
    units-per-em="1000"
    panose-1="0 0 4 0 0 0 0 0 0 0"
    ascent="800"
    descent="-200"
    x-height="578"
    cap-height="810"
    bbox="-222 -258 1043 1295"
    underline-thickness="50"
    underline-position="-150"
    unicode-range="U+000D-FB02"
  />
<missing-glyph horiz-adv-x="645" 
d="M71 810h502v-810h-502v810zM470 90v630h-296v-630h296z" />
    <glyph glyph-name="fi" unicode="fi" horiz-adv-x="452" 
d="M92 525h-74v53h74v60q0 74 23.5 110t88.5 36q26 0 53 -5v-55q-17 4 -40 4q-32 0 -41.5 -17t-9.5 -66v-67h219v-578h-73v525h-146v-525h-74v525zM318 757h68v-99h-68v99z" />
    <glyph glyph-name="fl" unicode="fl" horiz-adv-x="471" 
d="M92 525h-74v53h74v60q0 47 10 80.5t46 56.5t108 23q60 0 152 -19v-779h-74v738q-36 4 -69 4q-46 0 -67.5 -13t-26.5 -34t-5 -58v-59h93v-53h-93v-525h-74v525z" />
    <glyph glyph-name="f_f" unicode="ff" horiz-adv-x="505" 
d="M92 525h-74v53h74v60q0 49 7.5 80t30.5 49t68 18q32 0 59 -7v-54q-20 5 -41 5q-31 0 -40.5 -18.5t-9.5 -65.5v-67h93v-53h-93v-525h-74v525zM329 525h-74v53h74v60q0 49 7.5 80t30.5 49t68 18q32 0 59 -7v-54q-20 5 -41 5q-31 0 -40.5 -18.5t-9.5 -65.5v-67h93v-53h-93
v-525h-74v525z" />
    <glyph glyph-name="f_f_i" unicode="ffi" horiz-adv-x="702" 
d="M92 525h-74v53h74v60q0 49 7.5 80t30.5 49t68 18q34 0 59 -7v-54q-20 5 -41 5q-31 0 -40.5 -18.5t-9.5 -65.5v-67h162v60q0 50 7 80.5t30 48.5t69 18q34 0 59 -7v-54q-22 5 -41 5q-31 0 -41 -19t-10 -65v-67h234v-578h-73v525h-161v-525h-73v525h-162v-525h-74v525z
M562 757h73v-99h-73v99z" />
    <glyph glyph-name="f_f_l" unicode="ffl" horiz-adv-x="708" 
d="M645 779v-779h-73v738q-37 4 -70 4q-46 0 -67.5 -13t-26.5 -34t-5 -58v-59h94v-53h-94v-525h-73v525h-164v-525h-74v525h-74v53h74v60q0 49 7.5 80t30.5 49t68 18q32 0 59 -7v-54q-20 5 -41 5q-31 0 -40.5 -18.5t-9.5 -65.5v-67h164v60q0 48 9.5 81t45.5 56t108 23
q61 0 152 -19z" />
    <glyph glyph-name=".notdef" horiz-adv-x="645" 
d="M71 810h502v-810h-502v810zM470 90v630h-296v-630h296z" />
    <glyph glyph-name=".null" 
 />
    <glyph glyph-name="nonmarkingreturn" unicode="&#xd;" horiz-adv-x="204" 
 />
    <glyph glyph-name="NULL" 
 />
    <glyph glyph-name="NULL" 
 />
    <glyph glyph-name="space" unicode=" " horiz-adv-x="204" 
 />
    <glyph glyph-name="exclam" unicode="!" horiz-adv-x="201" 
d="M62 810h78l-27 -636h-26zM61 88h78v-88h-78v88z" />
    <glyph glyph-name="quotedbl" unicode="&#x22;" horiz-adv-x="215" 
d="M19 810h71l-31 -237h-40v237zM141 810h70l-30 -237h-40v237z" />
    <glyph glyph-name="numbersign" unicode="#" horiz-adv-x="465" 
d="M97 291h-56v55h65l22 141h-75v55h83l42 268h71l-41 -268h99l41 268h71l-41 -268h51v-55h-59l-23 -141h69v-55h-77l-45 -291h-71l45 291h-99l-45 -291h-71zM276 346l22 141h-99l-22 -141h99z" />
    <glyph glyph-name="dollar" unicode="$" horiz-adv-x="466" 
d="M238 -9q-94 1 -142 59t-55 160l67 20q9 -86 38.5 -132t97.5 -46q114 0 114 117q0 50 -23.5 87.5t-75.5 87.5l-143 137q-38 37 -56 76.5t-18 86.5q0 80 46.5 125.5t125.5 48.5v84h32v-84q80 -5 123 -53.5t50 -151.5l-65 -17q-6 81 -33.5 121.5t-89.5 40.5
q-55 0 -87.5 -26.5t-32.5 -80.5q0 -33 13 -60t44 -58l143 -135q55 -53 86.5 -107t31.5 -117q0 -82 -43 -128.5t-117 -53.5v-80h-31v79z" />
    <glyph glyph-name="percent" unicode="%" horiz-adv-x="732" 
d="M40 559v113q0 74 29 113.5t94 39.5q64 0 93 -39t29 -112v-116q0 -155 -122 -155q-123 0 -123 156zM463 817h64l-255 -817h-66zM206.5 485.5q12.5 25.5 12.5 70.5v119q0 45 -12 69t-44 24t-44 -24.5t-12 -69.5v-118q0 -45 12.5 -70.5t43.5 -25.5t43.5 25.5zM447 150v112
q0 74 28.5 113.5t93.5 39.5t94 -38.5t29 -112.5v-116q0 -154 -123 -154q-122 0 -122 156zM612.5 75.5q12.5 25.5 12.5 71.5v118q0 46 -12 70t-44 24q-31 0 -43.5 -24.5t-12.5 -69.5v-118q0 -46 12.5 -71.5t43.5 -25.5t43.5 25.5z" />
    <glyph glyph-name="ampersand" unicode="&#x26;" horiz-adv-x="604" 
d="M142 14.5q-42 24.5 -63.5 66t-21.5 93.5q0 62 31 119t99 122q-39 65 -56 96.5t-28 65.5t-11 70q0 80 46 125.5t126 45.5q75 0 120 -38.5t45 -105.5q0 -63 -45 -128t-124 -136l156 -246q26 36 43.5 92.5t19.5 102.5h71q0 -55 -25.5 -124.5t-64.5 -117.5q21 -28 43.5 -40
t48.5 -12v-72l-19 1q-58 5 -117 75q-30 -35 -74 -57t-98 -22q-60 0 -102 24.5zM357 675q0 39 -25.5 60.5t-69.5 21.5q-48 0 -73 -31t-25 -78q0 -43 17 -87.5t53 -108.5q123 123 123 223zM313 67.5q31 16.5 61 49.5l-158 246q-45 -50 -65 -96t-20 -93q0 -51 27 -87t86 -36
q38 0 69 16.5z" />
    <glyph glyph-name="quotesingle" unicode="'" horiz-adv-x="93" 
d="M19 810h71l-31 -237h-40v237z" />
    <glyph glyph-name="parenleft" unicode="(" horiz-adv-x="278" 
d="M132.5 -96.5q-36.5 63.5 -45 159.5t-8.5 262q0 168 8.5 264.5t45 160.5t114.5 66v-52q-45 -4 -66 -58t-26 -135t-5 -219v-75q0 -128 5.5 -207t27 -129.5t64.5 -54.5v-51q-78 5 -114.5 68.5z" />
    <glyph glyph-name="parenright" unicode=")" horiz-adv-x="257" 
d="M30 -114q45 5 66.5 59t26.5 135.5t5 219.5v74q0 128 -6 206.5t-27 129.5t-65 55v51q78 -2 115 -66t46 -161t9 -263q0 -165 -9 -261.5t-45.5 -160.5t-115.5 -69v51z" />
    <glyph glyph-name="asterisk" unicode="*" horiz-adv-x="372" 
d="M73 511l87 117l-125 49l19 48l120 -60l-8 144h57l-10 -144l120 60l18 -48l-124 -49l87 -118l-45 -27l-76 127l-75 -127z" />
    <glyph glyph-name="plus" unicode="+" horiz-adv-x="383" 
d="M163 388h-140v56h140v156h55v-156h141v-56h-141v-158h-55v158z" />
    <glyph glyph-name="comma" unicode="," horiz-adv-x="181" 
d="M49 -84q26 15 37 34.5t11 49.5h-43v109h81v-101q0 -49 -16 -77t-54 -47z" />
    <glyph glyph-name="hyphen" unicode="-" horiz-adv-x="297" 
d="M43 355h212v-58h-212v58z" />
    <glyph glyph-name="period" unicode="." horiz-adv-x="181" 
d="M60 110h77v-110h-77v110z" />
    <glyph glyph-name="slash" unicode="/" horiz-adv-x="344" 
d="M255 810h64l-230 -810h-65z" />
    <glyph glyph-name="zero" unicode="0" horiz-adv-x="517" 
d="M66 229v352q0 237 192 237q194 0 194 -237v-352q0 -113 -45 -176t-149 -63q-192 0 -192 239zM350 95q27 47 27 128v363q0 82 -26.5 128t-92.5 46q-65 0 -91.5 -46t-26.5 -128v-363q0 -175 118 -175q65 0 92 47z" />
    <glyph glyph-name="one" unicode="1" horiz-adv-x="367" 
d="M168 712q-10 -14 -41.5 -25.5t-83.5 -27.5v59q36 10 76 34t64 58h59v-810h-74v712z" />
    <glyph glyph-name="two" unicode="2" horiz-adv-x="485" 
d="M49 54l218 334q4 6 7.5 11t5.5 8q41 64 60.5 108t19.5 103q0 66 -27 102.5t-81 36.5q-70 0 -97 -44.5t-27 -124.5v-18h-73v20q0 114 46.5 171t147.5 57q90 0 137 -53.5t47 -152.5q0 -46 -13 -87t-31.5 -73.5t-51.5 -83.5l-202 -306h281v-62h-367v54z" />
    <glyph glyph-name="three" unicode="3" horiz-adv-x="482" 
d="M102 42q-44 52 -44 145v20h71v-17q1 -68 26 -104t83 -36q59 0 88.5 40t29.5 130q0 168 -121 172h-20v70h20q65 0 93 36t28 118q0 68 -25 105.5t-85 37.5q-61 0 -88.5 -34t-28.5 -107v-14h-71v19q0 195 187 195q93 0 139.5 -54.5t46.5 -147.5q0 -82 -31.5 -129.5
t-84.5 -60.5q50 -13 83 -64t33 -141q0 -108 -47 -169.5t-146 -61.5q-92 0 -136 52z" />
    <glyph glyph-name="four" unicode="4" horiz-adv-x="489" 
d="M294 237h-244v74l230 499h86v-507h93v-66h-93v-237h-72v237zM294 303v410l-170 -410h170z" />
    <glyph glyph-name="five" unicode="5" horiz-adv-x="477" 
d="M103.5 45.5q-42.5 54.5 -42.5 163.5h73q0 -79 24.5 -119t85.5 -40q66 0 89 48.5t23 157.5q0 75 -10.5 118.5t-35 63t-65.5 19.5q-65 0 -105 -67h-61v420h315l-1 -69h-249l-4 -281q43 54 124 54q87 0 126 -63.5t39 -185.5q0 -136 -44 -205t-144 -69q-95 0 -137.5 54.5z
" />
    <glyph glyph-name="six" unicode="6" horiz-adv-x="499" 
d="M66 244v323q0 251 186 251q180 0 182 -187l1 -17h-73q0 78 -24.5 111t-82.5 33q-116 0 -116 -174v-153q21 19 55.5 33t74.5 14q66 0 104 -25t54.5 -77.5t16.5 -138.5q0 -247 -191 -247q-187 0 -187 254zM341.5 92q28.5 41 28.5 131q0 74 -8 115t-33 62t-76 21
q-32 0 -64 -14.5t-50 -31.5v-140q0 -97 27.5 -140.5t86.5 -43.5q60 0 88.5 41z" />
    <glyph glyph-name="seven" unicode="7" horiz-adv-x="402" 
d="M275 751h-245v59h320v-36l-161 -774h-72z" />
    <glyph glyph-name="eight" unicode="8" horiz-adv-x="499" 
d="M59 217q0 66 16.5 107t41 62.5t59.5 38.5q-52 21 -80.5 68t-28.5 122q0 94 44 148.5t139 54.5q94 0 137.5 -55t43.5 -150q0 -144 -108 -188q34 -17 58.5 -38.5t41.5 -62.5t17 -107q0 -227 -190 -227q-191 0 -191 227zM359 616q0 71 -26.5 107t-82.5 36q-111 0 -111 -143
q0 -153 111 -158q109 5 109 158zM339 90q29 41 29 127q0 165 -118 174q-64 -5 -92 -50t-28 -124q0 -86 30 -127t90 -41t89 41z" />
    <glyph glyph-name="nine" unicode="9" horiz-adv-x="501" 
d="M67 180v14h72q0 -78 25 -110.5t89 -32.5q54 0 81.5 40t27.5 134v153q-17 -20 -50.5 -34t-79.5 -14q-66 0 -104 25t-54.5 77.5t-16.5 139.5q0 117 46.5 181.5t146.5 64.5q186 0 186 -253v-323q0 -252 -184 -252q-183 0 -185 190zM316.5 401q28.5 14 45.5 33v139
q0 98 -26.5 141t-85.5 43q-60 0 -89 -41.5t-29 -129.5q0 -75 7.5 -115.5t33 -62t76.5 -21.5q39 0 67.5 14z" />
    <glyph glyph-name="colon" unicode=":" horiz-adv-x="193" 
d="M69 530h78v-107h-78v107zM69 190h78v-106h-78v106z" />
    <glyph glyph-name="semicolon" unicode=";" horiz-adv-x="208" 
d="M69 551h77v-110h-77v110zM64 4q28 12 38 28t10 47h-43v103h81v-95q0 -50 -16 -77t-55 -38z" />
    <glyph glyph-name="less" unicode="&#x3c;" horiz-adv-x="363" 
d="M29 266v72l277 210v-76l-220 -170l220 -165v-75z" />
    <glyph glyph-name="equal" unicode="=" horiz-adv-x="401" 
d="M51 511h298v-58h-298v58zM51 343h298v-58h-298v58z" />
    <glyph glyph-name="greater" unicode="&#x3e;" horiz-adv-x="363" 
d="M57 137l221 170l-221 165v76l278 -205v-72l-278 -209v75z" />
    <glyph glyph-name="question" unicode="?" horiz-adv-x="474" 
d="M174 325q93 67 137.5 135.5t44.5 150.5q0 70 -31.5 106.5t-88.5 36.5q-49 0 -78.5 -26.5t-29.5 -71.5q0 -25 10 -55l-67 -15q-14 35 -14 69q0 75 49 119t130 44q88 0 139.5 -55.5t51.5 -153.5q0 -94 -46.5 -163.5t-142.5 -140.5v-104h-64v124zM171 87h72v-87h-72v87z" />
    <glyph glyph-name="at" unicode="@" horiz-adv-x="842" 
d="M167.5 -11.5q-108.5 100.5 -108.5 324.5q0 165 53.5 276.5t145.5 165.5t210 54q166 0 249.5 -100.5t83.5 -278.5q0 -106 -31 -176t-78.5 -102.5t-99.5 -32.5q-37 0 -63 24.5t-24 67.5q-14 -40 -42 -67t-68 -28q-65 -4 -102.5 44t-37.5 131q0 84 32 156t85 115t114 43
q36 0 70 -25l9 19h54l-50 -347q-3 -22 -3 -41q0 -24 7.5 -35.5t28.5 -11.5q32 0 63.5 25t53.5 78t25 133l1 31q0 162 -72 241.5t-208 79.5q-99 0 -175.5 -51.5t-120 -150.5t-43.5 -235q0 -205 93.5 -287.5t238.5 -82.5q89 0 184 25l16 -53q-113 -29 -205 -29
q-177 0 -285.5 100.5zM465 203q27 29 42 80l36 253q-20 13 -47 13q-42 0 -82 -33t-64.5 -92.5t-24.5 -133.5q0 -62 22.5 -92t58.5 -26q32 2 59 31z" />
    <glyph glyph-name="A" unicode="A" horiz-adv-x="477" 
d="M198 810h80l172 -810h-75l-40 217h-193l-41 -217h-74zM325 272l-86 437l-86 -437h172z" />
    <glyph glyph-name="B" unicode="B" horiz-adv-x="502" 
d="M71 810h174q106 0 152 -52.5t46 -149.5q0 -66 -24 -113t-79 -58q66 -18 94 -73t28 -130q0 -109 -42.5 -171.5t-148.5 -62.5h-200v810zM257 461q65 0 91 37.5t26 109.5q0 51 -13.5 82t-47 46t-94.5 15h-72v-290h110zM256 57q52 0 80.5 18.5t40 56.5t11.5 102
q0 168 -130 168h-111v-345h109z" />
    <glyph glyph-name="C" unicode="C" horiz-adv-x="499" 
d="M99.5 57q-45.5 67 -45.5 186v322q0 122 45.5 187.5t159.5 65.5q104 0 148 -59t44 -171v-49h-72v47q0 58 -9 94.5t-35 56.5t-75 20q-53 0 -81 -22t-38 -60.5t-10 -98.5v-345q0 -94 28.5 -137t100.5 -43q71 0 95 43.5t24 132.5v53h72v-48q0 -116 -43 -179t-149 -63
q-114 0 -159.5 67z" />
    <glyph glyph-name="D" unicode="D" horiz-adv-x="521" 
d="M71 810h176q120 0 170 -61.5t50 -176.5v-322q0 -121 -48.5 -185.5t-164.5 -64.5h-183v810zM249 57q61 0 91.5 25.5t39.5 68t9 111.5v302q0 66 -11 105.5t-42 60.5t-90 21h-99v-694h102z" />
    <glyph glyph-name="E" unicode="E" horiz-adv-x="398" 
d="M70 810h293v-59h-216v-304h176v-56h-176v-334h218v-57h-295v810z" />
    <glyph glyph-name="F" unicode="F" horiz-adv-x="386" 
d="M71 810h291v-57h-215v-305h179v-56h-179v-392h-76v810z" />
    <glyph glyph-name="G" unicode="G" horiz-adv-x="519" 
d="M99.5 55.5q-45.5 66.5 -45.5 191.5v316q0 126 45 190.5t160 64.5q105 0 150.5 -58.5t45.5 -174.5v-28h-72v28q0 91 -26 131.5t-97 40.5q-53 0 -81.5 -23t-38 -62.5t-9.5 -100.5v-333q0 -95 27.5 -141t102.5 -46q71 0 99 46.5t28 142.5v95h-120v57h190v-392h-49l-9 92
q-17 -49 -52 -76t-94 -27q-109 0 -154.5 66.5z" />
    <glyph glyph-name="H" unicode="H" horiz-adv-x="549" 
d="M70 810h77v-359h255v359h76v-810h-76v394h-255v-394h-77v810z" />
    <glyph glyph-name="I" unicode="I" horiz-adv-x="222" 
d="M73 810h76v-810h-76v810z" />
    <glyph glyph-name="J" unicode="J" horiz-adv-x="279" 
d="M8 22q57 0 82.5 10.5t33.5 38.5t8 92v647h76v-651q0 -72 -12.5 -113t-47.5 -61t-103 -20h-37v57z" />
    <glyph glyph-name="K" unicode="K" horiz-adv-x="473" 
d="M70 810h77v-428l216 428h73l-166 -348l202 -462h-75l-178 405l-72 -132v-273h-77v810z" />
    <glyph glyph-name="L" unicode="L" horiz-adv-x="382" 
d="M71 810h76v-753h230v-57h-306v810z" />
    <glyph glyph-name="M" unicode="M" horiz-adv-x="643" 
d="M84 810h76l160 -703l163 703h76l20 -810h-63l-16 645l-155 -645h-49l-153 644l-16 -644h-63z" />
    <glyph glyph-name="N" unicode="N" horiz-adv-x="520" 
d="M71 810h55l258 -629v629h66v-810h-54l-259 636v-636h-66v810z" />
    <glyph glyph-name="O" unicode="O" horiz-adv-x="525" 
d="M101.5 55q-47.5 65 -47.5 184v336q0 118 48 180.5t161 62.5q111 0 159 -63t48 -180v-337q0 -119 -47 -183.5t-160 -64.5q-114 0 -161.5 65zM365 94.5q28 43.5 28 127.5v367q0 84 -27.5 126t-102.5 42q-76 0 -104 -41.5t-28 -126.5v-367q0 -85 28 -128t104 -43
q74 0 102 43.5z" />
    <glyph glyph-name="P" unicode="P" horiz-adv-x="483" 
d="M71 810h194q103 0 147.5 -56t44.5 -159q0 -94 -46.5 -153t-144.5 -59h-119v-383h-76v810zM244 440q75 0 106.5 34.5t31.5 120.5q0 63 -12 96.5t-41 47.5t-84 14h-98v-313h97z" />
    <glyph glyph-name="Q" unicode="Q" horiz-adv-x="530" 
d="M290 -9q-8 -1 -26 -1q-114 0 -162 65t-48 184v336q0 117 49 180t161 63q113 0 162 -63t49 -180v-337q0 -93 -29.5 -153.5t-97.5 -81.5q21 -27 48 -56.5t45 -41.5l-10 -64q-53 26 -141 150zM368.5 94.5q29.5 43.5 29.5 127.5v367q0 84 -29 126t-105 42q-75 0 -104 -42
t-29 -126v-367q0 -84 29 -127.5t104 -43.5t104.5 43.5z" />
    <glyph glyph-name="R" unicode="R" horiz-adv-x="512" 
d="M71 810h183q109 0 155 -52.5t46 -153.5q0 -77 -25 -127t-87 -63l124 -414h-74l-119 398h-127v-398h-76v810zM250 454q73 0 102 36t29 114q0 79 -27.5 114t-101.5 35h-105v-299h103z" />
    <glyph glyph-name="S" unicode="S" horiz-adv-x="460" 
d="M98 48.5q-50 58.5 -57 161.5l67 20q9 -86 38.5 -132t97.5 -46q114 0 114 117q0 50 -23.5 88t-75.5 87l-143 137q-39 36 -56.5 75.5t-17.5 87.5q0 83 49.5 128.5t133.5 45.5q90 0 138 -48t56 -157l-65 -17q-6 82 -34.5 122t-94.5 40q-52 0 -83 -27t-31 -80q0 -34 13 -61
t44 -57l143 -135q55 -52 86.5 -106.5t31.5 -117.5q0 -88 -51 -136t-135 -48q-95 0 -145 58.5z" />
    <glyph glyph-name="T" unicode="T" horiz-adv-x="414" 
d="M171 751h-153v59h378v-59h-149v-751h-76v751z" />
    <glyph glyph-name="U" unicode="U" horiz-adv-x="537" 
d="M107 49.5q-45 59.5 -45 171.5v589h74v-591q0 -80 28.5 -124t104.5 -44q73 0 103 44.5t30 123.5v591h73v-589q0 -110 -46.5 -170.5t-159.5 -60.5q-117 0 -162 59.5z" />
    <glyph glyph-name="V" unicode="V" horiz-adv-x="489" 
d="M24 810h73l153 -671l144 671h72l-183 -810h-69z" />
    <glyph glyph-name="W" unicode="W" horiz-adv-x="715" 
d="M35 810h65l107 -658l122 646h63l125 -647l99 659h64l-131 -810h-59l-129 668l-127 -668h-62z" />
    <glyph glyph-name="X" unicode="X" horiz-adv-x="463" 
d="M189 422l-173 388h71l145 -323l139 323h73l-179 -397l185 -413h-73l-154 342l-136 -342h-73z" />
    <glyph glyph-name="Y" unicode="Y" horiz-adv-x="469" 
d="M200 269l-183 541h74l146 -450l140 450h75l-178 -541v-269h-74v269z" />
    <glyph glyph-name="Z" unicode="Z" horiz-adv-x="407" 
d="M34 57l271 696h-249v57h331v-40l-278 -713h278v-57h-353v57z" />
    <glyph glyph-name="bracketleft" unicode="[" horiz-adv-x="302" 
d="M70 810h174v-41h-100v-887h100v-42h-174v970z" />
    <glyph glyph-name="backslash" unicode="\" horiz-adv-x="344" 
d="M24 810h65l230 -810h-64z" />
    <glyph glyph-name="bracketright" unicode="]" horiz-adv-x="285" 
d="M40 -118h101v886h-101v42h175v-969h-175v41z" />
    <glyph glyph-name="asciicircum" unicode="^" horiz-adv-x="394" 
d="M159 810h76l131 -299h-67l-101 248l-103 -248h-66z" />
    <glyph glyph-name="underscore" unicode="_" horiz-adv-x="332" 
d="M0 -49h332v-58h-332v58z" />
    <glyph glyph-name="grave" unicode="`" horiz-adv-x="235" 
d="M53 810h74l55 -195h-37z" />
    <glyph glyph-name="a" unicode="a" horiz-adv-x="397" 
d="M72 28q-32 37 -32 92q0 57 22.5 94t69.5 66t141 71v41q0 54 -6.5 84t-22 43t-43.5 13q-81 0 -81 -99v-20l-72 1q1 89 38 131t119 42q76 0 108.5 -46t32.5 -145v-281q0 -28 1.5 -64t3.5 -51h-65l-11 80q-13 -38 -44.5 -63.5t-74.5 -25.5q-52 0 -84 37zM233.5 73.5
q24.5 20.5 39.5 48.5v180q-68 -36 -98.5 -56t-46 -44.5t-15.5 -63.5q0 -43 18.5 -64t47.5 -21q30 0 54.5 20.5z" />
    <glyph glyph-name="b" unicode="b" horiz-adv-x="416" 
d="M130 46v-46h-73v810h73v-280q19 25 47 41t63 16q76 0 104 -63t28 -167v-122q0 -119 -31 -181.5t-108 -62.5q-56 0 -103 55zM282.5 92q15.5 43 15.5 141v124q0 93 -15.5 133t-63.5 40q-44 0 -89 -45v-394q38 -42 90 -42q47 0 62.5 43z" />
    <glyph glyph-name="c" unicode="c" horiz-adv-x="389" 
d="M102 19.5q-34 28.5 -45.5 77t-11.5 122.5v135q0 84 13.5 134t47 74.5t94.5 24.5q85 0 116 -46.5t31 -138.5v-28h-68v28q0 51 -7.5 79t-24.5 39.5t-47 11.5q-34 0 -51.5 -16t-24 -50.5t-6.5 -99.5v-162q0 -60 7 -94t25 -49t51 -15q34 0 50.5 14.5t22 43.5t5.5 81v32h68
v-28q0 -65 -11.5 -107.5t-43.5 -66.5t-92 -24q-64 0 -98 28.5z" />
    <glyph glyph-name="d" unicode="d" horiz-adv-x="413" 
d="M77.5 47q-32.5 56 -32.5 186v107q0 123 29 185t107 62q56 0 102 -50v273h73v-810h-73v41q-46 -50 -99 -50q-74 0 -106.5 56zM283 87v402q-46 41 -86 41q-46 0 -62.5 -39t-16.5 -127v-137q0 -94 16.5 -136t64.5 -42q42 0 84 38z" />
    <glyph glyph-name="e" unicode="e" horiz-adv-x="395" 
d="M111 13q-34 22 -50 71t-16 133v146q0 85 16.5 133.5t51 69.5t89.5 21q60 0 92.5 -25.5t45 -76.5t12.5 -137v-52h-234v-101q0 -83 19 -116t64 -33q38 0 58.5 24t20.5 87v40h71v-32q0 -84 -35 -129t-115 -45q-56 0 -90 22zM280 338v48q0 52 -5.5 82t-22.5 47t-51 17
q-31 0 -49 -13.5t-26 -47t-8 -94.5v-39h162z" />
    <glyph glyph-name="f" unicode="f" horiz-adv-x="268" 
d="M92 525h-74v53h74v60q0 49 7.5 80t30.5 49t68 18q32 0 59 -7v-54q-20 5 -41 5q-31 0 -40.5 -18.5t-9.5 -65.5v-67h93v-53h-93v-525h-74v525z" />
    <glyph glyph-name="g" unicode="g" horiz-adv-x="431" 
d="M65.5 -164q-48.5 26 -48.5 79q0 40 27.5 73t67.5 53q-64 17 -64 63q0 28 16.5 51.5t52.5 53.5q-38 28 -55.5 71.5t-17.5 104.5q0 88 41 145t121 57q88 0 124 -72q9 16 31.5 35.5t46.5 29.5l15 5l20 -51q-24 -4 -53.5 -20t-41.5 -30q7 -19 12.5 -49.5t5.5 -51.5
q0 -93 -38 -147.5t-121 -54.5q-15 0 -31.5 2.5t-27.5 6.5q-39 -39 -39 -66q0 -14 11.5 -21.5t36.5 -10.5l92 -14q72 -11 108.5 -43.5t36.5 -90.5q0 -67 -51.5 -100.5t-139.5 -33.5q-89 0 -137.5 26zM283 276q19 42 19 109q0 150 -95 150q-55 0 -76 -44t-21 -106
q0 -151 97 -151q57 0 76 42zM301.5 -113q34.5 18 34.5 56q0 32 -22.5 50t-86.5 28l-74 10q-33 -24 -53.5 -46.5t-20.5 -51.5q0 -33 31 -48.5t96 -15.5q61 0 95.5 18z" />
    <glyph glyph-name="h" unicode="h" horiz-adv-x="412" 
d="M57 810h73v-293q65 70 141 70q43 0 66 -32t23 -91v-464h-74v448q0 44 -13.5 63t-41.5 19q-24 0 -50.5 -15t-50.5 -40v-475h-73v810z" />
    <glyph glyph-name="i" unicode="i" horiz-adv-x="204" 
d="M64 757h73v-99h-73v99zM64 578h73v-578h-73v578z" />
    <glyph glyph-name="j" unicode="j" horiz-adv-x="213" 
d="M77 757h73v-99h-73v99zM-17 -148v56q8 -2 25 -2q41 0 55 21.5t14 58.5v592h73v-598q0 -132 -128 -132q-28 0 -39 4z" />
    <glyph glyph-name="k" unicode="k" horiz-adv-x="400" 
d="M57 810h73v-514l193 282h77l-146 -223l140 -355h-74l-122 314l-68 -95v-219h-73v810z" />
    <glyph glyph-name="l" unicode="l" horiz-adv-x="202" 
d="M66 810h73v-810h-73v810z" />
    <glyph glyph-name="m" unicode="m" horiz-adv-x="644" 
d="M56 578h68v-59q28 34 63 51.5t73 17.5q72 0 92 -75q29 37 65.5 56t76.5 19q43 0 70.5 -31t27.5 -101v-456h-68v454q0 47 -15 65.5t-43 18.5q-26 0 -55 -16t-54 -44q2 -14 2 -22v-456h-69v454q0 48 -15 66t-43 18q-26 0 -54 -16t-54 -43v-479h-68v578z" />
    <glyph glyph-name="n" unicode="n" horiz-adv-x="409" 
d="M56 578h73v-60q29 32 64.5 50.5t74.5 18.5q43 0 66 -32t23 -91v-464h-73v448q0 44 -13.5 63t-41.5 19q-24 0 -50 -14.5t-50 -39.5v-476h-73v578z" />
    <glyph glyph-name="o" unicode="o" horiz-adv-x="399" 
d="M79 44.5q-34 53.5 -34 164.5v160q0 111 34 164.5t120 53.5q87 0 121 -53.5t34 -164.5v-160q0 -111 -34 -164.5t-121 -53.5q-86 0 -120 53.5zM252.5 65q17.5 19 22.5 51.5t5 88.5v168q0 56 -5 88.5t-22.5 51.5t-53.5 19t-53 -19t-22 -51.5t-5 -88.5v-168q0 -56 5 -88.5
t22 -51.5t53 -19t53.5 19z" />
    <glyph glyph-name="p" unicode="p" horiz-adv-x="417" 
d="M56 578h73v-48q45 57 111 57q76 0 103.5 -62.5t27.5 -167.5v-122q0 -119 -31 -181.5t-108 -62.5q-54 0 -103 55v-236h-73v768zM282.5 92q15.5 43 15.5 141v124q0 93 -15.5 133t-63.5 40q-45 0 -90 -45v-394q40 -42 92 -42q46 0 61.5 43z" />
    <glyph glyph-name="q" unicode="q" horiz-adv-x="414" 
d="M285 41q-44 -50 -99 -50q-74 0 -106.5 56t-32.5 186v107q0 124 29.5 185.5t107.5 61.5q31 0 56.5 -14.5t44.5 -36.5v42h73v-768h-73v231zM285 88v400q-44 42 -86 42q-46 0 -62.5 -39t-16.5 -127v-137q0 -94 16.5 -136t64.5 -42q43 0 84 39z" />
    <glyph glyph-name="r" unicode="r" horiz-adv-x="297" 
d="M61 578h74v-79q26 43 61.5 64t71.5 21q7 0 13 -1v-78q-18 6 -36 6q-69 0 -110 -67v-444h-74v578z" />
    <glyph glyph-name="s" unicode="s" horiz-adv-x="363" 
d="M78.5 35q-41.5 44 -47.5 120l61 19q6 -66 31 -97t70 -31q38 0 58.5 21.5t20.5 60.5q0 57 -70 116l-79 68q-41 34 -60 67t-19 78q0 61 37.5 95.5t100.5 34.5q64 0 98.5 -41t38.5 -111l-52 -17q-6 114 -82 114q-34 0 -54 -18.5t-20 -51.5q0 -27 10 -47t37 -44l82 -73
q47 -42 71.5 -78.5t24.5 -89.5q0 -66 -40 -102.5t-108 -36.5t-109.5 44z" />
    <glyph glyph-name="t" unicode="t" horiz-adv-x="280" 
d="M111.5 25.5q-22.5 32.5 -22.5 94.5v410h-71v48h71v179h73v-179h96v-48h-96v-403q0 -44 10 -60.5t41 -16.5q19 0 42 5v-56q-31 -6 -62 -6q-59 0 -81.5 32.5z" />
    <glyph glyph-name="u" unicode="u" horiz-adv-x="412" 
d="M74 23q-23 32 -23 91v464h74v-448q0 -44 13.5 -62.5t41.5 -18.5q25 0 51.5 15.5t50.5 41.5v472h73v-578h-73v64q-29 -34 -65 -53.5t-76 -19.5q-44 0 -67 32z" />
    <glyph glyph-name="v" unicode="v" horiz-adv-x="368" 
d="M18 578h74l94 -494l93 494h71l-121 -578h-86z" />
    <glyph glyph-name="w" unicode="w" horiz-adv-x="574" 
d="M31 578h63l72 -483l91 483h63l92 -481l69 481h63l-94 -578h-68l-93 470l-90 -470h-74z" />
    <glyph glyph-name="x" unicode="x" horiz-adv-x="380" 
d="M153 302l-130 276h72l99 -212l95 212h74l-135 -284l137 -294h-70l-108 227l-101 -227h-70z" />
    <glyph glyph-name="y" unicode="y" horiz-adv-x="381" 
d="M40 -87q70 0 94 15t24 45q0 19 -8.5 54.5t-10.5 41.5l-119 509h73l100 -492l97 492h74l-140 -619q-13 -55 -52 -79t-113 -24h-19v57z" />
    <glyph glyph-name="z" unicode="z" horiz-adv-x="333" 
d="M32 51l197 471h-176v56h253v-44l-196 -478h193v-56h-271v51z" />
    <glyph glyph-name="braceleft" unicode="{" horiz-adv-x="258" 
d="M140 -151.5q-28 13.5 -36 52t-8 136.5v129q0 57 -4.5 84.5t-16.5 38.5t-37 11v56q25 0 37 11t16.5 39t4.5 85v125q0 98 8 136t36 51.5t98 13.5v-55q-36 0 -48.5 -8.5t-15.5 -34.5t-3 -103v-141q0 -73 -13.5 -105.5t-45.5 -41.5q32 -8 45.5 -40.5t13.5 -106.5v-144
q0 -77 3 -103.5t15.5 -35t48.5 -8.5v-55q-70 0 -98 13.5z" />
    <glyph glyph-name="bar" unicode="|" horiz-adv-x="217" 
d="M74 810h69v-954h-69v954z" />
    <glyph glyph-name="braceright" unicode="}" horiz-adv-x="269" 
d="M31 -110q36 0 48.5 8.5t15.5 35t3 103.5v144q0 74 13.5 106.5t45.5 40.5q-32 9 -45.5 41.5t-13.5 105.5v141q0 77 -3 103t-15.5 34.5t-48.5 8.5v55q70 0 98 -13.5t36 -51.5t8 -136v-125q0 -57 4.5 -85t16.5 -39t37 -11v-56q-25 0 -37 -11t-16.5 -38.5t-4.5 -84.5v-129
q0 -98 -8 -136.5t-36 -52t-98 -13.5v55z" />
    <glyph glyph-name="asciitilde" unicode="~" horiz-adv-x="406" 
d="M239.5 381.5q-17.5 7.5 -42.5 22.5q-23 13 -37.5 19.5t-25.5 6.5q-24 0 -69 -40l-26 34q23 26 50.5 44.5t48.5 18.5q16 0 33.5 -8t41.5 -22q22 -12 36.5 -18.5t25.5 -6.5q13 0 27 8.5t40 29.5l26 -34q-60 -62 -96 -62q-15 0 -32.5 7.5z" />
    <glyph glyph-name="uni00A0" unicode="&#xa0;" horiz-adv-x="204" 
 />
    <glyph glyph-name="exclamdown" unicode="&#xa1;" horiz-adv-x="201" 
d="M62 616h78v-87h-78v87zM88 442h26l25 -636h-78z" />
    <glyph glyph-name="cent" unicode="&#xa2;" horiz-adv-x="382" 
d="M173 -7q-77 8 -102.5 64.5t-25.5 161.5v135q0 79 11.5 127.5t40.5 74.5t80 30v90h30v-89q81 -3 110.5 -49.5t29.5 -135.5v-28h-68v28q0 51 -7.5 79t-24.5 39.5t-47 11.5q-34 0 -51.5 -16t-24 -50.5t-6.5 -99.5v-162q0 -60 7 -94t25 -49t51 -15q34 0 50.5 14.5t22 43.5
t5.5 81v32h68v-28q0 -64 -11.5 -106t-43 -66.5t-89.5 -25.5v-91h-30v93z" />
    <glyph glyph-name="sterling" unicode="&#xa3;" horiz-adv-x="375" 
d="M11 37l61 17v324h-61v55h61v114q0 90 10.5 147t44 90.5t100.5 33.5q72 0 100 -43t29 -122v-25h-56q0 69 -14.5 100.5t-59.5 31.5q-36 0 -53.5 -21.5t-22.5 -57t-6 -94.5v-154h133v-55h-133v-323h210v-55h-343v37z" />
    <glyph glyph-name="currency" unicode="&#xa4;" horiz-adv-x="526" 
d="M27 201l80 79q-26 28 -40.5 65t-14.5 78q0 40 14.5 77t40.5 66l-80 79l15 15l79 -79q28 27 65 41.5t78 14.5t78 -14.5t65 -41.5l79 79l15 -15l-79 -79q25 -29 39 -65.5t14 -77.5t-14 -78t-40 -65l80 -79l-15 -15l-79 79q-29 -27 -65.5 -42t-77.5 -14q-41 -1 -77.5 14
t-65.5 42l-79 -79zM353 267q40 24 63 65.5t23 90.5t-23 90.5t-63 65.5t-89 24q-48 0 -88 -24t-63 -65.5t-23 -90.5t23 -90.5t63 -65.5t88 -24q49 0 89 24z" />
    <glyph glyph-name="yen" unicode="&#xa5;" horiz-adv-x="434" 
d="M188 110h-100v49h100v90h-100v48h90l-173 513h74l146 -450l140 450h75l-169 -513h89v-48h-99v-90h99v-49h-99v-110h-73v110z" />
    <glyph glyph-name="brokenbar" unicode="&#xa6;" horiz-adv-x="202" 
d="M71 810h61v-416h-61v416zM71 245h61v-415h-61v415z" />
    <glyph glyph-name="section" unicode="&#xa7;" horiz-adv-x="400" 
d="M99 34q-39 43 -56 112l56 18q13 -48 39 -80.5t65 -32.5q37 0 59.5 19.5t23.5 54.5q2 26 -11.5 51t-58.5 68l-112 92q-32 26 -49 53.5t-17 61.5q0 45 25 75.5t64 44.5q-33 28 -53 57t-20 63q0 57 40 92t107 35q110 0 151 -145l-56 -18q-16 45 -37.5 74t-59.5 29
q-33 0 -53 -19t-20 -54q0 -37 55 -88l113 -85q36 -28 55 -61.5t19 -76.5q0 -82 -78 -123q31 -33 47.5 -59.5t16.5 -62.5q0 -65 -41.5 -101.5t-109.5 -36.5q-65 0 -104 43zM284 321q18 19 20 44q3 28 -10 52.5t-44 50.5l-78 64q-27 -10 -44.5 -30.5t-17.5 -48.5q0 -35 34 -67
l99 -95q23 11 41 30z" />
    <glyph glyph-name="dieresis" unicode="&#xa8;" horiz-adv-x="383" 
d="M69 810h74v-89h-74v89zM232 810h76v-89h-76v89z" />
    <glyph glyph-name="copyright" unicode="&#xa9;" horiz-adv-x="862" 
d="M205.5 50q-90.5 61 -133.5 157.5t-43 204.5t43 204.5t133.5 157t225.5 60.5t225.5 -60.5t133.5 -157t43 -204.5q0 -109 -42.5 -205t-133 -157t-226.5 -61q-135 0 -225.5 61zM634 78.5q81 54.5 120.5 143t39.5 191.5q0 102 -39.5 190t-120.5 142t-201 54t-201.5 -54
t-121 -142t-39.5 -190q0 -103 39.5 -191.5t121 -143t201.5 -54.5t201 54.5zM314.5 151.5q-37.5 29.5 -50 80.5t-12.5 130v113q0 91 15 143.5t51.5 77.5t104.5 25q66 0 101.5 -22t48 -63t12.5 -106v-27h-71v27q0 55 -9 83.5t-28 39.5t-53 11q-38 0 -58 -16.5t-27.5 -53.5
t-7.5 -106v-142q0 -64 8.5 -99.5t28.5 -51t57 -15.5q38 0 57 14t25.5 43t6.5 84v29h71v-25q0 -69 -12 -112t-47.5 -67t-102.5 -24q-71 0 -108.5 29.5z" />
    <glyph glyph-name="ordfeminine" unicode="&#xaa;" horiz-adv-x="411" 
d="M101 368.5q-28 28.5 -28 74.5q0 43 20.5 70.5t61 49t122.5 53.5v43q0 60 -13 85.5t-46 25.5q-32 0 -50.5 -21.5t-18.5 -67.5h-61q2 68 35.5 104t94.5 36q70 0 96.5 -41.5t26.5 -134.5v-299h-57l-2 61q-15 -30 -43.5 -48.5t-63.5 -18.5q-46 0 -74 28.5zM242.5 410
q21.5 16 34.5 42v131q-57 -26 -84.5 -42t-41 -36t-13.5 -50q0 -31 16 -46t40 -15q27 0 48.5 16z" />
    <glyph glyph-name="guillemotleft" unicode="&#xab;" horiz-adv-x="426" 
d="M37 302v32l166 216v-94l-105 -137l105 -140v-93zM200 302v32l167 216v-94l-106 -138l106 -139v-93z" />
    <glyph glyph-name="logicalnot" unicode="&#xac;" horiz-adv-x="363" 
d="M291 386h-250v57h293v-169h-43v112z" />
    <glyph glyph-name="uni00AD" unicode="&#xad;" horiz-adv-x="334" 
d="M57 427h224v-57h-224v57z" />
    <glyph glyph-name="registered" unicode="&#xae;" horiz-adv-x="876" 
d="M213.5 48.5q-89.5 60.5 -132 156t-42.5 203.5t42.5 203.5t132 156t224.5 60.5t225 -60.5t132.5 -156t42.5 -203.5t-42.5 -203.5t-132.5 -156t-225 -60.5t-224.5 60.5zM635 80.5q80 53.5 118.5 140.5t38.5 187q0 101 -38.5 187.5t-118.5 139.5t-197 53q-118 0 -197.5 -53
t-118 -139.5t-38.5 -187.5q0 -100 38.5 -187t118 -140.5t197.5 -53.5q117 0 197 53.5zM299 702h163q149 0 149 -154q0 -54 -22.5 -91t-70.5 -49l101 -285h-68l-93 274h-94v-274h-65v579zM446 436q58 0 78.5 26.5t20.5 86.5q0 54 -20 80.5t-69 26.5h-92v-220h82z" />
    <glyph glyph-name="macron" unicode="&#xaf;" horiz-adv-x="326" 
d="M74 810h178v-47h-178v47z" />
    <glyph glyph-name="degree" unicode="&#xb0;" horiz-adv-x="413" 
d="M101.5 562q-41.5 38 -41.5 110q0 71 41.5 108.5t105.5 37.5t105.5 -37.5t41.5 -108.5q0 -72 -41.5 -110t-105.5 -38t-105.5 38zM271 599q25 25 25 72q0 48 -25.5 73.5t-64.5 25.5t-64 -25.5t-25 -73.5q0 -47 25.5 -72t64.5 -25t64 25z" />
    <glyph glyph-name="plusminus" unicode="&#xb1;" horiz-adv-x="339" 
d="M142 270h-90v61h90v89h62v-89h90v-61h-90v-90h-62v90zM52 61h242v-61h-242v61z" />
    <glyph glyph-name="uni00B2" unicode="&#xb2;" horiz-adv-x="373" 
d="M48 480l124 133q51 55 69.5 86t18.5 65q0 38 -18 59.5t-55 21.5q-44 0 -63.5 -28t-19.5 -83h-55v9q0 69 35 112t104 43q61 0 95 -34.5t34 -96.5q0 -46 -21.5 -83t-74.5 -93l-100 -107h207v-51h-280v47z" />
    <glyph glyph-name="uni00B3" unicode="&#xb3;" horiz-adv-x="366" 
d="M83.5 459.5q-35.5 36.5 -35.5 99.5v10h56v-4q0 -89 82 -89q35 0 54 21t19 58q0 83 -81 83h-19v50h16q79 0 79 80q0 35 -18 56t-52 21q-79 0 -79 -89v-4h-56v10q0 66 36 101t99 35q59 0 93 -33t34 -90q0 -43 -19 -72t-49 -39q32 -11 52.5 -38.5t20.5 -73.5
q0 -60 -36 -94.5t-96 -34.5q-65 0 -100.5 36.5z" />
    <glyph glyph-name="acute" unicode="&#xb4;" horiz-adv-x="233" 
d="M110 810h74l-98 -195h-39z" />
    <glyph glyph-name="uni00B5" unicode="&#xb5;" horiz-adv-x="420" 
d="M51 578h74v-448q0 -44 13.5 -62.5t41.5 -18.5q25 0 51.5 15.5t50.5 41.5v472h73v-578h-73v64q-26 -31 -57.5 -49.5t-65.5 -18.5q-21 0 -34 8v-177h-73z" />
    <glyph glyph-name="paragraph" unicode="&#xb6;" horiz-adv-x="485" 
d="M200 530q-79 -1 -125 35.5t-46 103.5t44.5 104t132.5 37h208v-905h-54v863h-106v-863h-54v625z" />
    <glyph glyph-name="periodcentered" unicode="&#xb7;" horiz-adv-x="188" 
d="M64 421h75v-88h-75v88z" />
    <glyph glyph-name="cedilla" unicode="&#xb8;" horiz-adv-x="314" 
d="M80 -199v38q15 -4 32 -4q66 0 66 41q0 43 -75 52v72h39v-50q44 -1 68 -21t24 -54q0 -39 -28 -59t-79 -20q-22 0 -47 5z" />
    <glyph glyph-name="uni00B9" unicode="&#xb9;" horiz-adv-x="269" 
d="M135 820l-92 -48v50l117 66h32v-455h-57v387z" />
    <glyph glyph-name="ordmasculine" unicode="&#xba;" horiz-adv-x="411" 
d="M96 380q-31 41 -31 120v160q0 78 32 119.5t109 41.5q75 0 107.5 -42.5t32.5 -118.5v-160q0 -76 -32 -118.5t-108 -42.5q-79 0 -110 41zM267.5 419q16.5 30 16.5 86v150q0 56 -16.5 86t-63.5 30q-46 0 -63 -30.5t-17 -85.5v-150q0 -55 17 -85.5t63 -30.5q47 0 63.5 30z
" />
    <glyph glyph-name="guillemotright" unicode="&#xbb;" horiz-adv-x="440" 
d="M54 179l110 139l-110 138v94l172 -216v-32l-172 -216v93zM218 179l110 138l-110 139v94l171 -216v-32l-171 -216v93z" />
    <glyph glyph-name="onequarter" unicode="&#xbc;" horiz-adv-x="785" 
d="M140 742l-92 -48v50l117 66h32v-455h-57v387zM531 810h62l-376 -810h-63zM606 120h-172v46l191 289h37v-287h44v-48h-44v-120h-56v120zM606 168l-1 174l-113 -174h114z" />
    <glyph glyph-name="onehalf" unicode="&#xbd;" horiz-adv-x="795" 
d="M95 742l-92 -48v50l117 66h32v-455h-57v387zM486 810h62l-376 -810h-63zM453 47l124 133q51 55 69.5 86t18.5 65q0 38 -18 59.5t-55 21.5q-44 0 -63.5 -28t-19.5 -83h-55v9q0 69 35 112t104 43q61 0 95 -34.5t34 -96.5q0 -46 -21.5 -83t-74.5 -93l-100 -107h207v-51h-280
v47z" />
    <glyph glyph-name="threequarters" unicode="&#xbe;" horiz-adv-x="870" 
d="M82.5 379.5q-35.5 36.5 -35.5 99.5v10h56v-4q0 -89 82 -89q35 0 54 21t19 58q0 83 -81 83h-19v50h16q79 0 79 80q0 35 -18 56t-52 21q-79 0 -79 -89v-4h-56v10q0 66 36 101t99 35q59 0 93 -33t34 -90q0 -43 -19 -72t-49 -39q32 -11 52.5 -38.5t20.5 -73.5
q0 -60 -36 -94.5t-96 -34.5q-65 0 -100.5 36.5zM594 810h62l-376 -810h-63zM669 120h-172v46l191 289h37v-287h44v-48h-44v-120h-56v120zM669 168l-1 174l-113 -174h114z" />
    <glyph glyph-name="questiondown" unicode="&#xbf;" horiz-adv-x="474" 
d="M289 287q-93 -67 -137.5 -135.5t-44.5 -150.5q0 -70 31.5 -106.5t88.5 -36.5q49 0 78.5 26.5t29.5 71.5q0 25 -10 55l67 15q14 -35 14 -69q0 -75 -49 -119t-130 -44q-88 0 -139.5 55.5t-51.5 153.5q0 94 46.5 163.5t142.5 140.5v104h64v-124zM292 525h-72v87h72v-87z" />
    <glyph glyph-name="Agrave" unicode="&#xc0;" horiz-adv-x="477" 
d="M198 810h80l172 -810h-75l-40 217h-193l-41 -217h-74zM325 272l-86 437l-86 -437h172zM128 1054h74l55 -196h-37z" />
    <glyph glyph-name="Aacute" unicode="&#xc1;" horiz-adv-x="477" 
d="M198 810h80l172 -810h-75l-40 217h-193l-41 -217h-74zM325 272l-86 437l-86 -437h172zM283 1054h73l-98 -196h-38z" />
    <glyph glyph-name="Acircumflex" unicode="&#xc2;" horiz-adv-x="477" 
d="M198 810h80l172 -810h-75l-40 217h-193l-41 -217h-74zM325 272l-86 437l-86 -437h172zM198 1042h82l85 -178h-54l-73 141l-72 -141h-55z" />
    <glyph glyph-name="Atilde" unicode="&#xc3;" horiz-adv-x="477" 
d="M198 810h80l172 -810h-75l-40 217h-193l-41 -217h-74zM325 272l-86 437l-86 -437h172zM269 931q-14 7 -34 20q-17 11 -27.5 16t-21.5 5q-32 0 -32 -40h-45q0 33 15.5 60.5t53.5 27.5q17 0 32 -6.5t33 -19.5q17 -11 27.5 -16t21.5 -5q17 0 25 10t8 33h44
q0 -37 -14.5 -64.5t-54.5 -27.5q-17 0 -31 7z" />
    <glyph glyph-name="Adieresis" unicode="&#xc4;" horiz-adv-x="477" 
d="M198 810h80l172 -810h-75l-40 217h-193l-41 -217h-74zM325 272l-86 437l-86 -437h172zM120 1042h75v-89h-75v89zM285 1042h75v-89h-75v89z" />
    <glyph glyph-name="Aring" unicode="&#xc5;" horiz-adv-x="477" 
d="M198 810h80l172 -810h-75l-40 217h-193l-41 -217h-74zM325 272l-86 437l-86 -437h172zM170.5 886q-27.5 25 -27.5 70t27.5 70t68.5 25t68.5 -25t27.5 -70t-27.5 -70t-68.5 -25t-68.5 25zM278.5 915q15.5 14 15.5 41q0 28 -15.5 42t-39.5 14t-39.5 -14t-15.5 -42
q0 -27 15.5 -41t39.5 -14t39.5 14z" />
    <glyph glyph-name="AE" unicode="&#xc6;" horiz-adv-x="631" 
d="M296 810h303v-61h-216v-298h155v-58h-155v-333h216v-60h-293v217h-170l-84 -217h-81zM306 275v406l-149 -406h149z" />
    <glyph glyph-name="Ccedilla" unicode="&#xc7;" horiz-adv-x="499" 
d="M99.5 57q-45.5 67 -45.5 186v322q0 122 45.5 187.5t159.5 65.5q104 0 148 -59t44 -171v-49h-72v47q0 58 -9 94.5t-35 56.5t-75 20q-53 0 -81 -22t-38 -60.5t-10 -98.5v-345q0 -94 28.5 -137t100.5 -43q71 0 95 43.5t24 132.5v53h72v-48q0 -116 -43 -179t-149 -63
q-114 0 -159.5 67zM207 -199v38q15 -4 32 -4q66 0 66 41q0 43 -75 52v72h39v-50q44 -1 68 -21t24 -54q0 -39 -28 -59t-79 -20q-22 0 -47 5z" />
    <glyph glyph-name="Egrave" unicode="&#xc8;" horiz-adv-x="398" 
d="M70 810h293v-59h-216v-304h176v-56h-176v-334h218v-57h-295v810zM109 1054h74l55 -196h-37z" />
    <glyph glyph-name="Eacute" unicode="&#xc9;" horiz-adv-x="398" 
d="M70 810h293v-59h-216v-304h176v-56h-176v-334h218v-57h-295v810zM264 1054h73l-98 -196h-38z" />
    <glyph glyph-name="Ecircumflex" unicode="&#xca;" horiz-adv-x="398" 
d="M70 810h293v-59h-216v-304h176v-56h-176v-334h218v-57h-295v810zM179 1042h82l85 -178h-54l-73 141l-72 -141h-55z" />
    <glyph glyph-name="Edieresis" unicode="&#xcb;" horiz-adv-x="398" 
d="M70 810h293v-59h-216v-304h176v-56h-176v-334h218v-57h-295v810zM101 1042h75v-89h-75v89zM266 1042h75v-89h-75v89z" />
    <glyph glyph-name="Igrave" unicode="&#xcc;" horiz-adv-x="222" 
d="M73 810h76v-810h-76v810zM0 1054h74l55 -196h-37z" />
    <glyph glyph-name="Iacute" unicode="&#xcd;" horiz-adv-x="222" 
d="M73 810h76v-810h-76v810zM155 1054h73l-98 -196h-38z" />
    <glyph glyph-name="Icircumflex" unicode="&#xce;" horiz-adv-x="222" 
d="M73 810h76v-810h-76v810zM70 1042h82l85 -178h-54l-73 141l-72 -141h-55z" />
    <glyph glyph-name="Idieresis" unicode="&#xcf;" horiz-adv-x="222" 
d="M73 810h76v-810h-76v810zM-8 1042h75v-89h-75v89zM157 1042h75v-89h-75v89z" />
    <glyph glyph-name="Eth" unicode="&#xd0;" horiz-adv-x="545" 
d="M71 401h-60v47h60v362h176q120 0 170 -61.5t50 -176.5v-322q0 -121 -48.5 -185.5t-164.5 -64.5h-183v401zM249 57q61 0 91.5 25.5t39.5 68t9 111.5v302q0 66 -11 105.5t-42 60.5t-90 21h-99v-303h81v-47h-81v-344h102z" />
    <glyph glyph-name="Ntilde" unicode="&#xd1;" horiz-adv-x="520" 
d="M71 810h55l258 -629v629h66v-810h-54l-259 636v-636h-66v810zM290 931q-14 7 -34 20q-17 11 -27.5 16t-21.5 5q-32 0 -32 -40h-45q0 33 15.5 60.5t53.5 27.5q17 0 32 -6.5t33 -19.5q17 -11 27.5 -16t21.5 -5q17 0 25 10t8 33h44q0 -37 -14.5 -64.5t-54.5 -27.5
q-17 0 -31 7z" />
    <glyph glyph-name="Ograve" unicode="&#xd2;" horiz-adv-x="525" 
d="M101.5 55q-47.5 65 -47.5 184v336q0 118 48 180.5t161 62.5q111 0 159 -63t48 -180v-337q0 -119 -47 -183.5t-160 -64.5q-114 0 -161.5 65zM365 94.5q28 43.5 28 127.5v367q0 84 -27.5 126t-102.5 42q-76 0 -104 -41.5t-28 -126.5v-367q0 -85 28 -128t104 -43
q74 0 102 43.5zM152 1054h74l55 -196h-37z" />
    <glyph glyph-name="Oacute" unicode="&#xd3;" horiz-adv-x="525" 
d="M101.5 55q-47.5 65 -47.5 184v336q0 118 48 180.5t161 62.5q111 0 159 -63t48 -180v-337q0 -119 -47 -183.5t-160 -64.5q-114 0 -161.5 65zM365 94.5q28 43.5 28 127.5v367q0 84 -27.5 126t-102.5 42q-76 0 -104 -41.5t-28 -126.5v-367q0 -85 28 -128t104 -43
q74 0 102 43.5zM307 1054h73l-98 -196h-38z" />
    <glyph glyph-name="Ocircumflex" unicode="&#xd4;" horiz-adv-x="525" 
d="M101.5 55q-47.5 65 -47.5 184v336q0 118 48 180.5t161 62.5q111 0 159 -63t48 -180v-337q0 -119 -47 -183.5t-160 -64.5q-114 0 -161.5 65zM365 94.5q28 43.5 28 127.5v367q0 84 -27.5 126t-102.5 42q-76 0 -104 -41.5t-28 -126.5v-367q0 -85 28 -128t104 -43
q74 0 102 43.5zM222 1042h82l85 -178h-54l-73 141l-72 -141h-55z" />
    <glyph glyph-name="Otilde" unicode="&#xd5;" horiz-adv-x="525" 
d="M101.5 55q-47.5 65 -47.5 184v336q0 118 48 180.5t161 62.5q111 0 159 -63t48 -180v-337q0 -119 -47 -183.5t-160 -64.5q-114 0 -161.5 65zM365 94.5q28 43.5 28 127.5v367q0 84 -27.5 126t-102.5 42q-76 0 -104 -41.5t-28 -126.5v-367q0 -85 28 -128t104 -43
q74 0 102 43.5zM293 931q-14 7 -34 20q-17 11 -27.5 16t-21.5 5q-32 0 -32 -40h-45q0 33 15.5 60.5t53.5 27.5q17 0 32 -6.5t33 -19.5q17 -11 27.5 -16t21.5 -5q17 0 25 10t8 33h44q0 -37 -14.5 -64.5t-54.5 -27.5q-17 0 -31 7z" />
    <glyph glyph-name="Odieresis" unicode="&#xd6;" horiz-adv-x="525" 
d="M101.5 55q-47.5 65 -47.5 184v336q0 118 48 180.5t161 62.5q111 0 159 -63t48 -180v-337q0 -119 -47 -183.5t-160 -64.5q-114 0 -161.5 65zM365 94.5q28 43.5 28 127.5v367q0 84 -27.5 126t-102.5 42q-76 0 -104 -41.5t-28 -126.5v-367q0 -85 28 -128t104 -43
q74 0 102 43.5zM144 1042h75v-89h-75v89zM309 1042h75v-89h-75v89z" />
    <glyph glyph-name="multiply" unicode="&#xd7;" horiz-adv-x="353" 
d="M41 294l98 98l-98 98l38 38l98 -98l97 98l39 -38l-99 -98l99 -98l-39 -39l-97 99l-98 -99z" />
    <glyph glyph-name="Oslash" unicode="&#xd8;" horiz-adv-x="529" 
d="M470 575v-337q0 -119 -47 -183.5t-160 -64.5q-54 0 -96 16l-26 -93l-31 9l28 99q-45 29 -64.5 84.5t-19.5 133.5v336q0 118 48 180.5t161 62.5q52 0 94 -16l25 88l31 -8l-27 -95q84 -54 84 -212zM137 147.5q6 -31.5 22 -52.5l181 644q-29 18 -77 18q-76 0 -104 -41.5
t-28 -126.5v-367q0 -43 6 -74.5zM393 589q0 43 -6 73.5t-21 51.5l-181 -644q30 -19 78 -19q74 0 102 43.5t28 127.5v367z" />
    <glyph glyph-name="Ugrave" unicode="&#xd9;" horiz-adv-x="537" 
d="M107 49.5q-45 59.5 -45 171.5v589h74v-591q0 -80 28.5 -124t104.5 -44q73 0 103 44.5t30 123.5v591h73v-589q0 -110 -46.5 -170.5t-159.5 -60.5q-117 0 -162 59.5zM158 1054h74l55 -196h-37z" />
    <glyph glyph-name="Uacute" unicode="&#xda;" horiz-adv-x="537" 
d="M107 49.5q-45 59.5 -45 171.5v589h74v-591q0 -80 28.5 -124t104.5 -44q73 0 103 44.5t30 123.5v591h73v-589q0 -110 -46.5 -170.5t-159.5 -60.5q-117 0 -162 59.5zM313 1054h73l-98 -196h-38z" />
    <glyph glyph-name="Ucircumflex" unicode="&#xdb;" horiz-adv-x="537" 
d="M107 49.5q-45 59.5 -45 171.5v589h74v-591q0 -80 28.5 -124t104.5 -44q73 0 103 44.5t30 123.5v591h73v-589q0 -110 -46.5 -170.5t-159.5 -60.5q-117 0 -162 59.5zM228 1042h82l85 -178h-54l-73 141l-72 -141h-55z" />
    <glyph glyph-name="Udieresis" unicode="&#xdc;" horiz-adv-x="537" 
d="M107 49.5q-45 59.5 -45 171.5v589h74v-591q0 -80 28.5 -124t104.5 -44q73 0 103 44.5t30 123.5v591h73v-589q0 -110 -46.5 -170.5t-159.5 -60.5q-117 0 -162 59.5zM150 1042h75v-89h-75v89zM315 1042h75v-89h-75v89z" />
    <glyph glyph-name="Yacute" unicode="&#xdd;" horiz-adv-x="469" 
d="M200 269l-183 541h74l146 -450l140 450h75l-178 -541v-269h-74v269zM279 1054h73l-98 -196h-38z" />
    <glyph glyph-name="Thorn" unicode="&#xde;" horiz-adv-x="504" 
d="M71 810h76v-105h139q99 0 145 -62t46 -164q0 -104 -47.5 -169.5t-154.5 -65.5h-128v-244h-76v810zM260 308q73 0 107 39.5t34 130.5q0 86 -33.5 124.5t-100.5 38.5h-120v-333h113z" />
    <glyph glyph-name="germandbls" unicode="&#xdf;" horiz-adv-x="496" 
d="M190 51q106 0 145 50t39 134q0 77 -34.5 125.5t-110.5 48.5l1 62q57 0 82 43t25 111q0 70 -23.5 105.5t-78.5 35.5q-53 0 -76.5 -33t-23.5 -121v-612h-73v611q0 114 42.5 164t129.5 50q84 0 129 -50.5t45 -149.5q0 -142 -97 -179q69 -17 102 -73.5t33 -135.5
q0 -247 -256 -247v61z" />
    <glyph glyph-name="agrave" unicode="&#xe0;" horiz-adv-x="397" 
d="M72 28q-32 37 -32 92q0 57 22.5 94t69.5 66t141 71v41q0 54 -6.5 84t-22 43t-43.5 13q-81 0 -81 -99v-20l-72 1q1 89 38 131t119 42q76 0 108.5 -46t32.5 -145v-281q0 -28 1.5 -64t3.5 -51h-65l-11 80q-13 -38 -44.5 -63.5t-74.5 -25.5q-52 0 -84 37zM233.5 73.5
q24.5 20.5 39.5 48.5v180q-68 -36 -98.5 -56t-46 -44.5t-15.5 -63.5q0 -43 18.5 -64t47.5 -21q30 0 54.5 20.5zM93 822h74l55 -196h-37z" />
    <glyph glyph-name="aacute" unicode="&#xe1;" horiz-adv-x="397" 
d="M72 28q-32 37 -32 92q0 57 22.5 94t69.5 66t141 71v41q0 54 -6.5 84t-22 43t-43.5 13q-81 0 -81 -99v-20l-72 1q1 89 38 131t119 42q76 0 108.5 -46t32.5 -145v-281q0 -28 1.5 -64t3.5 -51h-65l-11 80q-13 -38 -44.5 -63.5t-74.5 -25.5q-52 0 -84 37zM233.5 73.5
q24.5 20.5 39.5 48.5v180q-68 -36 -98.5 -56t-46 -44.5t-15.5 -63.5q0 -43 18.5 -64t47.5 -21q30 0 54.5 20.5zM248 822h73l-98 -196h-38z" />
    <glyph glyph-name="acircumflex" unicode="&#xe2;" horiz-adv-x="397" 
d="M72 28q-32 37 -32 92q0 57 22.5 94t69.5 66t141 71v41q0 54 -6.5 84t-22 43t-43.5 13q-81 0 -81 -99v-20l-72 1q1 89 38 131t119 42q76 0 108.5 -46t32.5 -145v-281q0 -28 1.5 -64t3.5 -51h-65l-11 80q-13 -38 -44.5 -63.5t-74.5 -25.5q-52 0 -84 37zM233.5 73.5
q24.5 20.5 39.5 48.5v180q-68 -36 -98.5 -56t-46 -44.5t-15.5 -63.5q0 -43 18.5 -64t47.5 -21q30 0 54.5 20.5zM163 810h82l85 -178h-54l-73 141l-72 -141h-55z" />
    <glyph glyph-name="atilde" unicode="&#xe3;" horiz-adv-x="397" 
d="M72 28q-32 37 -32 92q0 57 22.5 94t69.5 66t141 71v41q0 54 -6.5 84t-22 43t-43.5 13q-81 0 -81 -99v-20l-72 1q1 89 38 131t119 42q76 0 108.5 -46t32.5 -145v-281q0 -28 1.5 -64t3.5 -51h-65l-11 80q-13 -38 -44.5 -63.5t-74.5 -25.5q-52 0 -84 37zM233.5 73.5
q24.5 20.5 39.5 48.5v180q-68 -36 -98.5 -56t-46 -44.5t-15.5 -63.5q0 -43 18.5 -64t47.5 -21q30 0 54.5 20.5zM234 699q-14 7 -34 20q-17 11 -27.5 16t-21.5 5q-32 0 -32 -40h-45q0 33 15.5 60.5t53.5 27.5q17 0 32 -6.5t33 -19.5q17 -11 27.5 -16t21.5 -5q17 0 25 10t8 33
h44q0 -37 -14.5 -64.5t-54.5 -27.5q-17 0 -31 7z" />
    <glyph glyph-name="adieresis" unicode="&#xe4;" horiz-adv-x="397" 
d="M72 28q-32 37 -32 92q0 57 22.5 94t69.5 66t141 71v41q0 54 -6.5 84t-22 43t-43.5 13q-81 0 -81 -99v-20l-72 1q1 89 38 131t119 42q76 0 108.5 -46t32.5 -145v-281q0 -28 1.5 -64t3.5 -51h-65l-11 80q-13 -38 -44.5 -63.5t-74.5 -25.5q-52 0 -84 37zM233.5 73.5
q24.5 20.5 39.5 48.5v180q-68 -36 -98.5 -56t-46 -44.5t-15.5 -63.5q0 -43 18.5 -64t47.5 -21q30 0 54.5 20.5zM85 810h75v-89h-75v89zM250 810h75v-89h-75v89z" />
    <glyph glyph-name="aring" unicode="&#xe5;" horiz-adv-x="397" 
d="M72 28q-32 37 -32 92q0 57 22.5 94t69.5 66t141 71v41q0 54 -6.5 84t-22 43t-43.5 13q-81 0 -81 -99v-20l-72 1q1 89 38 131t119 42q76 0 108.5 -46t32.5 -145v-281q0 -28 1.5 -64t3.5 -51h-65l-11 80q-13 -38 -44.5 -63.5t-74.5 -25.5q-52 0 -84 37zM233.5 73.5
q24.5 20.5 39.5 48.5v180q-68 -36 -98.5 -56t-46 -44.5t-15.5 -63.5q0 -43 18.5 -64t47.5 -21q30 0 54.5 20.5zM135.5 654q-27.5 25 -27.5 70t27.5 70t68.5 25t68.5 -25t27.5 -70t-27.5 -70t-68.5 -25t-68.5 25zM243.5 683q15.5 14 15.5 41q0 28 -15.5 42t-39.5 14
t-39.5 -14t-15.5 -42q0 -27 15.5 -41t39.5 -14t39.5 14z" />
    <glyph glyph-name="ae" unicode="&#xe6;" horiz-adv-x="622" 
d="M579 197v-32q0 -83 -34.5 -128.5t-111.5 -45.5q-55 0 -89 29t-42 88q-15 -60 -52 -88.5t-86 -28.5q-58 0 -91 35.5t-33 93.5q0 67 32.5 108.5t117.5 69.5l84 27v81q0 68 -18 96t-61 28q-36 0 -56.5 -25.5t-20.5 -80.5l-71 1q0 78 38.5 120t108.5 42q46 0 76 -23t41 -65
q12 44 48 66t84 22q64 0 97.5 -33.5t33.5 -89.5q0 -62 -32.5 -92t-97.5 -49l-96 -30v-95q0 -78 18 -113t62 -35q37 0 57.5 25t20.5 88v34h73zM348 337l84 27q42 14 58.5 33.5t16.5 57.5q0 32 -17.5 52.5t-55.5 20.5q-44 0 -65 -32t-21 -107v-52zM274 279l-63 -23
q-59 -23 -79 -50.5t-20 -73.5q0 -42 20 -63t49 -21q41 0 67 36t26 116v79z" />
    <glyph glyph-name="ccedilla" unicode="&#xe7;" horiz-adv-x="389" 
d="M102 19.5q-34 28.5 -45.5 77t-11.5 122.5v135q0 84 13.5 134t47 74.5t94.5 24.5q85 0 116 -46.5t31 -138.5v-28h-68v28q0 51 -7.5 79t-24.5 39.5t-47 11.5q-34 0 -51.5 -16t-24 -50.5t-6.5 -99.5v-162q0 -60 7 -94t25 -49t51 -15q34 0 50.5 14.5t22 43.5t5.5 81v32h68
v-28q0 -65 -11.5 -107.5t-43.5 -66.5t-92 -24q-64 0 -98 28.5zM152 -199v38q15 -4 32 -4q66 0 66 41q0 43 -75 52v72h39v-50q44 -1 68 -21t24 -54q0 -39 -28 -59t-79 -20q-22 0 -47 5z" />
    <glyph glyph-name="egrave" unicode="&#xe8;" horiz-adv-x="395" 
d="M111 13q-34 22 -50 71t-16 133v146q0 85 16.5 133.5t51 69.5t89.5 21q60 0 92.5 -25.5t45 -76.5t12.5 -137v-52h-234v-101q0 -83 19 -116t64 -33q38 0 58.5 24t20.5 87v40h71v-32q0 -84 -35 -129t-115 -45q-56 0 -90 22zM280 338v48q0 52 -5.5 82t-22.5 47t-51 17
q-31 0 -49 -13.5t-26 -47t-8 -94.5v-39h162zM87 822h74l55 -196h-37z" />
    <glyph glyph-name="eacute" unicode="&#xe9;" horiz-adv-x="395" 
d="M111 13q-34 22 -50 71t-16 133v146q0 85 16.5 133.5t51 69.5t89.5 21q60 0 92.5 -25.5t45 -76.5t12.5 -137v-52h-234v-101q0 -83 19 -116t64 -33q38 0 58.5 24t20.5 87v40h71v-32q0 -84 -35 -129t-115 -45q-56 0 -90 22zM280 338v48q0 52 -5.5 82t-22.5 47t-51 17
q-31 0 -49 -13.5t-26 -47t-8 -94.5v-39h162zM242 822h73l-98 -196h-38z" />
    <glyph glyph-name="ecircumflex" unicode="&#xea;" horiz-adv-x="395" 
d="M111 13q-34 22 -50 71t-16 133v146q0 85 16.5 133.5t51 69.5t89.5 21q60 0 92.5 -25.5t45 -76.5t12.5 -137v-52h-234v-101q0 -83 19 -116t64 -33q38 0 58.5 24t20.5 87v40h71v-32q0 -84 -35 -129t-115 -45q-56 0 -90 22zM280 338v48q0 52 -5.5 82t-22.5 47t-51 17
q-31 0 -49 -13.5t-26 -47t-8 -94.5v-39h162zM157 810h82l85 -178h-54l-73 141l-72 -141h-55z" />
    <glyph glyph-name="edieresis" unicode="&#xeb;" horiz-adv-x="395" 
d="M111 13q-34 22 -50 71t-16 133v146q0 85 16.5 133.5t51 69.5t89.5 21q60 0 92.5 -25.5t45 -76.5t12.5 -137v-52h-234v-101q0 -83 19 -116t64 -33q38 0 58.5 24t20.5 87v40h71v-32q0 -84 -35 -129t-115 -45q-56 0 -90 22zM280 338v48q0 52 -5.5 82t-22.5 47t-51 17
q-31 0 -49 -13.5t-26 -47t-8 -94.5v-39h162zM79 810h75v-89h-75v89zM244 810h75v-89h-75v89z" />
    <glyph glyph-name="igrave" unicode="&#xec;" horiz-adv-x="198" 
d="M64 578h73v-578h-73v578zM-10 822h74l55 -196h-37z" />
    <glyph glyph-name="iacute" unicode="&#xed;" horiz-adv-x="198" 
d="M64 578h73v-578h-73v578zM145 822h73l-98 -196h-38z" />
    <glyph glyph-name="icircumflex" unicode="&#xee;" horiz-adv-x="198" 
d="M64 578h73v-578h-73v578zM60 810h82l85 -178h-54l-73 141l-72 -141h-55z" />
    <glyph glyph-name="idieresis" unicode="&#xef;" horiz-adv-x="198" 
d="M64 578h73v-578h-73v578zM-18 810h75v-89h-75v89zM147 810h75v-89h-75v89z" />
    <glyph glyph-name="eth" unicode="&#xf0;" horiz-adv-x="445" 
d="M54 224v74q1 127 37.5 192.5t116.5 65.5q49 0 98 -30q-5 40 -14 77.5t-21 58.5l-109 -31v40l89 25q-21 37 -62 56t-109 23l3 50q86 -3 140.5 -28.5t85.5 -81.5l94 26v-41l-75 -20q24 -54 41.5 -140t17.5 -191v-105q0 -128 -36.5 -191t-127.5 -63q-169 0 -169 234z
M281.5 70.5q19.5 21.5 26 65.5t6.5 123q0 55 -5 177l-1 33q-23 13 -42 20.5t-40 7.5q-52 0 -75.5 -53t-23.5 -177q0 -114 21.5 -166t76.5 -52q37 0 56.5 21.5z" />
    <glyph glyph-name="ntilde" unicode="&#xf1;" horiz-adv-x="409" 
d="M56 578h73v-60q29 32 64.5 50.5t74.5 18.5q43 0 66 -32t23 -91v-464h-73v448q0 44 -13.5 63t-41.5 19q-24 0 -50 -14.5t-50 -39.5v-476h-73v578zM235 699q-14 7 -34 20q-17 11 -27.5 16t-21.5 5q-32 0 -32 -40h-45q0 33 15.5 60.5t53.5 27.5q17 0 32 -6.5t33 -19.5
q17 -11 27.5 -16t21.5 -5q17 0 25 10t8 33h44q0 -37 -14.5 -64.5t-54.5 -27.5q-17 0 -31 7z" />
    <glyph glyph-name="ograve" unicode="&#xf2;" horiz-adv-x="399" 
d="M79 44.5q-34 53.5 -34 164.5v160q0 111 34 164.5t120 53.5q87 0 121 -53.5t34 -164.5v-160q0 -111 -34 -164.5t-121 -53.5q-86 0 -120 53.5zM252.5 65q17.5 19 22.5 51.5t5 88.5v168q0 56 -5 88.5t-22.5 51.5t-53.5 19t-53 -19t-22 -51.5t-5 -88.5v-168q0 -56 5 -88.5
t22 -51.5t53 -19t53.5 19zM89 822h74l55 -196h-37z" />
    <glyph glyph-name="oacute" unicode="&#xf3;" horiz-adv-x="399" 
d="M79 44.5q-34 53.5 -34 164.5v160q0 111 34 164.5t120 53.5q87 0 121 -53.5t34 -164.5v-160q0 -111 -34 -164.5t-121 -53.5q-86 0 -120 53.5zM252.5 65q17.5 19 22.5 51.5t5 88.5v168q0 56 -5 88.5t-22.5 51.5t-53.5 19t-53 -19t-22 -51.5t-5 -88.5v-168q0 -56 5 -88.5
t22 -51.5t53 -19t53.5 19zM244 822h73l-98 -196h-38z" />
    <glyph glyph-name="ocircumflex" unicode="&#xf4;" horiz-adv-x="399" 
d="M79 44.5q-34 53.5 -34 164.5v160q0 111 34 164.5t120 53.5q87 0 121 -53.5t34 -164.5v-160q0 -111 -34 -164.5t-121 -53.5q-86 0 -120 53.5zM252.5 65q17.5 19 22.5 51.5t5 88.5v168q0 56 -5 88.5t-22.5 51.5t-53.5 19t-53 -19t-22 -51.5t-5 -88.5v-168q0 -56 5 -88.5
t22 -51.5t53 -19t53.5 19zM159 810h82l85 -178h-54l-73 141l-72 -141h-55z" />
    <glyph glyph-name="otilde" unicode="&#xf5;" horiz-adv-x="399" 
d="M79 44.5q-34 53.5 -34 164.5v160q0 111 34 164.5t120 53.5q87 0 121 -53.5t34 -164.5v-160q0 -111 -34 -164.5t-121 -53.5q-86 0 -120 53.5zM252.5 65q17.5 19 22.5 51.5t5 88.5v168q0 56 -5 88.5t-22.5 51.5t-53.5 19t-53 -19t-22 -51.5t-5 -88.5v-168q0 -56 5 -88.5
t22 -51.5t53 -19t53.5 19zM230 699q-14 7 -34 20q-17 11 -27.5 16t-21.5 5q-32 0 -32 -40h-45q0 33 15.5 60.5t53.5 27.5q17 0 32 -6.5t33 -19.5q17 -11 27.5 -16t21.5 -5q17 0 25 10t8 33h44q0 -37 -14.5 -64.5t-54.5 -27.5q-17 0 -31 7z" />
    <glyph glyph-name="odieresis" unicode="&#xf6;" horiz-adv-x="399" 
d="M79 44.5q-34 53.5 -34 164.5v160q0 111 34 164.5t120 53.5q87 0 121 -53.5t34 -164.5v-160q0 -111 -34 -164.5t-121 -53.5q-86 0 -120 53.5zM252.5 65q17.5 19 22.5 51.5t5 88.5v168q0 56 -5 88.5t-22.5 51.5t-53.5 19t-53 -19t-22 -51.5t-5 -88.5v-168q0 -56 5 -88.5
t22 -51.5t53 -19t53.5 19zM81 810h75v-89h-75v89zM246 810h75v-89h-75v89z" />
    <glyph glyph-name="divide" unicode="&#xf7;" horiz-adv-x="337" 
d="M137 623h62v-90h-62v90zM26 443h285v-56h-285v56zM137 287h62v-91h-62v91z" />
    <glyph glyph-name="oslash" unicode="&#xf8;" horiz-adv-x="398" 
d="M354 369v-160q0 -111 -34 -164.5t-121 -53.5q-50 0 -83 18l-31 -85l-25 8l34 94q-26 26 -37.5 71.5t-11.5 111.5v160q0 111 34 164.5t120 53.5q56 0 91 -23l30 83l27 -10l-34 -94q41 -49 41 -174zM125 111l140 384q-9 19 -25 28t-41 9q-36 0 -53 -19t-22 -51.5t-5 -88.5
v-168q0 -64 6 -94zM280 373q0 52 -3 74l-137 -374q19 -27 59 -27q36 0 53.5 19t22.5 51.5t5 88.5v168z" />
    <glyph glyph-name="ugrave" unicode="&#xf9;" horiz-adv-x="412" 
d="M74 23q-23 32 -23 91v464h74v-448q0 -44 13.5 -62.5t41.5 -18.5q25 0 51.5 15.5t50.5 41.5v472h73v-578h-73v64q-29 -34 -65 -53.5t-76 -19.5q-44 0 -67 32zM95 822h74l55 -196h-37z" />
    <glyph glyph-name="uacute" unicode="&#xfa;" horiz-adv-x="412" 
d="M74 23q-23 32 -23 91v464h74v-448q0 -44 13.5 -62.5t41.5 -18.5q25 0 51.5 15.5t50.5 41.5v472h73v-578h-73v64q-29 -34 -65 -53.5t-76 -19.5q-44 0 -67 32zM250 822h73l-98 -196h-38z" />
    <glyph glyph-name="ucircumflex" unicode="&#xfb;" horiz-adv-x="412" 
d="M74 23q-23 32 -23 91v464h74v-448q0 -44 13.5 -62.5t41.5 -18.5q25 0 51.5 15.5t50.5 41.5v472h73v-578h-73v64q-29 -34 -65 -53.5t-76 -19.5q-44 0 -67 32zM165 810h82l85 -178h-54l-73 141l-72 -141h-55z" />
    <glyph glyph-name="udieresis" unicode="&#xfc;" horiz-adv-x="412" 
d="M74 23q-23 32 -23 91v464h74v-448q0 -44 13.5 -62.5t41.5 -18.5q25 0 51.5 15.5t50.5 41.5v472h73v-578h-73v64q-29 -34 -65 -53.5t-76 -19.5q-44 0 -67 32zM87 810h75v-89h-75v89zM252 810h75v-89h-75v89z" />
    <glyph glyph-name="yacute" unicode="&#xfd;" horiz-adv-x="381" 
d="M40 -87q70 0 94 15t24 45q0 19 -8.5 54.5t-10.5 41.5l-119 509h73l100 -492l97 492h74l-140 -619q-13 -55 -52 -79t-113 -24h-19v57zM235 822h73l-98 -196h-38z" />
    <glyph glyph-name="thorn" unicode="&#xfe;" horiz-adv-x="416" 
d="M57 810h73v-280q45 57 111 57q76 0 103.5 -63t27.5 -167v-122q0 -119 -31.5 -181.5t-107.5 -62.5q-56 0 -103 55v-236h-73v1000zM282.5 92q15.5 43 15.5 141v124q0 62 -5.5 98.5t-22.5 55.5t-50 19q-45 0 -90 -45v-394q17 -19 40.5 -30.5t50.5 -11.5q46 0 61.5 43z" />
    <glyph glyph-name="ydieresis" unicode="&#xff;" horiz-adv-x="381" 
d="M40 -87q70 0 94 15t24 45q0 19 -8.5 54.5t-10.5 41.5l-119 509h73l100 -492l97 492h74l-140 -619q-13 -55 -52 -79t-113 -24h-19v57zM72 810h75v-89h-75v89zM237 810h75v-89h-75v89z" />
    <glyph glyph-name="Amacron" unicode="&#x100;" horiz-adv-x="477" 
d="M198 810h80l172 -810h-75l-40 217h-193l-41 -217h-74zM325 272l-86 437l-86 -437h172zM149 976h180v-50h-180v50z" />
    <glyph glyph-name="amacron" unicode="&#x101;" horiz-adv-x="397" 
d="M72 28q-32 37 -32 92q0 57 22.5 94t69.5 66t141 71v41q0 54 -6.5 84t-22 43t-43.5 13q-81 0 -81 -99v-20l-72 1q1 89 38 131t119 42q76 0 108.5 -46t32.5 -145v-281q0 -28 1.5 -64t3.5 -51h-65l-11 80q-13 -38 -44.5 -63.5t-74.5 -25.5q-52 0 -84 37zM233.5 73.5
q24.5 20.5 39.5 48.5v180q-68 -36 -98.5 -56t-46 -44.5t-15.5 -63.5q0 -43 18.5 -64t47.5 -21q30 0 54.5 20.5zM114 744h180v-50h-180v50z" />
    <glyph glyph-name="Abreve" unicode="&#x102;" horiz-adv-x="477" 
d="M198 810h80l172 -810h-75l-40 217h-193l-41 -217h-74zM325 272l-86 437l-86 -437h172zM150 903q-30 31 -32 89h47q1 -76 73 -76q71 0 75 76h46q-1 -57 -32 -88.5t-89 -31.5t-88 31z" />
    <glyph glyph-name="abreve" unicode="&#x103;" horiz-adv-x="397" 
d="M72 28q-32 37 -32 92q0 57 22.5 94t69.5 66t141 71v41q0 54 -6.5 84t-22 43t-43.5 13q-81 0 -81 -99v-20l-72 1q1 89 38 131t119 42q76 0 108.5 -46t32.5 -145v-281q0 -28 1.5 -64t3.5 -51h-65l-11 80q-13 -38 -44.5 -63.5t-74.5 -25.5q-52 0 -84 37zM233.5 73.5
q24.5 20.5 39.5 48.5v180q-68 -36 -98.5 -56t-46 -44.5t-15.5 -63.5q0 -43 18.5 -64t47.5 -21q30 0 54.5 20.5zM115 671q-30 31 -32 89h47q1 -76 73 -76q71 0 75 76h46q-1 -57 -32 -88.5t-89 -31.5t-88 31z" />
    <glyph glyph-name="Aogonek" unicode="&#x104;" horiz-adv-x="477" 
d="M198 810h80l172 -810h-75l-40 217h-193l-41 -217h-74zM325 272l-86 437l-86 -437h172zM339 -192.5q-31 19.5 -31 62.5q0 39 26.5 74.5t64.5 55.5h39q-74 -70 -74 -122q0 -27 21.5 -39t54.5 -12q9 0 23 2l-11 -39q-16 -2 -29 -2q-53 0 -84 19.5z" />
    <glyph glyph-name="aogonek" unicode="&#x105;" horiz-adv-x="397" 
d="M72 28q-32 37 -32 92q0 57 22.5 94t69.5 66t141 71v41q0 54 -6.5 84t-22 43t-43.5 13q-81 0 -81 -99v-20l-72 1q1 89 38 131t119 42q76 0 108.5 -46t32.5 -145v-281q0 -28 1.5 -64t3.5 -51h-65l-11 80q-13 -38 -44.5 -63.5t-74.5 -25.5q-52 0 -84 37zM233.5 73.5
q24.5 20.5 39.5 48.5v180q-68 -36 -98.5 -56t-46 -44.5t-15.5 -63.5q0 -43 18.5 -64t47.5 -21q30 0 54.5 20.5zM242 -192.5q-31 19.5 -31 62.5q0 39 26.5 74.5t64.5 55.5h39q-74 -70 -74 -122q0 -27 21.5 -39t54.5 -12q9 0 23 2l-11 -39q-16 -2 -29 -2q-53 0 -84 19.5z" />
    <glyph glyph-name="Cacute" unicode="&#x106;" horiz-adv-x="499" 
d="M99.5 57q-45.5 67 -45.5 186v322q0 122 45.5 187.5t159.5 65.5q104 0 148 -59t44 -171v-49h-72v47q0 58 -9 94.5t-35 56.5t-75 20q-53 0 -81 -22t-38 -60.5t-10 -98.5v-345q0 -94 28.5 -137t100.5 -43q71 0 95 43.5t24 132.5v53h72v-48q0 -116 -43 -179t-149 -63
q-114 0 -159.5 67zM294 1054h73l-98 -196h-38z" />
    <glyph glyph-name="cacute" unicode="&#x107;" horiz-adv-x="389" 
d="M102 19.5q-34 28.5 -45.5 77t-11.5 122.5v135q0 84 13.5 134t47 74.5t94.5 24.5q85 0 116 -46.5t31 -138.5v-28h-68v28q0 51 -7.5 79t-24.5 39.5t-47 11.5q-34 0 -51.5 -16t-24 -50.5t-6.5 -99.5v-162q0 -60 7 -94t25 -49t51 -15q34 0 50.5 14.5t22 43.5t5.5 81v32h68
v-28q0 -65 -11.5 -107.5t-43.5 -66.5t-92 -24q-64 0 -98 28.5zM239 822h73l-98 -196h-38z" />
    <glyph glyph-name="Ccircumflex" unicode="&#x108;" horiz-adv-x="499" 
d="M99.5 57q-45.5 67 -45.5 186v322q0 122 45.5 187.5t159.5 65.5q104 0 148 -59t44 -171v-49h-72v47q0 58 -9 94.5t-35 56.5t-75 20q-53 0 -81 -22t-38 -60.5t-10 -98.5v-345q0 -94 28.5 -137t100.5 -43q71 0 95 43.5t24 132.5v53h72v-48q0 -116 -43 -179t-149 -63
q-114 0 -159.5 67zM209 1042h82l85 -178h-54l-73 141l-72 -141h-55z" />
    <glyph glyph-name="ccircumflex" unicode="&#x109;" horiz-adv-x="389" 
d="M102 19.5q-34 28.5 -45.5 77t-11.5 122.5v135q0 84 13.5 134t47 74.5t94.5 24.5q85 0 116 -46.5t31 -138.5v-28h-68v28q0 51 -7.5 79t-24.5 39.5t-47 11.5q-34 0 -51.5 -16t-24 -50.5t-6.5 -99.5v-162q0 -60 7 -94t25 -49t51 -15q34 0 50.5 14.5t22 43.5t5.5 81v32h68
v-28q0 -65 -11.5 -107.5t-43.5 -66.5t-92 -24q-64 0 -98 28.5zM154 810h82l85 -178h-54l-73 141l-72 -141h-55z" />
    <glyph glyph-name="Cdotaccent" unicode="&#x10a;" horiz-adv-x="499" 
d="M99.5 57q-45.5 67 -45.5 186v322q0 122 45.5 187.5t159.5 65.5q104 0 148 -59t44 -171v-49h-72v47q0 58 -9 94.5t-35 56.5t-75 20q-53 0 -81 -22t-38 -60.5t-10 -98.5v-345q0 -94 28.5 -137t100.5 -43q71 0 95 43.5t24 132.5v53h72v-48q0 -116 -43 -179t-149 -63
q-114 0 -159.5 67zM211 1016h78v-110h-78v110z" />
    <glyph glyph-name="cdotaccent" unicode="&#x10b;" horiz-adv-x="389" 
d="M102 19.5q-34 28.5 -45.5 77t-11.5 122.5v135q0 84 13.5 134t47 74.5t94.5 24.5q85 0 116 -46.5t31 -138.5v-28h-68v28q0 51 -7.5 79t-24.5 39.5t-47 11.5q-34 0 -51.5 -16t-24 -50.5t-6.5 -99.5v-162q0 -60 7 -94t25 -49t51 -15q34 0 50.5 14.5t22 43.5t5.5 81v32h68
v-28q0 -65 -11.5 -107.5t-43.5 -66.5t-92 -24q-64 0 -98 28.5zM156 784h78v-110h-78v110z" />
    <glyph glyph-name="Ccaron" unicode="&#x10c;" horiz-adv-x="499" 
d="M99.5 57q-45.5 67 -45.5 186v322q0 122 45.5 187.5t159.5 65.5q104 0 148 -59t44 -171v-49h-72v47q0 58 -9 94.5t-35 56.5t-75 20q-53 0 -81 -22t-38 -60.5t-10 -98.5v-345q0 -94 28.5 -137t100.5 -43q71 0 95 43.5t24 132.5v53h72v-48q0 -116 -43 -179t-149 -63
q-114 0 -159.5 67zM132 1042h59l59 -120l59 120h59l-86 -167h-65z" />
    <glyph glyph-name="ccaron" unicode="&#x10d;" horiz-adv-x="389" 
d="M102 19.5q-34 28.5 -45.5 77t-11.5 122.5v135q0 84 13.5 134t47 74.5t94.5 24.5q85 0 116 -46.5t31 -138.5v-28h-68v28q0 51 -7.5 79t-24.5 39.5t-47 11.5q-34 0 -51.5 -16t-24 -50.5t-6.5 -99.5v-162q0 -60 7 -94t25 -49t51 -15q34 0 50.5 14.5t22 43.5t5.5 81v32h68
v-28q0 -65 -11.5 -107.5t-43.5 -66.5t-92 -24q-64 0 -98 28.5zM77 810h59l59 -120l59 120h59l-86 -167h-65z" />
    <glyph glyph-name="Dcaron" unicode="&#x10e;" horiz-adv-x="521" 
d="M71 810h176q120 0 170 -61.5t50 -176.5v-322q0 -121 -48.5 -185.5t-164.5 -64.5h-183v810zM249 57q61 0 91.5 25.5t39.5 68t9 111.5v302q0 66 -11 105.5t-42 60.5t-90 21h-99v-694h102zM143 1042h59l59 -120l59 120h59l-86 -167h-65z" />
    <glyph glyph-name="dcaron" unicode="&#x10f;" horiz-adv-x="476" 
d="M77.5 47q-32.5 56 -32.5 186v107q0 123 29 185t107 62q56 0 102 -50v273h73v-810h-73v41q-46 -50 -99 -50q-74 0 -106.5 56zM283 87v402q-46 41 -86 41q-46 0 -62.5 -39t-16.5 -127v-137q0 -94 16.5 -136t64.5 -42q42 0 84 38zM405 617q26 15 37 34.5t11 49.5h-44v109h81
v-101q0 -49 -16 -77t-54 -47z" />
    <glyph glyph-name="Dcroat" unicode="&#x110;" horiz-adv-x="522" 
d="M71 401h-58v47h58v362h178q119 0 169 -61.5t50 -176.5v-322q0 -121 -49 -185.5t-164 -64.5h-184v401zM250 57q61 0 91.5 25.5t40 68t9.5 111.5v302q0 66 -11 105.5t-42.5 60.5t-90.5 21h-99v-303h82v-47h-82v-344h102z" />
    <glyph glyph-name="dcroat" unicode="&#x111;" horiz-adv-x="427" 
d="M77.5 47q-32.5 56 -32.5 186v107q0 123 29 185t107 62q56 0 102 -50v149h-95v44h95v80h73v-80h58v-44h-58v-686h-73v41q-46 -50 -99 -50q-74 0 -106.5 56zM283 87v402q-46 41 -86 41q-46 0 -62.5 -39t-16.5 -127v-137q0 -94 16.5 -136t64.5 -42q42 0 84 38z" />
    <glyph glyph-name="Emacron" unicode="&#x112;" horiz-adv-x="398" 
d="M70 810h293v-59h-216v-304h176v-56h-176v-334h218v-57h-295v810zM130 976h180v-50h-180v50z" />
    <glyph glyph-name="emacron" unicode="&#x113;" horiz-adv-x="395" 
d="M111 13q-34 22 -50 71t-16 133v146q0 85 16.5 133.5t51 69.5t89.5 21q60 0 92.5 -25.5t45 -76.5t12.5 -137v-52h-234v-101q0 -83 19 -116t64 -33q38 0 58.5 24t20.5 87v40h71v-32q0 -84 -35 -129t-115 -45q-56 0 -90 22zM280 338v48q0 52 -5.5 82t-22.5 47t-51 17
q-31 0 -49 -13.5t-26 -47t-8 -94.5v-39h162zM108 744h180v-50h-180v50z" />
    <glyph glyph-name="Ebreve" unicode="&#x114;" horiz-adv-x="398" 
d="M70 810h293v-59h-216v-304h176v-56h-176v-334h218v-57h-295v810zM131 903q-30 31 -32 89h47q1 -76 73 -76q71 0 75 76h46q-1 -57 -32 -88.5t-89 -31.5t-88 31z" />
    <glyph glyph-name="ebreve" unicode="&#x115;" horiz-adv-x="395" 
d="M111 13q-34 22 -50 71t-16 133v146q0 85 16.5 133.5t51 69.5t89.5 21q60 0 92.5 -25.5t45 -76.5t12.5 -137v-52h-234v-101q0 -83 19 -116t64 -33q38 0 58.5 24t20.5 87v40h71v-32q0 -84 -35 -129t-115 -45q-56 0 -90 22zM280 338v48q0 52 -5.5 82t-22.5 47t-51 17
q-31 0 -49 -13.5t-26 -47t-8 -94.5v-39h162zM109 671q-30 31 -32 89h47q1 -76 73 -76q71 0 75 76h46q-1 -57 -32 -88.5t-89 -31.5t-88 31z" />
    <glyph glyph-name="Edotaccent" unicode="&#x116;" horiz-adv-x="398" 
d="M70 810h293v-59h-216v-304h176v-56h-176v-334h218v-57h-295v810zM181 1016h78v-110h-78v110z" />
    <glyph glyph-name="edotaccent" unicode="&#x117;" horiz-adv-x="395" 
d="M111 13q-34 22 -50 71t-16 133v146q0 85 16.5 133.5t51 69.5t89.5 21q60 0 92.5 -25.5t45 -76.5t12.5 -137v-52h-234v-101q0 -83 19 -116t64 -33q38 0 58.5 24t20.5 87v40h71v-32q0 -84 -35 -129t-115 -45q-56 0 -90 22zM280 338v48q0 52 -5.5 82t-22.5 47t-51 17
q-31 0 -49 -13.5t-26 -47t-8 -94.5v-39h162zM159 784h78v-110h-78v110z" />
    <glyph glyph-name="Eogonek" unicode="&#x118;" horiz-adv-x="398" 
d="M70 810h293v-59h-216v-304h176v-56h-176v-334h218v-57h-295v810zM236 -192.5q-31 19.5 -31 62.5q0 39 26.5 74.5t64.5 55.5h39q-74 -70 -74 -122q0 -27 21.5 -39t54.5 -12q9 0 23 2l-11 -39q-16 -2 -29 -2q-53 0 -84 19.5z" />
    <glyph glyph-name="eogonek" unicode="&#x119;" horiz-adv-x="395" 
d="M111 13q-34 22 -50 71t-16 133v146q0 85 16.5 133.5t51 69.5t89.5 21q60 0 92.5 -25.5t45 -76.5t12.5 -137v-52h-234v-101q0 -83 19 -116t64 -33q38 0 58.5 24t20.5 87v40h71v-32q0 -84 -35 -129t-115 -45q-56 0 -90 22zM280 338v48q0 52 -5.5 82t-22.5 47t-51 17
q-31 0 -49 -13.5t-26 -47t-8 -94.5v-39h162zM159 -182.5q-31 19.5 -31 62.5q0 39 26.5 74.5t64.5 55.5h39q-74 -70 -74 -122q0 -27 21.5 -39t54.5 -12q9 0 23 2l-11 -39q-16 -2 -29 -2q-53 0 -84 19.5z" />
    <glyph glyph-name="Ecaron" unicode="&#x11a;" horiz-adv-x="398" 
d="M70 810h293v-59h-216v-304h176v-56h-176v-334h218v-57h-295v810zM102 1042h59l59 -120l59 120h59l-86 -167h-65z" />
    <glyph glyph-name="ecaron" unicode="&#x11b;" horiz-adv-x="395" 
d="M111 13q-34 22 -50 71t-16 133v146q0 85 16.5 133.5t51 69.5t89.5 21q60 0 92.5 -25.5t45 -76.5t12.5 -137v-52h-234v-101q0 -83 19 -116t64 -33q38 0 58.5 24t20.5 87v40h71v-32q0 -84 -35 -129t-115 -45q-56 0 -90 22zM280 338v48q0 52 -5.5 82t-22.5 47t-51 17
q-31 0 -49 -13.5t-26 -47t-8 -94.5v-39h162zM80 810h59l59 -120l59 120h59l-86 -167h-65z" />
    <glyph glyph-name="Gcircumflex" unicode="&#x11c;" horiz-adv-x="519" 
d="M99.5 55.5q-45.5 66.5 -45.5 191.5v316q0 126 45 190.5t160 64.5q105 0 150.5 -58.5t45.5 -174.5v-28h-72v28q0 91 -26 131.5t-97 40.5q-53 0 -81.5 -23t-38 -62.5t-9.5 -100.5v-333q0 -95 27.5 -141t102.5 -46q71 0 99 46.5t28 142.5v95h-120v57h190v-392h-49l-9 92
q-17 -49 -52 -76t-94 -27q-109 0 -154.5 66.5zM219 1042h82l85 -178h-54l-73 141l-72 -141h-55z" />
    <glyph glyph-name="gcircumflex" unicode="&#x11d;" horiz-adv-x="431" 
d="M65.5 -164q-48.5 26 -48.5 79q0 40 27.5 73t67.5 53q-64 17 -64 63q0 28 16.5 51.5t52.5 53.5q-38 28 -55.5 71.5t-17.5 104.5q0 88 41 145t121 57q88 0 124 -72q9 16 31.5 35.5t46.5 29.5l15 5l20 -51q-24 -4 -53.5 -20t-41.5 -30q7 -19 12.5 -49.5t5.5 -51.5
q0 -93 -38 -147.5t-121 -54.5q-15 0 -31.5 2.5t-27.5 6.5q-39 -39 -39 -66q0 -14 11.5 -21.5t36.5 -10.5l92 -14q72 -11 108.5 -43.5t36.5 -90.5q0 -67 -51.5 -100.5t-139.5 -33.5q-89 0 -137.5 26zM283 276q19 42 19 109q0 150 -95 150q-55 0 -76 -44t-21 -106
q0 -151 97 -151q57 0 76 42zM301.5 -113q34.5 18 34.5 56q0 32 -22.5 50t-86.5 28l-74 10q-33 -24 -53.5 -46.5t-20.5 -51.5q0 -33 31 -48.5t96 -15.5q61 0 95.5 18zM175 810h82l85 -178h-54l-73 141l-72 -141h-55z" />
    <glyph glyph-name="Gbreve" unicode="&#x11e;" horiz-adv-x="519" 
d="M99.5 55.5q-45.5 66.5 -45.5 191.5v316q0 126 45 190.5t160 64.5q105 0 150.5 -58.5t45.5 -174.5v-28h-72v28q0 91 -26 131.5t-97 40.5q-53 0 -81.5 -23t-38 -62.5t-9.5 -100.5v-333q0 -95 27.5 -141t102.5 -46q71 0 99 46.5t28 142.5v95h-120v57h190v-392h-49l-9 92
q-17 -49 -52 -76t-94 -27q-109 0 -154.5 66.5zM171 903q-30 31 -32 89h47q1 -76 73 -76q71 0 75 76h46q-1 -57 -32 -88.5t-89 -31.5t-88 31z" />
    <glyph glyph-name="gbreve" unicode="&#x11f;" horiz-adv-x="431" 
d="M65.5 -164q-48.5 26 -48.5 79q0 40 27.5 73t67.5 53q-64 17 -64 63q0 28 16.5 51.5t52.5 53.5q-38 28 -55.5 71.5t-17.5 104.5q0 88 41 145t121 57q88 0 124 -72q9 16 31.5 35.5t46.5 29.5l15 5l20 -51q-24 -4 -53.5 -20t-41.5 -30q7 -19 12.5 -49.5t5.5 -51.5
q0 -93 -38 -147.5t-121 -54.5q-15 0 -31.5 2.5t-27.5 6.5q-39 -39 -39 -66q0 -14 11.5 -21.5t36.5 -10.5l92 -14q72 -11 108.5 -43.5t36.5 -90.5q0 -67 -51.5 -100.5t-139.5 -33.5q-89 0 -137.5 26zM283 276q19 42 19 109q0 150 -95 150q-55 0 -76 -44t-21 -106
q0 -151 97 -151q57 0 76 42zM301.5 -113q34.5 18 34.5 56q0 32 -22.5 50t-86.5 28l-74 10q-33 -24 -53.5 -46.5t-20.5 -51.5q0 -33 31 -48.5t96 -15.5q61 0 95.5 18zM127 671q-30 31 -32 89h47q1 -76 73 -76q71 0 75 76h46q-1 -57 -32 -88.5t-89 -31.5t-88 31z" />
    <glyph glyph-name="Gdotaccent" unicode="&#x120;" horiz-adv-x="519" 
d="M99.5 55.5q-45.5 66.5 -45.5 191.5v316q0 126 45 190.5t160 64.5q105 0 150.5 -58.5t45.5 -174.5v-28h-72v28q0 91 -26 131.5t-97 40.5q-53 0 -81.5 -23t-38 -62.5t-9.5 -100.5v-333q0 -95 27.5 -141t102.5 -46q71 0 99 46.5t28 142.5v95h-120v57h190v-392h-49l-9 92
q-17 -49 -52 -76t-94 -27q-109 0 -154.5 66.5zM221 1016h78v-110h-78v110z" />
    <glyph glyph-name="gdotaccent" unicode="&#x121;" horiz-adv-x="431" 
d="M65.5 -164q-48.5 26 -48.5 79q0 40 27.5 73t67.5 53q-64 17 -64 63q0 28 16.5 51.5t52.5 53.5q-38 28 -55.5 71.5t-17.5 104.5q0 88 41 145t121 57q88 0 124 -72q9 16 31.5 35.5t46.5 29.5l15 5l20 -51q-24 -4 -53.5 -20t-41.5 -30q7 -19 12.5 -49.5t5.5 -51.5
q0 -93 -38 -147.5t-121 -54.5q-15 0 -31.5 2.5t-27.5 6.5q-39 -39 -39 -66q0 -14 11.5 -21.5t36.5 -10.5l92 -14q72 -11 108.5 -43.5t36.5 -90.5q0 -67 -51.5 -100.5t-139.5 -33.5q-89 0 -137.5 26zM283 276q19 42 19 109q0 150 -95 150q-55 0 -76 -44t-21 -106
q0 -151 97 -151q57 0 76 42zM301.5 -113q34.5 18 34.5 56q0 32 -22.5 50t-86.5 28l-74 10q-33 -24 -53.5 -46.5t-20.5 -51.5q0 -33 31 -48.5t96 -15.5q61 0 95.5 18zM177 784h78v-110h-78v110z" />
    <glyph glyph-name="Gcommaaccent" unicode="&#x122;" horiz-adv-x="519" 
d="M99.5 55.5q-45.5 66.5 -45.5 191.5v316q0 126 45 190.5t160 64.5q105 0 150.5 -58.5t45.5 -174.5v-28h-72v28q0 91 -26 131.5t-97 40.5q-53 0 -81.5 -23t-38 -62.5t-9.5 -100.5v-333q0 -95 27.5 -141t102.5 -46q71 0 99 46.5t28 142.5v95h-120v57h190v-392h-49l-9 92
q-17 -49 -52 -76t-94 -27q-109 0 -154.5 66.5zM217 -225q47 20 47 76h-43v88h82l-1 -78q0 -52 -14 -80t-53 -39z" />
    <glyph glyph-name="gcommaaccent" unicode="&#x123;" horiz-adv-x="431" 
d="M65.5 -164q-48.5 26 -48.5 79q0 40 27.5 73t67.5 53q-64 17 -64 63q0 28 16.5 51.5t52.5 53.5q-38 28 -55.5 71.5t-17.5 104.5q0 88 41 145t121 57q88 0 124 -72q9 16 31.5 35.5t46.5 29.5l15 5l20 -51q-24 -4 -53.5 -20t-41.5 -30q7 -19 12.5 -49.5t5.5 -51.5
q0 -93 -38 -147.5t-121 -54.5q-15 0 -31.5 2.5t-27.5 6.5q-39 -39 -39 -66q0 -14 11.5 -21.5t36.5 -10.5l92 -14q72 -11 108.5 -43.5t36.5 -90.5q0 -67 -51.5 -100.5t-139.5 -33.5q-89 0 -137.5 26zM283 276q19 42 19 109q0 150 -95 150q-55 0 -76 -44t-21 -106
q0 -151 97 -151q57 0 76 42zM301.5 -113q34.5 18 34.5 56q0 32 -22.5 50t-86.5 28l-74 10q-33 -24 -53.5 -46.5t-20.5 -51.5q0 -33 31 -48.5t96 -15.5q61 0 95.5 18zM259 804q-47 -20 -47 -76h43v-88h-82l1 78q0 52 14 80t53 39z" />
    <glyph glyph-name="Hcircumflex" unicode="&#x124;" horiz-adv-x="549" 
d="M70 810h77v-359h255v359h76v-810h-76v394h-255v-394h-77v810zM234 1042h82l85 -178h-54l-73 141l-72 -141h-55z" />
    <glyph glyph-name="hcircumflex" unicode="&#x125;" horiz-adv-x="412" 
d="M57 810h73v-293q65 70 141 70q43 0 66 -32t23 -91v-464h-74v448q0 44 -13.5 63t-41.5 19q-24 0 -50.5 -15t-50.5 -40v-475h-73v810zM53 1042h82l85 -178h-54l-73 141l-72 -141h-55z" />
    <glyph glyph-name="Hbar" unicode="&#x126;" horiz-adv-x="549" 
d="M70 632h-41v42h41v136h77v-136h255v136h76v-136h42v-42h-42v-632h-76v394h-255v-394h-77v632zM402 451v181h-255v-181h255z" />
    <glyph glyph-name="hbar" unicode="&#x127;" horiz-adv-x="411" 
d="M57 697h-65v44h65v69h73v-69h120v-44h-120v-180q29 33 65 51.5t75 18.5q43 0 66 -32t23 -91v-464h-73v448q0 44 -13.5 63t-41.5 19q-48 0 -101 -55v-475h-73v697z" />
    <glyph glyph-name="Itilde" unicode="&#x128;" horiz-adv-x="222" 
d="M73 810h76v-810h-76v810zM141 931q-14 7 -34 20q-17 11 -27.5 16t-21.5 5q-32 0 -32 -40h-45q0 33 15.5 60.5t53.5 27.5q17 0 32 -6.5t33 -19.5q17 -11 27.5 -16t21.5 -5q17 0 25 10t8 33h44q0 -37 -14.5 -64.5t-54.5 -27.5q-17 0 -31 7z" />
    <glyph glyph-name="itilde" unicode="&#x129;" horiz-adv-x="198" 
d="M64 578h73v-578h-73v578zM131 699q-14 7 -34 20q-17 11 -27.5 16t-21.5 5q-32 0 -32 -40h-45q0 33 15.5 60.5t53.5 27.5q17 0 32 -6.5t33 -19.5q17 -11 27.5 -16t21.5 -5q17 0 25 10t8 33h44q0 -37 -14.5 -64.5t-54.5 -27.5q-17 0 -31 7z" />
    <glyph glyph-name="Imacron" unicode="&#x12a;" horiz-adv-x="222" 
d="M73 810h76v-810h-76v810zM21 976h180v-50h-180v50z" />
    <glyph glyph-name="imacron" unicode="&#x12b;" horiz-adv-x="198" 
d="M64 578h73v-578h-73v578zM11 744h180v-50h-180v50z" />
    <glyph glyph-name="Ibreve" unicode="&#x12c;" horiz-adv-x="222" 
d="M73 810h76v-810h-76v810zM22 903q-30 31 -32 89h47q1 -76 73 -76q71 0 75 76h46q-1 -57 -32 -88.5t-89 -31.5t-88 31z" />
    <glyph glyph-name="ibreve" unicode="&#x12d;" horiz-adv-x="198" 
d="M64 578h73v-578h-73v578zM12 671q-30 31 -32 89h47q1 -76 73 -76q71 0 75 76h46q-1 -57 -32 -88.5t-89 -31.5t-88 31z" />
    <glyph glyph-name="Iogonek" unicode="&#x12e;" horiz-adv-x="222" 
d="M73 810h76v-810h-76v810zM32 -192.5q-31 19.5 -31 62.5q0 39 26.5 74.5t64.5 55.5h39q-74 -70 -74 -122q0 -27 21.5 -39t54.5 -12q9 0 23 2l-11 -39q-16 -2 -29 -2q-53 0 -84 19.5z" />
    <glyph glyph-name="iogonek" unicode="&#x12f;" horiz-adv-x="204" 
d="M64 757h73v-99h-73v99zM64 578h73v-578h-73v578zM22 -192.5q-31 19.5 -31 62.5q0 39 26.5 74.5t64.5 55.5h39q-74 -70 -74 -122q0 -27 21.5 -39t54.5 -12q9 0 23 2l-11 -39q-16 -2 -29 -2q-53 0 -84 19.5z" />
    <glyph glyph-name="Idotaccent" unicode="&#x130;" horiz-adv-x="222" 
d="M73 810h76v-810h-76v810zM72 1016h78v-110h-78v110z" />
    <glyph glyph-name="dotlessi" unicode="&#x131;" horiz-adv-x="198" 
d="M64 578h73v-578h-73v578z" />
    <glyph glyph-name="IJ" unicode="&#x132;" horiz-adv-x="501" 
d="M73 810h76v-810h-76v810zM230 22q57 0 82.5 10.5t33.5 38.5t8 92v647h76v-651q0 -72 -12.5 -113t-47.5 -61t-103 -20h-37v57z" />
    <glyph glyph-name="ij" unicode="&#x133;" horiz-adv-x="417" 
d="M64 757h73v-99h-73v99zM64 578h73v-578h-73v578zM281 757h73v-99h-73v99zM187 -148v56q8 -2 25 -2q41 0 55 21.5t14 58.5v592h73v-598q0 -132 -128 -132q-28 0 -39 4z" />
    <glyph glyph-name="Jcircumflex" unicode="&#x134;" horiz-adv-x="279" 
d="M8 22q57 0 82.5 10.5t33.5 38.5t8 92v647h76v-651q0 -72 -12.5 -113t-47.5 -61t-103 -20h-37v57zM129 1042h82l85 -178h-54l-73 141l-72 -141h-55z" />
    <glyph glyph-name="jcircumflex" unicode="&#x135;" horiz-adv-x="213" 
d="M-17 -148v56q8 -2 25 -2q41 0 55 21.5t14 58.5v592h73v-598q0 -132 -128 -132q-28 0 -39 4zM73 810h82l85 -178h-54l-73 141l-72 -141h-55z" />
    <glyph glyph-name="Kcommaaccent" unicode="&#x136;" horiz-adv-x="473" 
d="M70 810h77v-428l216 428h73l-166 -348l202 -462h-75l-178 405l-72 -132v-273h-77v810zM194 -225q47 20 47 76h-43v88h82l-1 -78q0 -52 -14 -80t-53 -39z" />
    <glyph glyph-name="kcommaaccent" unicode="&#x137;" horiz-adv-x="400" 
d="M57 810h73v-514l193 282h77l-146 -223l140 -355h-74l-122 314l-68 -95v-219h-73v810zM158 -225q47 20 47 76h-43v88h82l-1 -78q0 -52 -14 -80t-53 -39z" />
    <glyph glyph-name="kgreenlandic" unicode="&#x138;" horiz-adv-x="418" 
d="M62 578h73v-284l183 284h76l-142 -224l144 -354h-74l-121 304l-66 -95v-209h-73v578z" />
    <glyph glyph-name="Lacute" unicode="&#x139;" horiz-adv-x="382" 
d="M71 810h76v-753h230v-57h-306v810zM153 1054h73l-98 -196h-38z" />
    <glyph glyph-name="lacute" unicode="&#x13a;" horiz-adv-x="202" 
d="M66 810h73v-810h-73v810zM147 1054h73l-98 -196h-38z" />
    <glyph glyph-name="Lcommaaccent" unicode="&#x13b;" horiz-adv-x="382" 
d="M71 810h76v-753h230v-57h-306v810zM181 -225q47 20 47 76h-43v88h82l-1 -78q0 -52 -14 -80t-53 -39z" />
    <glyph glyph-name="lcommaaccent" unicode="&#x13c;" horiz-adv-x="202" 
d="M66 810h73v-810h-73v810zM60 -225q47 20 47 76h-43v88h82l-1 -78q0 -52 -14 -80t-53 -39z" />
    <glyph glyph-name="Lcaron" unicode="&#x13d;" horiz-adv-x="382" 
d="M71 810h76v-753h230v-57h-306v810zM292 617q26 15 37 34.5t11 49.5h-44v109h81v-101q0 -49 -16 -77t-54 -47z" />
    <glyph glyph-name="lcaron" unicode="&#x13e;" horiz-adv-x="259" 
d="M66 810h73v-810h-73v810zM188 617q26 15 37 34.5t11 49.5h-44v109h81v-101q0 -49 -16 -77t-54 -47z" />
    <glyph glyph-name="Ldot" unicode="&#x13f;" horiz-adv-x="382" 
d="M71 810h76v-753h230v-57h-306v810zM270 474h59v-88h-59v88z" />
    <glyph glyph-name="ldot" unicode="&#x140;" horiz-adv-x="243" 
d="M66 810h73v-810h-73v810zM195 484h59v-88h-59v88z" />
    <glyph glyph-name="Lslash" unicode="&#x141;" horiz-adv-x="382" 
d="M71 396l-71 -37v60l71 38v353h76v-312l115 61v-60l-115 -61v-381h230v-57h-306v396z" />
    <glyph glyph-name="lslash" unicode="&#x142;" horiz-adv-x="255" 
d="M93 444l-65 -34v61l65 32v307h73v-271l60 32v-60l-60 -32v-479h-73v444z" />
    <glyph glyph-name="Nacute" unicode="&#x143;" horiz-adv-x="520" 
d="M71 810h55l258 -629v629h66v-810h-54l-259 636v-636h-66v810zM304 1054h73l-98 -196h-38z" />
    <glyph glyph-name="nacute" unicode="&#x144;" horiz-adv-x="409" 
d="M56 578h73v-60q29 32 64.5 50.5t74.5 18.5q43 0 66 -32t23 -91v-464h-73v448q0 44 -13.5 63t-41.5 19q-24 0 -50 -14.5t-50 -39.5v-476h-73v578zM249 822h73l-98 -196h-38z" />
    <glyph glyph-name="Ncommaaccent" unicode="&#x145;" horiz-adv-x="520" 
d="M71 810h55l258 -629v629h66v-810h-54l-259 636v-636h-66v810zM217 -225q47 20 47 76h-43v88h82l-1 -78q0 -52 -14 -80t-53 -39z" />
    <glyph glyph-name="ncommaaccent" unicode="&#x146;" horiz-adv-x="409" 
d="M56 578h73v-60q29 32 64.5 50.5t74.5 18.5q43 0 66 -32t23 -91v-464h-73v448q0 44 -13.5 63t-41.5 19q-24 0 -50 -14.5t-50 -39.5v-476h-73v578zM162 -225q47 20 47 76h-43v88h82l-1 -78q0 -52 -14 -80t-53 -39z" />
    <glyph glyph-name="Ncaron" unicode="&#x147;" horiz-adv-x="520" 
d="M71 810h55l258 -629v629h66v-810h-54l-259 636v-636h-66v810zM142 1042h59l59 -120l59 120h59l-86 -167h-65z" />
    <glyph glyph-name="ncaron" unicode="&#x148;" horiz-adv-x="409" 
d="M56 578h73v-60q29 32 64.5 50.5t74.5 18.5q43 0 66 -32t23 -91v-464h-73v448q0 44 -13.5 63t-41.5 19q-24 0 -50 -14.5t-50 -39.5v-476h-73v578zM87 810h59l59 -120l59 120h59l-86 -167h-65z" />
    <glyph glyph-name="napostrophe" unicode="&#x149;" horiz-adv-x="465" 
d="M13 640q26 15 37 34.5t11 49.5h-43v109h81v-101q0 -49 -16 -77t-54 -47zM118 578h73v-60q29 32 64.5 50.5t74.5 18.5q43 0 66 -32t23 -91v-464h-73v448q0 44 -13.5 63t-41.5 19q-24 0 -50 -14.5t-50 -39.5v-476h-73v578z" />
    <glyph glyph-name="Eng" unicode="&#x14a;" horiz-adv-x="535" 
d="M279 -104q47 0 69.5 9t30 29.5t7.5 60.5v28l-253 613v-636h-62v810h55l262 -629v629h62v-810q0 -82 -29.5 -119.5t-108.5 -37.5h-33v53z" />
    <glyph glyph-name="eng" unicode="&#x14b;" horiz-adv-x="388" 
d="M160 -109q70 0 94 25t24 79v453q0 44 -13.5 63t-41.5 19q-24 0 -49.5 -14.5t-49.5 -39.5v-476h-74v578h74v-60q64 69 138 69q43 0 66.5 -32t23.5 -91v-470q0 -84 -47 -122.5t-125 -38.5h-20v58z" />
    <glyph glyph-name="Omacron" unicode="&#x14c;" horiz-adv-x="525" 
d="M101.5 55q-47.5 65 -47.5 184v336q0 118 48 180.5t161 62.5q111 0 159 -63t48 -180v-337q0 -119 -47 -183.5t-160 -64.5q-114 0 -161.5 65zM365 94.5q28 43.5 28 127.5v367q0 84 -27.5 126t-102.5 42q-76 0 -104 -41.5t-28 -126.5v-367q0 -85 28 -128t104 -43
q74 0 102 43.5zM173 976h180v-50h-180v50z" />
    <glyph glyph-name="omacron" unicode="&#x14d;" horiz-adv-x="399" 
d="M79 44.5q-34 53.5 -34 164.5v160q0 111 34 164.5t120 53.5q87 0 121 -53.5t34 -164.5v-160q0 -111 -34 -164.5t-121 -53.5q-86 0 -120 53.5zM252.5 65q17.5 19 22.5 51.5t5 88.5v168q0 56 -5 88.5t-22.5 51.5t-53.5 19t-53 -19t-22 -51.5t-5 -88.5v-168q0 -56 5 -88.5
t22 -51.5t53 -19t53.5 19zM110 744h180v-50h-180v50z" />
    <glyph glyph-name="Obreve" unicode="&#x14e;" horiz-adv-x="525" 
d="M101.5 55q-47.5 65 -47.5 184v336q0 118 48 180.5t161 62.5q111 0 159 -63t48 -180v-337q0 -119 -47 -183.5t-160 -64.5q-114 0 -161.5 65zM365 94.5q28 43.5 28 127.5v367q0 84 -27.5 126t-102.5 42q-76 0 -104 -41.5t-28 -126.5v-367q0 -85 28 -128t104 -43
q74 0 102 43.5zM174 903q-30 31 -32 89h47q1 -76 73 -76q71 0 75 76h46q-1 -57 -32 -88.5t-89 -31.5t-88 31z" />
    <glyph glyph-name="obreve" unicode="&#x14f;" horiz-adv-x="399" 
d="M79 44.5q-34 53.5 -34 164.5v160q0 111 34 164.5t120 53.5q87 0 121 -53.5t34 -164.5v-160q0 -111 -34 -164.5t-121 -53.5q-86 0 -120 53.5zM252.5 65q17.5 19 22.5 51.5t5 88.5v168q0 56 -5 88.5t-22.5 51.5t-53.5 19t-53 -19t-22 -51.5t-5 -88.5v-168q0 -56 5 -88.5
t22 -51.5t53 -19t53.5 19zM111 671q-30 31 -32 89h47q1 -76 73 -76q71 0 75 76h46q-1 -57 -32 -88.5t-89 -31.5t-88 31z" />
    <glyph glyph-name="Ohungarumlaut" unicode="&#x150;" horiz-adv-x="525" 
d="M101.5 55q-47.5 65 -47.5 184v336q0 118 48 180.5t161 62.5q111 0 159 -63t48 -180v-337q0 -119 -47 -183.5t-160 -64.5q-114 0 -161.5 65zM365 94.5q28 43.5 28 127.5v367q0 84 -27.5 126t-102.5 42q-76 0 -104 -41.5t-28 -126.5v-367q0 -85 28 -128t104 -43
q74 0 102 43.5zM237 1049h66l-66 -160h-39zM356 1049h79l-94 -160h-40z" />
    <glyph glyph-name="ohungarumlaut" unicode="&#x151;" horiz-adv-x="399" 
d="M79 44.5q-34 53.5 -34 164.5v160q0 111 34 164.5t120 53.5q87 0 121 -53.5t34 -164.5v-160q0 -111 -34 -164.5t-121 -53.5q-86 0 -120 53.5zM252.5 65q17.5 19 22.5 51.5t5 88.5v168q0 56 -5 88.5t-22.5 51.5t-53.5 19t-53 -19t-22 -51.5t-5 -88.5v-168q0 -56 5 -88.5
t22 -51.5t53 -19t53.5 19zM174 817h66l-66 -160h-39zM293 817h79l-94 -160h-40z" />
    <glyph glyph-name="OE" unicode="&#x152;" horiz-adv-x="644" 
d="M104 60q-50 60 -50 176v329q0 120 50 182.5t166 62.5h343v-60h-196v-300h163v-57h-163v-334h198v-59h-340q-121 0 -171 60zM340 60v692h-65q-60 0 -91.5 -22.5t-42 -64t-10.5 -109.5v-316q0 -63 11.5 -101.5t43 -58.5t90.5 -20h64z" />
    <glyph glyph-name="oe" unicode="&#x153;" horiz-adv-x="649" 
d="M87 44q-34 53 -34 163v164q0 109 33.5 162.5t118.5 53.5q47 0 77.5 -21t43.5 -60q28 81 126 81q56 0 88 -24.5t45 -75.5t13 -135v-53h-236v-64q0 -96 19 -140t69 -44q38 0 56.5 24.5t18.5 79.5v42h73v-41q0 -82 -34 -123.5t-109 -41.5q-47 0 -80.5 21t-48.5 64
q-25 -85 -119 -85q-86 0 -120 53zM261 70q18 19 23 51t5 86v164q0 55 -5 87t-23 51t-54 19t-53.5 -19t-22.5 -51t-5 -87v-164q0 -55 5 -86.5t22.5 -50.5t53.5 -19t54 19zM525 338v34q0 78 -15 117t-65 39q-46 0 -64.5 -36.5t-18.5 -116.5v-37h163z" />
    <glyph glyph-name="Racute" unicode="&#x154;" horiz-adv-x="512" 
d="M71 810h183q109 0 155 -52.5t46 -153.5q0 -77 -25 -127t-87 -63l124 -414h-74l-119 398h-127v-398h-76v810zM250 454q73 0 102 36t29 114q0 79 -27.5 114t-101.5 35h-105v-299h103zM300 1054h73l-98 -196h-38z" />
    <glyph glyph-name="racute" unicode="&#x155;" horiz-adv-x="297" 
d="M61 578h74v-79q26 43 61.5 64t71.5 21q7 0 13 -1v-78q-18 6 -36 6q-69 0 -110 -67v-444h-74v578zM214 822h73l-98 -196h-38z" />
    <glyph glyph-name="Rcommaaccent" unicode="&#x156;" horiz-adv-x="512" 
d="M71 810h183q109 0 155 -52.5t46 -153.5q0 -77 -25 -127t-87 -63l124 -414h-74l-119 398h-127v-398h-76v810zM250 454q73 0 102 36t29 114q0 79 -27.5 114t-101.5 35h-105v-299h103zM213 -225q47 20 47 76h-43v88h82l-1 -78q0 -52 -14 -80t-53 -39z" />
    <glyph glyph-name="rcommaaccent" unicode="&#x157;" horiz-adv-x="297" 
d="M61 578h74v-79q26 43 61.5 64t71.5 21q7 0 13 -1v-78q-18 6 -36 6q-69 0 -110 -67v-444h-74v578zM56 -225q47 20 47 76h-43v88h82l-1 -78q0 -52 -14 -80t-53 -39z" />
    <glyph glyph-name="Rcaron" unicode="&#x158;" horiz-adv-x="512" 
d="M71 810h183q109 0 155 -52.5t46 -153.5q0 -77 -25 -127t-87 -63l124 -414h-74l-119 398h-127v-398h-76v810zM250 454q73 0 102 36t29 114q0 79 -27.5 114t-101.5 35h-105v-299h103zM138 1042h59l59 -120l59 120h59l-86 -167h-65z" />
    <glyph glyph-name="rcaron" unicode="&#x159;" horiz-adv-x="297" 
d="M61 578h74v-79q26 43 61.5 64t71.5 21q7 0 13 -1v-78q-18 6 -36 6q-69 0 -110 -67v-444h-74v578zM52 810h59l59 -120l59 120h59l-86 -167h-65z" />
    <glyph glyph-name="Sacute" unicode="&#x15a;" horiz-adv-x="460" 
d="M98 48.5q-50 58.5 -57 161.5l67 20q9 -86 38.5 -132t97.5 -46q114 0 114 117q0 50 -23.5 88t-75.5 87l-143 137q-39 36 -56.5 75.5t-17.5 87.5q0 83 49.5 128.5t133.5 45.5q90 0 138 -48t56 -157l-65 -17q-6 82 -34.5 122t-94.5 40q-52 0 -83 -27t-31 -80q0 -34 13 -61
t44 -57l143 -135q55 -52 86.5 -106.5t31.5 -117.5q0 -88 -51 -136t-135 -48q-95 0 -145 58.5zM274 1054h73l-98 -196h-38z" />
    <glyph glyph-name="sacute" unicode="&#x15b;" horiz-adv-x="363" 
d="M78.5 35q-41.5 44 -47.5 120l61 19q6 -66 31 -97t70 -31q38 0 58.5 21.5t20.5 60.5q0 57 -70 116l-79 68q-41 34 -60 67t-19 78q0 61 37.5 95.5t100.5 34.5q64 0 98.5 -41t38.5 -111l-52 -17q-6 114 -82 114q-34 0 -54 -18.5t-20 -51.5q0 -27 10 -47t37 -44l82 -73
q47 -42 71.5 -78.5t24.5 -89.5q0 -66 -40 -102.5t-108 -36.5t-109.5 44zM225 822h73l-98 -196h-38z" />
    <glyph glyph-name="Scircumflex" unicode="&#x15c;" horiz-adv-x="460" 
d="M98 48.5q-50 58.5 -57 161.5l67 20q9 -86 38.5 -132t97.5 -46q114 0 114 117q0 50 -23.5 88t-75.5 87l-143 137q-39 36 -56.5 75.5t-17.5 87.5q0 83 49.5 128.5t133.5 45.5q90 0 138 -48t56 -157l-65 -17q-6 82 -34.5 122t-94.5 40q-52 0 -83 -27t-31 -80q0 -34 13 -61
t44 -57l143 -135q55 -52 86.5 -106.5t31.5 -117.5q0 -88 -51 -136t-135 -48q-95 0 -145 58.5zM189 1042h82l85 -178h-54l-73 141l-72 -141h-55z" />
    <glyph glyph-name="scircumflex" unicode="&#x15d;" horiz-adv-x="363" 
d="M78.5 35q-41.5 44 -47.5 120l61 19q6 -66 31 -97t70 -31q38 0 58.5 21.5t20.5 60.5q0 57 -70 116l-79 68q-41 34 -60 67t-19 78q0 61 37.5 95.5t100.5 34.5q64 0 98.5 -41t38.5 -111l-52 -17q-6 114 -82 114q-34 0 -54 -18.5t-20 -51.5q0 -27 10 -47t37 -44l82 -73
q47 -42 71.5 -78.5t24.5 -89.5q0 -66 -40 -102.5t-108 -36.5t-109.5 44zM140 810h82l85 -178h-54l-73 141l-72 -141h-55z" />
    <glyph glyph-name="Scedilla" unicode="&#x15e;" horiz-adv-x="460" 
d="M98 48.5q-50 58.5 -57 161.5l67 20q9 -86 38.5 -132t97.5 -46q114 0 114 117q0 50 -23.5 88t-75.5 87l-143 137q-39 36 -56.5 75.5t-17.5 87.5q0 83 49.5 128.5t133.5 45.5q90 0 138 -48t56 -157l-65 -17q-6 82 -34.5 122t-94.5 40q-52 0 -83 -27t-31 -80q0 -34 13 -61
t44 -57l143 -135q55 -52 86.5 -106.5t31.5 -117.5q0 -88 -51 -136t-135 -48q-95 0 -145 58.5zM187 -199v38q15 -4 32 -4q66 0 66 41q0 43 -75 52v72h39v-50q44 -1 68 -21t24 -54q0 -39 -28 -59t-79 -20q-22 0 -47 5z" />
    <glyph glyph-name="scedilla" unicode="&#x15f;" horiz-adv-x="363" 
d="M78.5 35q-41.5 44 -47.5 120l61 19q6 -66 31 -97t70 -31q38 0 58.5 21.5t20.5 60.5q0 57 -70 116l-79 68q-41 34 -60 67t-19 78q0 61 37.5 95.5t100.5 34.5q64 0 98.5 -41t38.5 -111l-52 -17q-6 114 -82 114q-34 0 -54 -18.5t-20 -51.5q0 -27 10 -47t37 -44l82 -73
q47 -42 71.5 -78.5t24.5 -89.5q0 -66 -40 -102.5t-108 -36.5t-109.5 44zM138 -199v38q15 -4 32 -4q66 0 66 41q0 43 -75 52v72h39v-50q44 -1 68 -21t24 -54q0 -39 -28 -59t-79 -20q-22 0 -47 5z" />
    <glyph glyph-name="Scaron" unicode="&#x160;" horiz-adv-x="460" 
d="M98 48.5q-50 58.5 -57 161.5l67 20q9 -86 38.5 -132t97.5 -46q114 0 114 117q0 50 -23.5 88t-75.5 87l-143 137q-39 36 -56.5 75.5t-17.5 87.5q0 83 49.5 128.5t133.5 45.5q90 0 138 -48t56 -157l-65 -17q-6 82 -34.5 122t-94.5 40q-52 0 -83 -27t-31 -80q0 -34 13 -61
t44 -57l143 -135q55 -52 86.5 -106.5t31.5 -117.5q0 -88 -51 -136t-135 -48q-95 0 -145 58.5zM112 1042h59l59 -120l59 120h59l-86 -167h-65z" />
    <glyph glyph-name="scaron" unicode="&#x161;" horiz-adv-x="363" 
d="M78.5 35q-41.5 44 -47.5 120l61 19q6 -66 31 -97t70 -31q38 0 58.5 21.5t20.5 60.5q0 57 -70 116l-79 68q-41 34 -60 67t-19 78q0 61 37.5 95.5t100.5 34.5q64 0 98.5 -41t38.5 -111l-52 -17q-6 114 -82 114q-34 0 -54 -18.5t-20 -51.5q0 -27 10 -47t37 -44l82 -73
q47 -42 71.5 -78.5t24.5 -89.5q0 -66 -40 -102.5t-108 -36.5t-109.5 44zM63 810h59l59 -120l59 120h59l-86 -167h-65z" />
    <glyph glyph-name="uni0162" unicode="&#x162;" horiz-adv-x="414" 
d="M171 751h-153v59h378v-59h-149v-751h-76v751zM164 -199v38q15 -4 32 -4q66 0 66 41q0 43 -75 52v72h39v-50q44 -1 68 -21t24 -54q0 -39 -28 -59t-79 -20q-22 0 -47 5z" />
    <glyph glyph-name="uni0163" unicode="&#x163;" horiz-adv-x="280" 
d="M111.5 25.5q-22.5 32.5 -22.5 94.5v410h-71v48h71v179h73v-179h96v-48h-96v-403q0 -44 10 -60.5t41 -16.5q19 0 42 5v-56q-31 -6 -62 -6q-59 0 -81.5 32.5zM150 -199v38q15 -4 32 -4q66 0 66 41q0 43 -75 52v72h39v-50q44 -1 68 -21t24 -54q0 -39 -28 -59t-79 -20
q-22 0 -47 5z" />
    <glyph glyph-name="Tcaron" unicode="&#x164;" horiz-adv-x="414" 
d="M171 751h-153v59h378v-59h-149v-751h-76v751zM89 1042h59l59 -120l59 120h59l-86 -167h-65z" />
    <glyph glyph-name="tcaron" unicode="&#x165;" horiz-adv-x="274" 
d="M111.5 25.5q-22.5 32.5 -22.5 94.5v410h-71v48h71v179h73v-179h96v-48h-96v-403q0 -44 10 -60.5t41 -16.5q19 0 42 5v-56q-31 -6 -62 -6q-59 0 -81.5 32.5zM199 650q26 15 37 34.5t11 49.5h-44v109h81v-101q0 -49 -16 -77t-54 -47z" />
    <glyph glyph-name="Tbar" unicode="&#x166;" horiz-adv-x="388" 
d="M247 751v-297h97v-47h-97v-407h-76v407h-129v47h129v297h-153v59h378v-59h-149z" />
    <glyph glyph-name="tbar" unicode="&#x167;" horiz-adv-x="244" 
d="M162 530v-135h92v-41h-92v-227q0 -44 10 -60.5t41 -16.5q19 0 42 5v-56q-31 -6 -62 -6q-59 0 -81.5 32.5t-22.5 94.5v234h-61v41h61v135h-71v48h71v179h73v-179h96v-48h-96z" />
    <glyph glyph-name="Utilde" unicode="&#x168;" horiz-adv-x="537" 
d="M107 49.5q-45 59.5 -45 171.5v589h74v-591q0 -80 28.5 -124t104.5 -44q73 0 103 44.5t30 123.5v591h73v-589q0 -110 -46.5 -170.5t-159.5 -60.5q-117 0 -162 59.5zM299 931q-14 7 -34 20q-17 11 -27.5 16t-21.5 5q-32 0 -32 -40h-45q0 33 15.5 60.5t53.5 27.5
q17 0 32 -6.5t33 -19.5q17 -11 27.5 -16t21.5 -5q17 0 25 10t8 33h44q0 -37 -14.5 -64.5t-54.5 -27.5q-17 0 -31 7z" />
    <glyph glyph-name="utilde" unicode="&#x169;" horiz-adv-x="412" 
d="M74 23q-23 32 -23 91v464h74v-448q0 -44 13.5 -62.5t41.5 -18.5q25 0 51.5 15.5t50.5 41.5v472h73v-578h-73v64q-29 -34 -65 -53.5t-76 -19.5q-44 0 -67 32zM236 699q-14 7 -34 20q-17 11 -27.5 16t-21.5 5q-32 0 -32 -40h-45q0 33 15.5 60.5t53.5 27.5q17 0 32 -6.5
t33 -19.5q17 -11 27.5 -16t21.5 -5q17 0 25 10t8 33h44q0 -37 -14.5 -64.5t-54.5 -27.5q-17 0 -31 7z" />
    <glyph glyph-name="Umacron" unicode="&#x16a;" horiz-adv-x="537" 
d="M107 49.5q-45 59.5 -45 171.5v589h74v-591q0 -80 28.5 -124t104.5 -44q73 0 103 44.5t30 123.5v591h73v-589q0 -110 -46.5 -170.5t-159.5 -60.5q-117 0 -162 59.5zM179 976h180v-50h-180v50z" />
    <glyph glyph-name="umacron" unicode="&#x16b;" horiz-adv-x="412" 
d="M74 23q-23 32 -23 91v464h74v-448q0 -44 13.5 -62.5t41.5 -18.5q25 0 51.5 15.5t50.5 41.5v472h73v-578h-73v64q-29 -34 -65 -53.5t-76 -19.5q-44 0 -67 32zM116 744h180v-50h-180v50z" />
    <glyph glyph-name="Ubreve" unicode="&#x16c;" horiz-adv-x="537" 
d="M107 49.5q-45 59.5 -45 171.5v589h74v-591q0 -80 28.5 -124t104.5 -44q73 0 103 44.5t30 123.5v591h73v-589q0 -110 -46.5 -170.5t-159.5 -60.5q-117 0 -162 59.5zM180 903q-30 31 -32 89h47q1 -76 73 -76q71 0 75 76h46q-1 -57 -32 -88.5t-89 -31.5t-88 31z" />
    <glyph glyph-name="ubreve" unicode="&#x16d;" horiz-adv-x="412" 
d="M74 23q-23 32 -23 91v464h74v-448q0 -44 13.5 -62.5t41.5 -18.5q25 0 51.5 15.5t50.5 41.5v472h73v-578h-73v64q-29 -34 -65 -53.5t-76 -19.5q-44 0 -67 32zM117 671q-30 31 -32 89h47q1 -76 73 -76q71 0 75 76h46q-1 -57 -32 -88.5t-89 -31.5t-88 31z" />
    <glyph glyph-name="Uring" unicode="&#x16e;" horiz-adv-x="537" 
d="M107 49.5q-45 59.5 -45 171.5v589h74v-591q0 -80 28.5 -124t104.5 -44q73 0 103 44.5t30 123.5v591h73v-589q0 -110 -46.5 -170.5t-159.5 -60.5q-117 0 -162 59.5zM200.5 886q-27.5 25 -27.5 70t27.5 70t68.5 25t68.5 -25t27.5 -70t-27.5 -70t-68.5 -25t-68.5 25z
M308.5 915q15.5 14 15.5 41q0 28 -15.5 42t-39.5 14t-39.5 -14t-15.5 -42q0 -27 15.5 -41t39.5 -14t39.5 14z" />
    <glyph glyph-name="uring" unicode="&#x16f;" horiz-adv-x="412" 
d="M74 23q-23 32 -23 91v464h74v-448q0 -44 13.5 -62.5t41.5 -18.5q25 0 51.5 15.5t50.5 41.5v472h73v-578h-73v64q-29 -34 -65 -53.5t-76 -19.5q-44 0 -67 32zM137.5 654q-27.5 25 -27.5 70t27.5 70t68.5 25t68.5 -25t27.5 -70t-27.5 -70t-68.5 -25t-68.5 25zM245.5 683
q15.5 14 15.5 41q0 28 -15.5 42t-39.5 14t-39.5 -14t-15.5 -42q0 -27 15.5 -41t39.5 -14t39.5 14z" />
    <glyph glyph-name="Uhungarumlaut" unicode="&#x170;" horiz-adv-x="537" 
d="M107 49.5q-45 59.5 -45 171.5v589h74v-591q0 -80 28.5 -124t104.5 -44q73 0 103 44.5t30 123.5v591h73v-589q0 -110 -46.5 -170.5t-159.5 -60.5q-117 0 -162 59.5zM243 1049h66l-66 -160h-39zM362 1049h79l-94 -160h-40z" />
    <glyph glyph-name="uhungarumlaut" unicode="&#x171;" horiz-adv-x="412" 
d="M74 23q-23 32 -23 91v464h74v-448q0 -44 13.5 -62.5t41.5 -18.5q25 0 51.5 15.5t50.5 41.5v472h73v-578h-73v64q-29 -34 -65 -53.5t-76 -19.5q-44 0 -67 32zM180 817h66l-66 -160h-39zM299 817h79l-94 -160h-40z" />
    <glyph glyph-name="Uogonek" unicode="&#x172;" horiz-adv-x="537" 
d="M107 49.5q-45 59.5 -45 171.5v589h74v-591q0 -80 28.5 -124t104.5 -44q73 0 103 44.5t30 123.5v591h73v-589q0 -110 -46.5 -170.5t-159.5 -60.5q-117 0 -162 59.5zM236 -192.5q-31 19.5 -31 62.5q0 39 26.5 74.5t64.5 55.5h39q-74 -70 -74 -122q0 -27 21.5 -39t54.5 -12
q9 0 23 2l-11 -39q-16 -2 -29 -2q-53 0 -84 19.5z" />
    <glyph glyph-name="uogonek" unicode="&#x173;" horiz-adv-x="412" 
d="M74 23q-23 32 -23 91v464h74v-448q0 -44 13.5 -62.5t41.5 -18.5q25 0 51.5 15.5t50.5 41.5v472h73v-578h-73v64q-29 -34 -65 -53.5t-76 -19.5q-44 0 -67 32zM240 -192.5q-31 19.5 -31 62.5q0 39 26.5 74.5t64.5 55.5h39q-74 -70 -74 -122q0 -27 21.5 -39t54.5 -12
q9 0 23 2l-11 -39q-16 -2 -29 -2q-53 0 -84 19.5z" />
    <glyph glyph-name="Wcircumflex" unicode="&#x174;" horiz-adv-x="715" 
d="M35 810h65l107 -658l122 646h63l125 -647l99 659h64l-131 -810h-59l-129 668l-127 -668h-62zM317 1042h82l85 -178h-54l-73 141l-72 -141h-55z" />
    <glyph glyph-name="wcircumflex" unicode="&#x175;" horiz-adv-x="574" 
d="M31 578h63l72 -483l91 483h63l92 -481l69 481h63l-94 -578h-68l-93 470l-90 -470h-74zM246 810h82l85 -178h-54l-73 141l-72 -141h-55z" />
    <glyph glyph-name="Ycircumflex" unicode="&#x176;" horiz-adv-x="469" 
d="M200 269l-183 541h74l146 -450l140 450h75l-178 -541v-269h-74v269zM194 1042h82l85 -178h-54l-73 141l-72 -141h-55z" />
    <glyph glyph-name="ycircumflex" unicode="&#x177;" horiz-adv-x="381" 
d="M40 -87q70 0 94 15t24 45q0 19 -8.5 54.5t-10.5 41.5l-119 509h73l100 -492l97 492h74l-140 -619q-13 -55 -52 -79t-113 -24h-19v57zM150 810h82l85 -178h-54l-73 141l-72 -141h-55z" />
    <glyph glyph-name="Ydieresis" unicode="&#x178;" horiz-adv-x="469" 
d="M200 269l-183 541h74l146 -450l140 450h75l-178 -541v-269h-74v269zM116 1042h75v-89h-75v89zM281 1042h75v-89h-75v89z" />
    <glyph glyph-name="Zacute" unicode="&#x179;" horiz-adv-x="407" 
d="M34 57l271 696h-249v57h331v-40l-278 -713h278v-57h-353v57zM248 1054h73l-98 -196h-38z" />
    <glyph glyph-name="zacute" unicode="&#x17a;" horiz-adv-x="333" 
d="M32 51l197 471h-176v56h253v-44l-196 -478h193v-56h-271v51zM211 822h73l-98 -196h-38z" />
    <glyph glyph-name="Zdotaccent" unicode="&#x17b;" horiz-adv-x="407" 
d="M34 57l271 696h-249v57h331v-40l-278 -713h278v-57h-353v57zM165 1016h78v-110h-78v110z" />
    <glyph glyph-name="zdotaccent" unicode="&#x17c;" horiz-adv-x="333" 
d="M32 51l197 471h-176v56h253v-44l-196 -478h193v-56h-271v51zM128 784h78v-110h-78v110z" />
    <glyph glyph-name="Zcaron" unicode="&#x17d;" horiz-adv-x="407" 
d="M34 57l271 696h-249v57h331v-40l-278 -713h278v-57h-353v57zM86 1042h59l59 -120l59 120h59l-86 -167h-65z" />
    <glyph glyph-name="zcaron" unicode="&#x17e;" horiz-adv-x="333" 
d="M32 51l197 471h-176v56h253v-44l-196 -478h193v-56h-271v51zM49 810h59l59 -120l59 120h59l-86 -167h-65z" />
    <glyph glyph-name="longs" unicode="&#x17f;" horiz-adv-x="266" 
d="M92 525h-74v53h74v60q0 49 7.5 80t30.5 49t68 18q32 0 59 -7v-54q-20 5 -41 5q-31 0 -40.5 -18.5t-9.5 -65.5v-645h-74v525z" />
    <glyph glyph-name="uni018F" unicode="&#x18f;" horiz-adv-x="521" 
d="M97.5 55q-47.5 65 -47.5 184v182h339v168q0 85 -27.5 126.5t-102.5 41.5q-76 0 -104 -41.5t-28 -126.5v-75h-77v61q0 118 48 180.5t161 62.5q111 0 159 -63t48 -180v-337q0 -119 -47 -183.5t-160 -64.5q-114 0 -161.5 65zM361 94.5q28 43.5 28 127.5v138h-262v-138
q0 -85 28 -128t104 -43q74 0 102 43.5z" />
    <glyph glyph-name="florin" unicode="&#x192;" horiz-adv-x="374" 
d="M-7 -125l6 55q26 -6 41 -6q31 0 43 19t19 65l69 517h-73v53h80l9 64q5 48 16 78t36.5 47.5t70.5 17.5q30 0 58 -6l-6 -55q-9 1 -21 3t-19 2q-31 0 -44 -19t-19 -65l-8 -67h85v-53h-92l-69 -513q-6 -48 -17 -78.5t-36.5 -48t-70.5 -17.5q-30 0 -58 7z" />
    <glyph glyph-name="Ohorn" unicode="&#x1a0;" horiz-adv-x="525" 
d="M101.5 55q-47.5 65 -47.5 184v336q0 118 48 180.5t161 62.5q111 0 159 -63t48 -180v-337q0 -119 -47 -183.5t-160 -64.5q-114 0 -161.5 65zM365 94.5q28 43.5 28 127.5v367q0 84 -27.5 126t-102.5 42q-76 0 -104 -41.5t-28 -126.5v-367q0 -85 28 -128t104 -43
q74 0 102 43.5zM313 810h20q29 0 41.5 16t12.5 51h57q0 -54 -28 -81.5t-81 -27.5h-22v42z" />
    <glyph glyph-name="ohorn" unicode="&#x1a1;" horiz-adv-x="399" 
d="M79 44.5q-34 53.5 -34 164.5v160q0 111 34 164.5t120 53.5q87 0 121 -53.5t34 -164.5v-160q0 -111 -34 -164.5t-121 -53.5q-86 0 -120 53.5zM252.5 65q17.5 19 22.5 51.5t5 88.5v168q0 56 -5 88.5t-22.5 51.5t-53.5 19t-53 -19t-22 -51.5t-5 -88.5v-168q0 -56 5 -88.5
t22 -51.5t53 -19t53.5 19zM233 578h10q29 0 41.5 16t12.5 51h57q0 -54 -28 -81.5t-81 -27.5h-12v42z" />
    <glyph glyph-name="Uhorn" unicode="&#x1af;" horiz-adv-x="537" 
d="M107 49.5q-45 59.5 -45 171.5v589h74v-591q0 -80 28.5 -124t104.5 -44q73 0 103 44.5t30 123.5v591h73v-589q0 -110 -46.5 -170.5t-159.5 -60.5q-117 0 -162 59.5zM421 810h10q29 0 41.5 16t12.5 51h57q0 -54 -28 -81.5t-81 -27.5h-12v42z" />
    <glyph glyph-name="uhorn" unicode="&#x1b0;" horiz-adv-x="412" 
d="M74 23q-23 32 -23 91v464h74v-448q0 -44 13.5 -62.5t41.5 -18.5q25 0 51.5 15.5t50.5 41.5v472h73v-578h-73v64q-29 -34 -65 -53.5t-76 -19.5q-44 0 -67 32zM291 578h10q29 0 41.5 16t12.5 51h57q0 -54 -28 -81.5t-81 -27.5h-12v42z" />
    <glyph glyph-name="uni01B7" unicode="&#x1b7;" horiz-adv-x="469" 
d="M370 432.5q52 -63.5 52 -195.5q0 -121 -44.5 -184t-146.5 -63q-93 0 -137.5 51.5t-44.5 145.5v20h71v-17q0 -69 25.5 -104.5t84.5 -35.5q70 0 93.5 48t23.5 134q0 112 -38 163t-124 51h-82v52l189 255h-225v57h316v-40l-201 -274h24q112 0 164 -63.5z" />
    <glyph glyph-name="uni01C4" unicode="&#x1c4;" horiz-adv-x="928" 
d="M71 810h176q120 0 170 -61.5t50 -176.5v-322q0 -121 -48.5 -185.5t-164.5 -64.5h-183v810zM249 57q61 0 91.5 25.5t39.5 68t9 111.5v302q0 66 -11 105.5t-42 60.5t-90 21h-99v-694h102zM555 57l271 696h-249v57h331v-40l-278 -713h278v-57h-353v57zM607 1042h59l59 -120
l59 120h59l-86 -167h-65z" />
    <glyph glyph-name="uni01C5" unicode="&#x1c5;" horiz-adv-x="854" 
d="M71 810h176q120 0 170 -61.5t50 -176.5v-322q0 -121 -48.5 -185.5t-164.5 -64.5h-183v810zM249 57q61 0 91.5 25.5t39.5 68t9 111.5v302q0 66 -11 105.5t-42 60.5t-90 21h-99v-694h102zM553 51l197 471h-176v56h253v-44l-196 -478h193v-56h-271v51zM570 810h59l59 -120
l59 120h59l-86 -167h-65z" />
    <glyph glyph-name="uni01C6" unicode="&#x1c6;" horiz-adv-x="746" 
d="M77.5 47q-32.5 56 -32.5 186v107q0 123 29 185t107 62q56 0 102 -50v273h73v-810h-73v41q-46 -50 -99 -50q-74 0 -106.5 56zM283 87v402q-46 41 -86 41q-46 0 -62.5 -39t-16.5 -127v-137q0 -94 16.5 -136t64.5 -42q42 0 84 38zM445 51l197 471h-176v56h253v-44l-196 -478
h193v-56h-271v51zM462 810h59l59 -120l59 120h59l-86 -167h-65z" />
    <glyph glyph-name="uni01C7" unicode="&#x1c7;" horiz-adv-x="661" 
d="M71 810h76v-753h230v-57h-306v810zM390 22q57 0 82.5 10.5t33.5 38.5t8 92v647h76v-651q0 -72 -12.5 -113t-47.5 -61t-103 -20h-37v57z" />
    <glyph glyph-name="uni01C8" unicode="&#x1c8;" horiz-adv-x="595" 
d="M71 810h76v-753h230v-57h-306v810zM459 757h73v-99h-73v99zM365 -148v56q8 -2 25 -2q41 0 55 21.5t14 58.5v592h73v-598q0 -132 -128 -132q-28 0 -39 4z" />
    <glyph glyph-name="uni01C9" unicode="&#x1c9;" horiz-adv-x="415" 
d="M66 810h73v-810h-73v810zM279 757h73v-99h-73v99zM185 -148v56q8 -2 25 -2q41 0 55 21.5t14 58.5v592h73v-598q0 -132 -128 -132q-28 0 -39 4z" />
    <glyph glyph-name="uni01CA" unicode="&#x1ca;" horiz-adv-x="799" 
d="M71 810h55l258 -629v629h66v-810h-54l-259 636v-636h-66v810zM528 22q57 0 82.5 10.5t33.5 38.5t8 92v647h76v-651q0 -72 -12.5 -113t-47.5 -61t-103 -20h-37v57z" />
    <glyph glyph-name="uni01CB" unicode="&#x1cb;" horiz-adv-x="733" 
d="M71 810h55l258 -629v629h66v-810h-54l-259 636v-636h-66v810zM597 757h73v-99h-73v99zM503 -148v56q8 -2 25 -2q41 0 55 21.5t14 58.5v592h73v-598q0 -132 -128 -132q-28 0 -39 4z" />
    <glyph glyph-name="uni01CC" unicode="&#x1cc;" horiz-adv-x="622" 
d="M56 578h73v-60q29 32 64.5 50.5t74.5 18.5q43 0 66 -32t23 -91v-464h-73v448q0 44 -13.5 63t-41.5 19q-24 0 -50 -14.5t-50 -39.5v-476h-73v578zM486 757h73v-99h-73v99zM392 -148v56q8 -2 25 -2q41 0 55 21.5t14 58.5v592h73v-598q0 -132 -128 -132q-28 0 -39 4z" />
    <glyph glyph-name="uni01CD" unicode="&#x1cd;" horiz-adv-x="477" 
d="M198 810h80l172 -810h-75l-40 217h-193l-41 -217h-74zM325 272l-86 437l-86 -437h172zM121 1042h59l59 -120l59 120h59l-86 -167h-65z" />
    <glyph glyph-name="uni01CE" unicode="&#x1ce;" horiz-adv-x="397" 
d="M72 28q-32 37 -32 92q0 57 22.5 94t69.5 66t141 71v41q0 54 -6.5 84t-22 43t-43.5 13q-81 0 -81 -99v-20l-72 1q1 89 38 131t119 42q76 0 108.5 -46t32.5 -145v-281q0 -28 1.5 -64t3.5 -51h-65l-11 80q-13 -38 -44.5 -63.5t-74.5 -25.5q-52 0 -84 37zM233.5 73.5
q24.5 20.5 39.5 48.5v180q-68 -36 -98.5 -56t-46 -44.5t-15.5 -63.5q0 -43 18.5 -64t47.5 -21q30 0 54.5 20.5zM86 810h59l59 -120l59 120h59l-86 -167h-65z" />
    <glyph glyph-name="uni01D3" unicode="&#x1d3;" horiz-adv-x="537" 
d="M107 49.5q-45 59.5 -45 171.5v589h74v-591q0 -80 28.5 -124t104.5 -44q73 0 103 44.5t30 123.5v591h73v-589q0 -110 -46.5 -170.5t-159.5 -60.5q-117 0 -162 59.5zM151 1042h59l59 -120l59 120h59l-86 -167h-65z" />
    <glyph glyph-name="uni01D4" unicode="&#x1d4;" horiz-adv-x="412" 
d="M74 23q-23 32 -23 91v464h74v-448q0 -44 13.5 -62.5t41.5 -18.5q25 0 51.5 15.5t50.5 41.5v472h73v-578h-73v64q-29 -34 -65 -53.5t-76 -19.5q-44 0 -67 32zM88 810h59l59 -120l59 120h59l-86 -167h-65z" />
    <glyph glyph-name="uni01E4" unicode="&#x1e4;" horiz-adv-x="519" 
d="M526 221h-68v-221h-49l-9 92q-17 -49 -52 -76t-94 -27q-109 0 -154.5 66.5t-45.5 191.5v316q0 126 45 190.5t160 64.5q105 0 150.5 -58.5t45.5 -174.5v-28h-72v28q0 91 -26 131.5t-97 40.5q-53 0 -81.5 -23t-38 -62.5t-9.5 -100.5v-333q0 -95 27.5 -141t102.5 -46
q68 0 96.5 42t30.5 128h-79v48h79v66h-120v57h190v-123h68v-48z" />
    <glyph glyph-name="uni01E5" unicode="&#x1e5;" horiz-adv-x="431" 
d="M392 -30h35v-43h-34q-7 -58 -57.5 -87.5t-132.5 -29.5q-89 0 -137.5 26t-48.5 79q0 8 1 12h-36v43h51q23 42 79 71q-64 17 -64 63q0 28 16.5 51.5t52.5 53.5q-38 28 -55.5 71.5t-17.5 104.5q0 88 41 145t121 57q88 0 124 -72q9 16 31.5 35.5t46.5 29.5l15 5l20 -51
q-24 -4 -53.5 -20t-41.5 -30q7 -19 12.5 -49.5t5.5 -51.5q0 -93 -38 -147.5t-121 -54.5q-15 0 -31.5 2.5t-27.5 6.5q-39 -39 -39 -66q0 -14 11.5 -21.5t36.5 -10.5l92 -14q127 -19 143 -108zM207 234q57 0 76 42t19 109q0 150 -95 150q-55 0 -76 -44t-21 -106
q0 -151 97 -151zM114 0q-15 -13 -25 -30h242q-7 19 -31.5 31.5t-72.5 19.5l-74 10q-24 -18 -39 -31zM334 -73h-255q3 -30 34 -44t93 -14q114 0 128 58z" />
    <glyph glyph-name="Gcaron" unicode="&#x1e6;" horiz-adv-x="519" 
d="M99.5 55.5q-45.5 66.5 -45.5 191.5v316q0 126 45 190.5t160 64.5q105 0 150.5 -58.5t45.5 -174.5v-28h-72v28q0 91 -26 131.5t-97 40.5q-53 0 -81.5 -23t-38 -62.5t-9.5 -100.5v-333q0 -95 27.5 -141t102.5 -46q71 0 99 46.5t28 142.5v95h-120v57h190v-392h-49l-9 92
q-17 -49 -52 -76t-94 -27q-109 0 -154.5 66.5zM142 1042h59l59 -120l59 120h59l-86 -167h-65z" />
    <glyph glyph-name="gcaron" unicode="&#x1e7;" horiz-adv-x="431" 
d="M65.5 -164q-48.5 26 -48.5 79q0 40 27.5 73t67.5 53q-64 17 -64 63q0 28 16.5 51.5t52.5 53.5q-38 28 -55.5 71.5t-17.5 104.5q0 88 41 145t121 57q88 0 124 -72q9 16 31.5 35.5t46.5 29.5l15 5l20 -51q-24 -4 -53.5 -20t-41.5 -30q7 -19 12.5 -49.5t5.5 -51.5
q0 -93 -38 -147.5t-121 -54.5q-15 0 -31.5 2.5t-27.5 6.5q-39 -39 -39 -66q0 -14 11.5 -21.5t36.5 -10.5l92 -14q72 -11 108.5 -43.5t36.5 -90.5q0 -67 -51.5 -100.5t-139.5 -33.5q-89 0 -137.5 26zM283 276q19 42 19 109q0 150 -95 150q-55 0 -76 -44t-21 -106
q0 -151 97 -151q57 0 76 42zM301.5 -113q34.5 18 34.5 56q0 32 -22.5 50t-86.5 28l-74 10q-33 -24 -53.5 -46.5t-20.5 -51.5q0 -33 31 -48.5t96 -15.5q61 0 95.5 18zM98 810h59l59 -120l59 120h59l-86 -167h-65z" />
    <glyph glyph-name="uni01E8" unicode="&#x1e8;" horiz-adv-x="473" 
d="M70 810h77v-428l216 428h73l-166 -348l202 -462h-75l-178 405l-72 -132v-273h-77v810zM119 1042h59l59 -120l59 120h59l-86 -167h-65z" />
    <glyph glyph-name="uni01E9" unicode="&#x1e9;" horiz-adv-x="400" 
d="M57 810h73v-514l193 282h77l-146 -223l140 -355h-74l-122 314l-68 -95v-219h-73v810zM132 979h59l59 -120l59 120h59l-86 -167h-65z" />
    <glyph glyph-name="uni01EA" unicode="&#x1ea;" horiz-adv-x="525" 
d="M101.5 55q-47.5 65 -47.5 184v336q0 118 48 180.5t161 62.5q111 0 159 -63t48 -180v-337q0 -119 -47 -183.5t-160 -64.5q-114 0 -161.5 65zM365 94.5q28 43.5 28 127.5v367q0 84 -27.5 126t-102.5 42q-76 0 -104 -41.5t-28 -126.5v-367q0 -85 28 -128t104 -43
q74 0 102 43.5zM226 -192.5q-31 19.5 -31 62.5q0 39 26.5 74.5t64.5 55.5h39q-74 -70 -74 -122q0 -27 21.5 -39t54.5 -12q9 0 23 2l-11 -39q-16 -2 -29 -2q-53 0 -84 19.5z" />
    <glyph glyph-name="uni01EB" unicode="&#x1eb;" horiz-adv-x="399" 
d="M79 44.5q-34 53.5 -34 164.5v160q0 111 34 164.5t120 53.5q87 0 121 -53.5t34 -164.5v-160q0 -111 -34 -164.5t-121 -53.5q-86 0 -120 53.5zM252.5 65q17.5 19 22.5 51.5t5 88.5v168q0 56 -5 88.5t-22.5 51.5t-53.5 19t-53 -19t-22 -51.5t-5 -88.5v-168q0 -56 5 -88.5
t22 -51.5t53 -19t53.5 19zM160 -189.5q-31 19.5 -31 62.5q0 39 26.5 74.5t64.5 55.5h39q-74 -70 -74 -122q0 -27 21.5 -39t54.5 -12q9 0 23 2l-11 -39q-16 -2 -29 -2q-53 0 -84 19.5z" />
    <glyph glyph-name="uni01EE" unicode="&#x1ee;" horiz-adv-x="469" 
d="M370 432.5q52 -63.5 52 -195.5q0 -121 -44.5 -184t-146.5 -63q-93 0 -137.5 51.5t-44.5 145.5v20h71v-17q0 -69 25.5 -104.5t84.5 -35.5q70 0 93.5 48t23.5 134q0 112 -38 163t-124 51h-82v52l189 255h-225v57h316v-40l-201 -274h24q112 0 164 -63.5zM117 1042h59
l59 -120l59 120h59l-86 -167h-65z" />
    <glyph glyph-name="uni01EF" unicode="&#x1ef;" horiz-adv-x="422" 
d="M347 219.5q47 -64.5 47 -184.5q0 -108 -47 -169.5t-146 -61.5q-92 0 -136 52t-44 145v20h71v-17q0 -68 25.5 -104t83.5 -36q59 0 88.5 40.5t29.5 130.5q0 96 -28.5 144.5t-98.5 48.5h-101v51l179 243h-216v56h302v-44l-182 -250h21q105 0 152 -64.5zM93 810h59l59 -120
l59 120h59l-86 -167h-65z" />
    <glyph glyph-name="uni01F1" unicode="&#x1f1;" horiz-adv-x="928" 
d="M71 810h176q120 0 170 -61.5t50 -176.5v-322q0 -121 -48.5 -185.5t-164.5 -64.5h-183v810zM249 57q61 0 91.5 25.5t39.5 68t9 111.5v302q0 66 -11 105.5t-42 60.5t-90 21h-99v-694h102zM555 57l271 696h-249v57h331v-40l-278 -713h278v-57h-353v57z" />
    <glyph glyph-name="uni01F2" unicode="&#x1f2;" horiz-adv-x="854" 
d="M71 810h176q120 0 170 -61.5t50 -176.5v-322q0 -121 -48.5 -185.5t-164.5 -64.5h-183v810zM249 57q61 0 91.5 25.5t39.5 68t9 111.5v302q0 66 -11 105.5t-42 60.5t-90 21h-99v-694h102zM553 51l197 471h-176v56h253v-44l-196 -478h193v-56h-271v51z" />
    <glyph glyph-name="uni01F3" unicode="&#x1f3;" horiz-adv-x="746" 
d="M77.5 47q-32.5 56 -32.5 186v107q0 123 29 185t107 62q56 0 102 -50v273h73v-810h-73v41q-46 -50 -99 -50q-74 0 -106.5 56zM283 87v402q-46 41 -86 41q-46 0 -62.5 -39t-16.5 -127v-137q0 -94 16.5 -136t64.5 -42q42 0 84 38zM445 51l197 471h-176v56h253v-44l-196 -478
h193v-56h-271v51z" />
    <glyph glyph-name="uni01F4" unicode="&#x1f4;" horiz-adv-x="519" 
d="M99.5 55.5q-45.5 66.5 -45.5 191.5v316q0 126 45 190.5t160 64.5q105 0 150.5 -58.5t45.5 -174.5v-28h-72v28q0 91 -26 131.5t-97 40.5q-53 0 -81.5 -23t-38 -62.5t-9.5 -100.5v-333q0 -95 27.5 -141t102.5 -46q71 0 99 46.5t28 142.5v95h-120v57h190v-392h-49l-9 92
q-17 -49 -52 -76t-94 -27q-109 0 -154.5 66.5zM304 1054h73l-98 -196h-38z" />
    <glyph glyph-name="uni01F5" unicode="&#x1f5;" horiz-adv-x="431" 
d="M65.5 -164q-48.5 26 -48.5 79q0 40 27.5 73t67.5 53q-64 17 -64 63q0 28 16.5 51.5t52.5 53.5q-38 28 -55.5 71.5t-17.5 104.5q0 88 41 145t121 57q88 0 124 -72q9 16 31.5 35.5t46.5 29.5l15 5l20 -51q-24 -4 -53.5 -20t-41.5 -30q7 -19 12.5 -49.5t5.5 -51.5
q0 -93 -38 -147.5t-121 -54.5q-15 0 -31.5 2.5t-27.5 6.5q-39 -39 -39 -66q0 -14 11.5 -21.5t36.5 -10.5l92 -14q72 -11 108.5 -43.5t36.5 -90.5q0 -67 -51.5 -100.5t-139.5 -33.5q-89 0 -137.5 26zM283 276q19 42 19 109q0 150 -95 150q-55 0 -76 -44t-21 -106
q0 -151 97 -151q57 0 76 42zM301.5 -113q34.5 18 34.5 56q0 32 -22.5 50t-86.5 28l-74 10q-33 -24 -53.5 -46.5t-20.5 -51.5q0 -33 31 -48.5t96 -15.5q61 0 95.5 18zM260 822h73l-98 -196h-38z" />
    <glyph glyph-name="Aringacute" unicode="&#x1fa;" horiz-adv-x="477" 
d="M198 810h80l172 -810h-75l-40 217h-193l-41 -217h-74zM325 272l-86 437l-86 -437h172zM170.5 886q-27.5 25 -27.5 70t27.5 70t68.5 25t68.5 -25t27.5 -70t-27.5 -70t-68.5 -25t-68.5 25zM278.5 915q15.5 14 15.5 41q0 28 -15.5 42t-39.5 14t-39.5 -14t-15.5 -42
q0 -27 15.5 -41t39.5 -14t39.5 14zM283 1295h73l-98 -196h-38z" />
    <glyph glyph-name="aringacute" unicode="&#x1fb;" horiz-adv-x="397" 
d="M72 28q-32 37 -32 92q0 57 22.5 94t69.5 66t141 71v41q0 54 -6.5 84t-22 43t-43.5 13q-81 0 -81 -99v-20l-72 1q1 89 38 131t119 42q76 0 108.5 -46t32.5 -145v-281q0 -28 1.5 -64t3.5 -51h-65l-11 80q-13 -38 -44.5 -63.5t-74.5 -25.5q-52 0 -84 37zM233.5 73.5
q24.5 20.5 39.5 48.5v180q-68 -36 -98.5 -56t-46 -44.5t-15.5 -63.5q0 -43 18.5 -64t47.5 -21q30 0 54.5 20.5zM135.5 654q-27.5 25 -27.5 70t27.5 70t68.5 25t68.5 -25t27.5 -70t-27.5 -70t-68.5 -25t-68.5 25zM243.5 683q15.5 14 15.5 41q0 28 -15.5 42t-39.5 14
t-39.5 -14t-15.5 -42q0 -27 15.5 -41t39.5 -14t39.5 14zM248 1063h73l-98 -196h-38z" />
    <glyph glyph-name="AEacute" unicode="&#x1fc;" horiz-adv-x="631" 
d="M296 810h303v-61h-216v-298h155v-58h-155v-333h216v-60h-293v217h-170l-84 -217h-81zM306 275v406l-149 -406h149zM388 1054h73l-98 -196h-38z" />
    <glyph glyph-name="aeacute" unicode="&#x1fd;" horiz-adv-x="622" 
d="M579 197v-32q0 -83 -34.5 -128.5t-111.5 -45.5q-55 0 -89 29t-42 88q-15 -60 -52 -88.5t-86 -28.5q-58 0 -91 35.5t-33 93.5q0 67 32.5 108.5t117.5 69.5l84 27v81q0 68 -18 96t-61 28q-36 0 -56.5 -25.5t-20.5 -80.5l-71 1q0 78 38.5 120t108.5 42q46 0 76 -23t41 -65
q12 44 48 66t84 22q64 0 97.5 -33.5t33.5 -89.5q0 -62 -32.5 -92t-97.5 -49l-96 -30v-95q0 -78 18 -113t62 -35q37 0 57.5 25t20.5 88v34h73zM348 337l84 27q42 14 58.5 33.5t16.5 57.5q0 32 -17.5 52.5t-55.5 20.5q-44 0 -65 -32t-21 -107v-52zM274 279l-63 -23
q-59 -23 -79 -50.5t-20 -73.5q0 -42 20 -63t49 -21q41 0 67 36t26 116v79zM352 822h73l-98 -196h-38z" />
    <glyph glyph-name="Oslashacute" unicode="&#x1fe;" horiz-adv-x="529" 
d="M470 575v-337q0 -119 -47 -183.5t-160 -64.5q-54 0 -96 16l-26 -93l-31 9l28 99q-45 29 -64.5 84.5t-19.5 133.5v336q0 118 48 180.5t161 62.5q52 0 94 -16l25 88l31 -8l-27 -95q84 -54 84 -212zM137 147.5q6 -31.5 22 -52.5l181 644q-29 18 -77 18q-76 0 -104 -41.5
t-28 -126.5v-367q0 -43 6 -74.5zM393 589q0 43 -6 73.5t-21 51.5l-181 -644q30 -19 78 -19q74 0 102 43.5t28 127.5v367zM309 1054h73l-98 -196h-38z" />
    <glyph glyph-name="oslashacute" unicode="&#x1ff;" horiz-adv-x="398" 
d="M354 369v-160q0 -111 -34 -164.5t-121 -53.5q-50 0 -83 18l-31 -85l-25 8l34 94q-26 26 -37.5 71.5t-11.5 111.5v160q0 111 34 164.5t120 53.5q56 0 91 -23l30 83l27 -10l-34 -94q41 -49 41 -174zM125 111l140 384q-9 19 -25 28t-41 9q-36 0 -53 -19t-22 -51.5t-5 -88.5
v-168q0 -64 6 -94zM280 373q0 52 -3 74l-137 -374q19 -27 59 -27q36 0 53.5 19t22.5 51.5t5 88.5v168zM244 822h73l-98 -196h-38z" />
    <glyph glyph-name="uni0200" unicode="&#x200;" horiz-adv-x="477" 
d="M198 810h80l172 -810h-75l-40 217h-193l-41 -217h-74zM325 272l-86 437l-86 -437h172zM68 1042h78l56 -156h-38zM204 1042h65l41 -156h-37z" />
    <glyph glyph-name="uni0201" unicode="&#x201;" horiz-adv-x="397" 
d="M72 28q-32 37 -32 92q0 57 22.5 94t69.5 66t141 71v41q0 54 -6.5 84t-22 43t-43.5 13q-81 0 -81 -99v-20l-72 1q1 89 38 131t119 42q76 0 108.5 -46t32.5 -145v-281q0 -28 1.5 -64t3.5 -51h-65l-11 80q-13 -38 -44.5 -63.5t-74.5 -25.5q-52 0 -84 37zM233.5 73.5
q24.5 20.5 39.5 48.5v180q-68 -36 -98.5 -56t-46 -44.5t-15.5 -63.5q0 -43 18.5 -64t47.5 -21q30 0 54.5 20.5zM33 810h78l56 -156h-38zM169 810h65l41 -156h-37z" />
    <glyph glyph-name="uni0202" unicode="&#x202;" horiz-adv-x="477" 
d="M198 810h80l172 -810h-75l-40 217h-193l-41 -217h-74zM325 272l-86 437l-86 -437h172zM150 1009.5q30 32.5 89 32.5q60 0 89.5 -32.5t31.5 -92.5h-47q-1 43 -20 61.5t-54 18.5t-54 -18.5t-20 -61.5h-47q2 60 32 92.5z" />
    <glyph glyph-name="uni0203" unicode="&#x203;" horiz-adv-x="397" 
d="M72 28q-32 37 -32 92q0 57 22.5 94t69.5 66t141 71v41q0 54 -6.5 84t-22 43t-43.5 13q-81 0 -81 -99v-20l-72 1q1 89 38 131t119 42q76 0 108.5 -46t32.5 -145v-281q0 -28 1.5 -64t3.5 -51h-65l-11 80q-13 -38 -44.5 -63.5t-74.5 -25.5q-52 0 -84 37zM233.5 73.5
q24.5 20.5 39.5 48.5v180q-68 -36 -98.5 -56t-46 -44.5t-15.5 -63.5q0 -43 18.5 -64t47.5 -21q30 0 54.5 20.5zM115 777.5q30 32.5 89 32.5q60 0 89.5 -32.5t31.5 -92.5h-47q-1 43 -20 61.5t-54 18.5t-54 -18.5t-20 -61.5h-47q2 60 32 92.5z" />
    <glyph glyph-name="uni0204" unicode="&#x204;" horiz-adv-x="398" 
d="M70 810h293v-59h-216v-304h176v-56h-176v-334h218v-57h-295v810zM49 1042h78l56 -156h-38zM185 1042h65l41 -156h-37z" />
    <glyph glyph-name="uni0205" unicode="&#x205;" horiz-adv-x="395" 
d="M111 13q-34 22 -50 71t-16 133v146q0 85 16.5 133.5t51 69.5t89.5 21q60 0 92.5 -25.5t45 -76.5t12.5 -137v-52h-234v-101q0 -83 19 -116t64 -33q38 0 58.5 24t20.5 87v40h71v-32q0 -84 -35 -129t-115 -45q-56 0 -90 22zM280 338v48q0 52 -5.5 82t-22.5 47t-51 17
q-31 0 -49 -13.5t-26 -47t-8 -94.5v-39h162zM27 810h78l56 -156h-38zM163 810h65l41 -156h-37z" />
    <glyph glyph-name="uni0206" unicode="&#x206;" horiz-adv-x="398" 
d="M70 810h293v-59h-216v-304h176v-56h-176v-334h218v-57h-295v810zM131 1009.5q30 32.5 89 32.5q60 0 89.5 -32.5t31.5 -92.5h-47q-1 43 -20 61.5t-54 18.5t-54 -18.5t-20 -61.5h-47q2 60 32 92.5z" />
    <glyph glyph-name="uni0207" unicode="&#x207;" horiz-adv-x="395" 
d="M111 13q-34 22 -50 71t-16 133v146q0 85 16.5 133.5t51 69.5t89.5 21q60 0 92.5 -25.5t45 -76.5t12.5 -137v-52h-234v-101q0 -83 19 -116t64 -33q38 0 58.5 24t20.5 87v40h71v-32q0 -84 -35 -129t-115 -45q-56 0 -90 22zM280 338v48q0 52 -5.5 82t-22.5 47t-51 17
q-31 0 -49 -13.5t-26 -47t-8 -94.5v-39h162zM109 777.5q30 32.5 89 32.5q60 0 89.5 -32.5t31.5 -92.5h-47q-1 43 -20 61.5t-54 18.5t-54 -18.5t-20 -61.5h-47q2 60 32 92.5z" />
    <glyph glyph-name="uni0208" unicode="&#x208;" horiz-adv-x="222" 
d="M73 810h76v-810h-76v810zM-60 1042h78l56 -156h-38zM76 1042h65l41 -156h-37z" />
    <glyph glyph-name="uni0209" unicode="&#x209;" horiz-adv-x="198" 
d="M64 578h73v-578h-73v578zM-70 810h78l56 -156h-38zM66 810h65l41 -156h-37z" />
    <glyph glyph-name="uni020A" unicode="&#x20a;" horiz-adv-x="222" 
d="M73 810h76v-810h-76v810zM22 1009.5q30 32.5 89 32.5q60 0 89.5 -32.5t31.5 -92.5h-47q-1 43 -20 61.5t-54 18.5t-54 -18.5t-20 -61.5h-47q2 60 32 92.5z" />
    <glyph glyph-name="uni020B" unicode="&#x20b;" horiz-adv-x="198" 
d="M64 578h73v-578h-73v578zM12 777.5q30 32.5 89 32.5q60 0 89.5 -32.5t31.5 -92.5h-47q-1 43 -20 61.5t-54 18.5t-54 -18.5t-20 -61.5h-47q2 60 32 92.5z" />
    <glyph glyph-name="uni020C" unicode="&#x20c;" horiz-adv-x="525" 
d="M101.5 55q-47.5 65 -47.5 184v336q0 118 48 180.5t161 62.5q111 0 159 -63t48 -180v-337q0 -119 -47 -183.5t-160 -64.5q-114 0 -161.5 65zM365 94.5q28 43.5 28 127.5v367q0 84 -27.5 126t-102.5 42q-76 0 -104 -41.5t-28 -126.5v-367q0 -85 28 -128t104 -43
q74 0 102 43.5zM92 1042h78l56 -156h-38zM228 1042h65l41 -156h-37z" />
    <glyph glyph-name="uni020D" unicode="&#x20d;" horiz-adv-x="399" 
d="M79 44.5q-34 53.5 -34 164.5v160q0 111 34 164.5t120 53.5q87 0 121 -53.5t34 -164.5v-160q0 -111 -34 -164.5t-121 -53.5q-86 0 -120 53.5zM252.5 65q17.5 19 22.5 51.5t5 88.5v168q0 56 -5 88.5t-22.5 51.5t-53.5 19t-53 -19t-22 -51.5t-5 -88.5v-168q0 -56 5 -88.5
t22 -51.5t53 -19t53.5 19zM29 810h78l56 -156h-38zM165 810h65l41 -156h-37z" />
    <glyph glyph-name="uni020E" unicode="&#x20e;" horiz-adv-x="525" 
d="M101.5 55q-47.5 65 -47.5 184v336q0 118 48 180.5t161 62.5q111 0 159 -63t48 -180v-337q0 -119 -47 -183.5t-160 -64.5q-114 0 -161.5 65zM365 94.5q28 43.5 28 127.5v367q0 84 -27.5 126t-102.5 42q-76 0 -104 -41.5t-28 -126.5v-367q0 -85 28 -128t104 -43
q74 0 102 43.5zM174 1009.5q30 32.5 89 32.5q60 0 89.5 -32.5t31.5 -92.5h-47q-1 43 -20 61.5t-54 18.5t-54 -18.5t-20 -61.5h-47q2 60 32 92.5z" />
    <glyph glyph-name="uni020F" unicode="&#x20f;" horiz-adv-x="399" 
d="M79 44.5q-34 53.5 -34 164.5v160q0 111 34 164.5t120 53.5q87 0 121 -53.5t34 -164.5v-160q0 -111 -34 -164.5t-121 -53.5q-86 0 -120 53.5zM252.5 65q17.5 19 22.5 51.5t5 88.5v168q0 56 -5 88.5t-22.5 51.5t-53.5 19t-53 -19t-22 -51.5t-5 -88.5v-168q0 -56 5 -88.5
t22 -51.5t53 -19t53.5 19zM111 777.5q30 32.5 89 32.5q60 0 89.5 -32.5t31.5 -92.5h-47q-1 43 -20 61.5t-54 18.5t-54 -18.5t-20 -61.5h-47q2 60 32 92.5z" />
    <glyph glyph-name="uni0210" unicode="&#x210;" horiz-adv-x="512" 
d="M71 810h183q109 0 155 -52.5t46 -153.5q0 -77 -25 -127t-87 -63l124 -414h-74l-119 398h-127v-398h-76v810zM250 454q73 0 102 36t29 114q0 79 -27.5 114t-101.5 35h-105v-299h103zM85 1042h78l56 -156h-38zM221 1042h65l41 -156h-37z" />
    <glyph glyph-name="uni0211" unicode="&#x211;" horiz-adv-x="297" 
d="M61 578h74v-79q26 43 61.5 64t71.5 21q7 0 13 -1v-78q-18 6 -36 6q-69 0 -110 -67v-444h-74v578zM-1 810h78l56 -156h-38zM135 810h65l41 -156h-37z" />
    <glyph glyph-name="uni0212" unicode="&#x212;" horiz-adv-x="512" 
d="M71 810h183q109 0 155 -52.5t46 -153.5q0 -77 -25 -127t-87 -63l124 -414h-74l-119 398h-127v-398h-76v810zM250 454q73 0 102 36t29 114q0 79 -27.5 114t-101.5 35h-105v-299h103zM167 1009.5q30 32.5 89 32.5q60 0 89.5 -32.5t31.5 -92.5h-47q-1 43 -20 61.5t-54 18.5
t-54 -18.5t-20 -61.5h-47q2 60 32 92.5z" />
    <glyph glyph-name="uni0213" unicode="&#x213;" horiz-adv-x="297" 
d="M61 578h74v-79q26 43 61.5 64t71.5 21q7 0 13 -1v-78q-18 6 -36 6q-69 0 -110 -67v-444h-74v578zM81 777.5q30 32.5 89 32.5q60 0 89.5 -32.5t31.5 -92.5h-47q-1 43 -20 61.5t-54 18.5t-54 -18.5t-20 -61.5h-47q2 60 32 92.5z" />
    <glyph glyph-name="uni0214" unicode="&#x214;" horiz-adv-x="537" 
d="M107 49.5q-45 59.5 -45 171.5v589h74v-591q0 -80 28.5 -124t104.5 -44q73 0 103 44.5t30 123.5v591h73v-589q0 -110 -46.5 -170.5t-159.5 -60.5q-117 0 -162 59.5zM98 1042h78l56 -156h-38zM234 1042h65l41 -156h-37z" />
    <glyph glyph-name="uni0215" unicode="&#x215;" horiz-adv-x="412" 
d="M74 23q-23 32 -23 91v464h74v-448q0 -44 13.5 -62.5t41.5 -18.5q25 0 51.5 15.5t50.5 41.5v472h73v-578h-73v64q-29 -34 -65 -53.5t-76 -19.5q-44 0 -67 32zM35 810h78l56 -156h-38zM171 810h65l41 -156h-37z" />
    <glyph glyph-name="uni0216" unicode="&#x216;" horiz-adv-x="537" 
d="M107 49.5q-45 59.5 -45 171.5v589h74v-591q0 -80 28.5 -124t104.5 -44q73 0 103 44.5t30 123.5v591h73v-589q0 -110 -46.5 -170.5t-159.5 -60.5q-117 0 -162 59.5zM180 1009.5q30 32.5 89 32.5q60 0 89.5 -32.5t31.5 -92.5h-47q-1 43 -20 61.5t-54 18.5t-54 -18.5
t-20 -61.5h-47q2 60 32 92.5z" />
    <glyph glyph-name="uni0217" unicode="&#x217;" horiz-adv-x="412" 
d="M74 23q-23 32 -23 91v464h74v-448q0 -44 13.5 -62.5t41.5 -18.5q25 0 51.5 15.5t50.5 41.5v472h73v-578h-73v64q-29 -34 -65 -53.5t-76 -19.5q-44 0 -67 32zM117 777.5q30 32.5 89 32.5q60 0 89.5 -32.5t31.5 -92.5h-47q-1 43 -20 61.5t-54 18.5t-54 -18.5t-20 -61.5h-47
q2 60 32 92.5z" />
    <glyph glyph-name="Scommaaccent" unicode="&#x218;" horiz-adv-x="460" 
d="M98 48.5q-50 58.5 -57 161.5l67 20q9 -86 38.5 -132t97.5 -46q114 0 114 117q0 50 -23.5 88t-75.5 87l-143 137q-39 36 -56.5 75.5t-17.5 87.5q0 83 49.5 128.5t133.5 45.5q90 0 138 -48t56 -157l-65 -17q-6 82 -34.5 122t-94.5 40q-52 0 -83 -27t-31 -80q0 -34 13 -61
t44 -57l143 -135q55 -52 86.5 -106.5t31.5 -117.5q0 -88 -51 -136t-135 -48q-95 0 -145 58.5zM187 -225q47 20 47 76h-43v88h82l-1 -78q0 -52 -14 -80t-53 -39z" />
    <glyph glyph-name="scommaaccent" unicode="&#x219;" horiz-adv-x="363" 
d="M78.5 35q-41.5 44 -47.5 120l61 19q6 -66 31 -97t70 -31q38 0 58.5 21.5t20.5 60.5q0 57 -70 116l-79 68q-41 34 -60 67t-19 78q0 61 37.5 95.5t100.5 34.5q64 0 98.5 -41t38.5 -111l-52 -17q-6 114 -82 114q-34 0 -54 -18.5t-20 -51.5q0 -27 10 -47t37 -44l82 -73
q47 -42 71.5 -78.5t24.5 -89.5q0 -66 -40 -102.5t-108 -36.5t-109.5 44zM138 -225q47 20 47 76h-43v88h82l-1 -78q0 -52 -14 -80t-53 -39z" />
    <glyph glyph-name="uni021A" unicode="&#x21a;" horiz-adv-x="414" 
d="M171 751h-153v59h378v-59h-149v-751h-76v751zM164 -225q47 20 47 76h-43v88h82l-1 -78q0 -52 -14 -80t-53 -39z" />
    <glyph glyph-name="uni021B" unicode="&#x21b;" horiz-adv-x="280" 
d="M111.5 25.5q-22.5 32.5 -22.5 94.5v410h-71v48h71v179h73v-179h96v-48h-96v-403q0 -44 10 -60.5t41 -16.5q19 0 42 5v-56q-31 -6 -62 -6q-59 0 -81.5 32.5zM150 -225q47 20 47 76h-43v88h82l-1 -78q0 -52 -14 -80t-53 -39z" />
    <glyph glyph-name="uni021E" unicode="&#x21e;" horiz-adv-x="549" 
d="M70 810h77v-359h255v359h76v-810h-76v394h-255v-394h-77v810zM157 1042h59l59 -120l59 120h59l-86 -167h-65z" />
    <glyph glyph-name="uni021F" unicode="&#x21f;" horiz-adv-x="412" 
d="M57 810h73v-293q65 70 141 70q43 0 66 -32t23 -91v-464h-74v448q0 44 -13.5 63t-41.5 19q-24 0 -50.5 -15t-50.5 -40v-475h-73v810zM138 976h59l59 -120l59 120h59l-86 -167h-65z" />
    <glyph glyph-name="uni022A" unicode="&#x22a;" horiz-adv-x="525" 
d="M101.5 55q-47.5 65 -47.5 184v336q0 118 48 180.5t161 62.5q111 0 159 -63t48 -180v-337q0 -119 -47 -183.5t-160 -64.5q-114 0 -161.5 65zM365 94.5q28 43.5 28 127.5v367q0 84 -27.5 126t-102.5 42q-76 0 -104 -41.5t-28 -126.5v-367q0 -85 28 -128t104 -43
q74 0 102 43.5zM144 1042h75v-89h-75v89zM309 1042h75v-89h-75v89zM173 1208h180v-50h-180v50z" />
    <glyph glyph-name="uni022B" unicode="&#x22b;" horiz-adv-x="399" 
d="M79 44.5q-34 53.5 -34 164.5v160q0 111 34 164.5t120 53.5q87 0 121 -53.5t34 -164.5v-160q0 -111 -34 -164.5t-121 -53.5q-86 0 -120 53.5zM252.5 65q17.5 19 22.5 51.5t5 88.5v168q0 56 -5 88.5t-22.5 51.5t-53.5 19t-53 -19t-22 -51.5t-5 -88.5v-168q0 -56 5 -88.5
t22 -51.5t53 -19t53.5 19zM81 810h75v-89h-75v89zM246 810h75v-89h-75v89zM110 976h180v-50h-180v50z" />
    <glyph glyph-name="uni022C" unicode="&#x22c;" horiz-adv-x="525" 
d="M101.5 55q-47.5 65 -47.5 184v336q0 118 48 180.5t161 62.5q111 0 159 -63t48 -180v-337q0 -119 -47 -183.5t-160 -64.5q-114 0 -161.5 65zM365 94.5q28 43.5 28 127.5v367q0 84 -27.5 126t-102.5 42q-76 0 -104 -41.5t-28 -126.5v-367q0 -85 28 -128t104 -43
q74 0 102 43.5zM293 931q-14 7 -34 20q-17 11 -27.5 16t-21.5 5q-32 0 -32 -40h-45q0 33 15.5 60.5t53.5 27.5q17 0 32 -6.5t33 -19.5q17 -11 27.5 -16t21.5 -5q17 0 25 10t8 33h44q0 -37 -14.5 -64.5t-54.5 -27.5q-17 0 -31 7zM173 1212h180v-50h-180v50z" />
    <glyph glyph-name="uni022D" unicode="&#x22d;" horiz-adv-x="399" 
d="M79 44.5q-34 53.5 -34 164.5v160q0 111 34 164.5t120 53.5q87 0 121 -53.5t34 -164.5v-160q0 -111 -34 -164.5t-121 -53.5q-86 0 -120 53.5zM252.5 65q17.5 19 22.5 51.5t5 88.5v168q0 56 -5 88.5t-22.5 51.5t-53.5 19t-53 -19t-22 -51.5t-5 -88.5v-168q0 -56 5 -88.5
t22 -51.5t53 -19t53.5 19zM230 699q-14 7 -34 20q-17 11 -27.5 16t-21.5 5q-32 0 -32 -40h-45q0 33 15.5 60.5t53.5 27.5q17 0 32 -6.5t33 -19.5q17 -11 27.5 -16t21.5 -5q17 0 25 10t8 33h44q0 -37 -14.5 -64.5t-54.5 -27.5q-17 0 -31 7zM110 980h180v-50h-180v50z" />
    <glyph glyph-name="uni0230" unicode="&#x230;" horiz-adv-x="525" 
d="M101.5 55q-47.5 65 -47.5 184v336q0 118 48 180.5t161 62.5q111 0 159 -63t48 -180v-337q0 -119 -47 -183.5t-160 -64.5q-114 0 -161.5 65zM365 94.5q28 43.5 28 127.5v367q0 84 -27.5 126t-102.5 42q-76 0 -104 -41.5t-28 -126.5v-367q0 -85 28 -128t104 -43
q74 0 102 43.5zM224 1016h78v-110h-78v110zM173 1182h180v-50h-180v50z" />
    <glyph glyph-name="uni0231" unicode="&#x231;" horiz-adv-x="399" 
d="M79 44.5q-34 53.5 -34 164.5v160q0 111 34 164.5t120 53.5q87 0 121 -53.5t34 -164.5v-160q0 -111 -34 -164.5t-121 -53.5q-86 0 -120 53.5zM252.5 65q17.5 19 22.5 51.5t5 88.5v168q0 56 -5 88.5t-22.5 51.5t-53.5 19t-53 -19t-22 -51.5t-5 -88.5v-168q0 -56 5 -88.5
t22 -51.5t53 -19t53.5 19zM161 784h78v-110h-78v110zM110 950h180v-50h-180v50z" />
    <glyph glyph-name="uni0232" unicode="&#x232;" horiz-adv-x="469" 
d="M200 269l-183 541h74l146 -450l140 450h75l-178 -541v-269h-74v269zM145 976h180v-50h-180v50z" />
    <glyph glyph-name="uni0233" unicode="&#x233;" horiz-adv-x="381" 
d="M40 -87q70 0 94 15t24 45q0 19 -8.5 54.5t-10.5 41.5l-119 509h73l100 -492l97 492h74l-140 -619q-13 -55 -52 -79t-113 -24h-19v57zM101 744h180v-50h-180v50z" />
    <glyph glyph-name="uni0237" unicode="&#x237;" horiz-adv-x="213" 
d="M-17 -148v56q8 -2 25 -2q41 0 55 21.5t14 58.5v592h73v-598q0 -132 -128 -132q-28 0 -39 4z" />
    <glyph glyph-name="uni0259" unicode="&#x259;" horiz-adv-x="395" 
d="M100.5 15q-32.5 25 -45 76t-12.5 137v52h234v101q0 82 -18 116.5t-65 34.5q-38 0 -58.5 -24t-20.5 -87v-40h-72v32q0 84 35.5 129t115.5 45q55 0 89 -22t50.5 -71t16.5 -133v-148q0 -84 -16.5 -133t-51 -69.5t-89.5 -20.5q-60 0 -92.5 25zM243 57.5q18 13.5 26 47t8 94.5
v39h-162v-47q0 -52 5.5 -82.5t22.5 -47.5t51 -17q31 0 49 13.5z" />
    <glyph glyph-name="uni0292" unicode="&#x292;" horiz-adv-x="422" 
d="M347 219.5q47 -64.5 47 -184.5q0 -108 -47 -169.5t-146 -61.5q-92 0 -136 52t-44 145v20h71v-17q0 -68 25.5 -104t83.5 -36q59 0 88.5 40.5t29.5 130.5q0 96 -28.5 144.5t-98.5 48.5h-101v51l179 243h-216v56h302v-44l-182 -250h21q105 0 152 -64.5z" />
    <glyph glyph-name="uni02BC" unicode="&#x2bc;" horiz-adv-x="286" 
d="M19 810h71l-31 -237h-40v237z" />
    <glyph glyph-name="circumflex" unicode="&#x2c6;" horiz-adv-x="329" 
d="M123 810h82l86 -185h-55l-72 148l-73 -148h-54z" />
    <glyph glyph-name="caron" unicode="&#x2c7;" horiz-adv-x="300" 
d="M33 810h59l59 -120l59 120h59l-87 -167h-64z" />
    <glyph glyph-name="uni02C9" unicode="&#x2c9;" horiz-adv-x="326" 
d="M74 810h178v-47h-178v47z" />
    <glyph glyph-name="breve" unicode="&#x2d8;" horiz-adv-x="355" 
d="M58 810h46q1 -43 20 -62t54 -19t54 19t20 62h47q-3 -125 -121 -125q-117 0 -120 125z" />
    <glyph glyph-name="dotaccent" unicode="&#x2d9;" horiz-adv-x="169" 
d="M44 749h81v-98h-81v98z" />
    <glyph glyph-name="ring" unicode="&#x2da;" horiz-adv-x="288" 
d="M76.5 654q-27.5 25 -27.5 70t27.5 70t67.5 25q41 0 68.5 -25t27.5 -70t-27.5 -70t-68.5 -25q-40 0 -67.5 25zM183.5 683q15.5 14 15.5 41q0 28 -15.5 42t-39.5 14t-39 -14t-15 -42q0 -27 15 -41t39 -14t39.5 14z" />
    <glyph glyph-name="ogonek" unicode="&#x2db;" horiz-adv-x="315" 
d="M111 -192.5q-31 19.5 -31 62.5q0 39 26.5 74.5t64.5 55.5h39q-74 -70 -74 -122q0 -27 21.5 -39t54.5 -12q9 0 23 2l-11 -39q-16 -2 -29 -2q-53 0 -84 19.5z" />
    <glyph glyph-name="tilde" unicode="&#x2dc;" horiz-adv-x="386" 
d="M216 725.5q-14 6.5 -36 19.5q-28 19 -40 20q-15 3 -24 -7t-9 -32h-45q0 32 15 60t53 28l11 -1q14 -1 28.5 -8t34.5 -19q30 -19 42 -20q16 -2 23.5 8.5t8.5 35.5h44q0 -38 -17 -66.5t-61 -25.5q-14 1 -28 7.5z" />
    <glyph glyph-name="hungarumlaut" unicode="&#x2dd;" horiz-adv-x="345" 
d="M93 817h66l-66 -160h-39zM212 817h79l-94 -160h-40z" />
    <glyph glyph-name="gravecomb" unicode="&#x300;" 
d="M-111 822h74l55 -196h-37z" />
    <glyph glyph-name="acutecomb" unicode="&#x301;" 
d="M44 822h73l-98 -196h-38z" />
    <glyph glyph-name="uni0302" unicode="&#x302;" 
d="M-135 810h82l85 -178h-54l-73 141l-72 -141h-55z" />
    <glyph glyph-name="tildecomb" unicode="&#x303;" 
d="M30 699q-14 7 -34 20q-17 11 -27.5 16t-21.5 5q-32 0 -32 -40h-45q0 33 15.5 60.5t53.5 27.5q17 0 32 -6.5t33 -19.5q17 -11 27.5 -16t21.5 -5q17 0 25 10t8 33h44q0 -37 -14.5 -64.5t-54.5 -27.5q-17 0 -31 7z" />
    <glyph glyph-name="uni0304" unicode="&#x304;" 
d="M-90 744h180v-50h-180v50z" />
    <glyph glyph-name="uni0306" unicode="&#x306;" 
d="M-89 671q-30 31 -32 89h47q1 -76 73 -76q71 0 75 76h46q-1 -57 -32 -88.5t-89 -31.5t-88 31z" />
    <glyph glyph-name="uni0307" unicode="&#x307;" 
d="M-39 784h78v-110h-78v110z" />
    <glyph glyph-name="uni0308" unicode="&#x308;" 
d="M-120 810h75v-89h-75v89zM45 810h75v-89h-75v89z" />
    <glyph glyph-name="hookabovecomb" unicode="&#x309;" 
d="M-27 680q28 14 41.5 26.5t13.5 29.5q0 36 -52 36q-22 0 -47 -6v38q31 7 64 7q43 0 66.5 -17.5t23.5 -52.5q0 -32 -21.5 -52t-61.5 -38z" />
    <glyph glyph-name="uni030A" unicode="&#x30a;" 
d="M-68.5 654q-27.5 25 -27.5 70t27.5 70t68.5 25t68.5 -25t27.5 -70t-27.5 -70t-68.5 -25t-68.5 25zM39.5 683q15.5 14 15.5 41q0 28 -15.5 42t-39.5 14t-39.5 -14t-15.5 -42q0 -27 15.5 -41t39.5 -14t39.5 14z" />
    <glyph glyph-name="uni030B" unicode="&#x30b;" 
d="M-26 817h66l-66 -160h-39zM93 817h79l-94 -160h-40z" />
    <glyph glyph-name="uni030C" unicode="&#x30c;" 
d="M-212 810h59l59 -120l59 120h59l-86 -167h-65z" />
    <glyph glyph-name="uni030F" unicode="&#x30f;" 
d="M-171 810h78l56 -156h-38zM-35 810h65l41 -156h-37z" />
    <glyph glyph-name="uni0311" unicode="&#x311;" 
d="M-89 777.5q30 32.5 89 32.5q60 0 89.5 -32.5t31.5 -92.5h-47q-1 43 -20 61.5t-54 18.5t-54 -18.5t-20 -61.5h-47q2 60 32 92.5z" />
    <glyph glyph-name="uni0312" unicode="&#x312;" 
d="M43 804q-47 -20 -47 -76h43v-88h-82l1 78q0 52 14 80t53 39z" />
    <glyph glyph-name="uni031B" unicode="&#x31b;" 
d="M-10 578h10q29 0 41.5 16t12.5 51h57q0 -54 -28 -81.5t-81 -27.5h-12v42z" />
    <glyph glyph-name="dotbelowcomb" unicode="&#x323;" 
d="M-39 -61h78v-89h-78v89z" />
    <glyph glyph-name="uni0324" unicode="&#x324;" 
d="M-120 -61h75v-89h-75v89zM45 -61h75v-89h-75v89z" />
    <glyph glyph-name="uni0326" unicode="&#x326;" 
d="M-43 -225q47 20 47 76h-43v88h82l-1 -78q0 -52 -14 -80t-53 -39z" />
    <glyph glyph-name="uni0327" unicode="&#x327;" 
d="M-43 -199v38q15 -4 32 -4q66 0 66 41q0 43 -75 52v72h39v-50q44 -1 68 -21t24 -54q0 -39 -28 -59t-79 -20q-22 0 -47 5z" />
    <glyph glyph-name="uni0328" unicode="&#x328;" 
d="M-79 -192.5q-31 19.5 -31 62.5q0 39 26.5 74.5t64.5 55.5h39q-74 -70 -74 -122q0 -27 21.5 -39t54.5 -12q9 0 23 2l-11 -39q-16 -2 -29 -2q-53 0 -84 19.5z" />
    <glyph glyph-name="uni032E" unicode="&#x32e;" 
d="M-89 -205q-30 31 -32 89h47q1 -76 73 -76q71 0 75 76h46q-1 -57 -32 -88.5t-89 -31.5t-88 31z" />
    <glyph glyph-name="uni0331" unicode="&#x331;" 
d="M-90 -131h180v-50h-180v50z" />
    <glyph glyph-name="uni0335" unicode="&#x335;" 
d="M-90 390h179v-47h-179v47z" />
    <glyph glyph-name="Pi" unicode="&#x3a0;" horiz-adv-x="560" 
d="M70 810h420v-810h-74v753h-273v-753h-73v810z" />
    <glyph glyph-name="pi" unicode="&#x3c0;" horiz-adv-x="467" 
d="M340 10q-29 15 -40.5 46.5t-11.5 84.5v381h-138v-522h-73v522h-62v56h419v-56h-72v-363q0 -46 4.5 -67t18.5 -29.5t44 -8.5l-7 -59q-53 0 -82 15z" />
    <glyph glyph-name="uni0400" unicode="&#x400;" horiz-adv-x="398" 
d="M70 810h293v-59h-216v-304h176v-56h-176v-334h218v-57h-295v810zM109 1054h74l55 -196h-37z" />
    <glyph glyph-name="uni0401" unicode="&#x401;" horiz-adv-x="398" 
d="M70 810h293v-59h-216v-304h176v-56h-176v-334h218v-57h-295v810zM101 1042h75v-89h-75v89zM266 1042h75v-89h-75v89z" />
    <glyph glyph-name="uni0402" unicode="&#x402;" horiz-adv-x="508" 
d="M124 751h-137v59h358v-59h-146v-313q18 17 47 27.5t62 10.5q63 0 108.5 -39t45.5 -118v-124q0 -101 -45.5 -148t-137.5 -47h-12v57q69 0 95.5 35t26.5 104v124q0 46 -26 74t-70 28q-50 0 -94 -31v-391h-75v751z" />
    <glyph glyph-name="uni0403" unicode="&#x403;" horiz-adv-x="375" 
d="M71 810h287v-59h-211v-751h-76v810zM232 1054h73l-98 -196h-38z" />
    <glyph glyph-name="uni0404" unicode="&#x404;" horiz-adv-x="490" 
d="M99.5 57q-45.5 67 -45.5 186v322q0 122 45.5 187.5t159.5 65.5q104 0 148 -59t44 -171v-30h-72v28q0 58 -9 94.5t-35 56.5t-75 20q-53 0 -81 -22t-38 -60.5t-10 -98.5v-124h205v-55h-205v-166q0 -94 28.5 -137t100.5 -43q71 0 95 43.5t24 132.5v38h72v-33
q0 -116 -43 -179t-149 -63q-114 0 -159.5 67z" />
    <glyph glyph-name="uni0405" unicode="&#x405;" horiz-adv-x="460" 
d="M98 48.5q-50 58.5 -57 161.5l67 20q9 -86 38.5 -132t97.5 -46q114 0 114 117q0 50 -23.5 88t-75.5 87l-143 137q-39 36 -56.5 75.5t-17.5 87.5q0 83 49.5 128.5t133.5 45.5q90 0 138 -48t56 -157l-65 -17q-6 82 -34.5 122t-94.5 40q-52 0 -83 -27t-31 -80q0 -34 13 -61
t44 -57l143 -135q55 -52 86.5 -106.5t31.5 -117.5q0 -88 -51 -136t-135 -48q-95 0 -145 58.5z" />
    <glyph glyph-name="uni0406" unicode="&#x406;" horiz-adv-x="222" 
d="M73 810h76v-810h-76v810z" />
    <glyph glyph-name="uni0407" unicode="&#x407;" horiz-adv-x="222" 
d="M73 810h76v-810h-76v810zM-8 1042h75v-89h-75v89zM157 1042h75v-89h-75v89z" />
    <glyph glyph-name="uni0408" unicode="&#x408;" horiz-adv-x="279" 
d="M8 22q57 0 82.5 10.5t33.5 38.5t8 92v647h76v-651q0 -72 -12.5 -113t-47.5 -61t-103 -20h-37v57z" />
    <glyph glyph-name="uni0409" unicode="&#x409;" horiz-adv-x="820" 
d="M18 -1v58q50 -2 74.5 22t36.5 84t22 188l31 459h315v-340h60q121 0 177 -56t56 -182q0 -113 -55.5 -172.5t-174.5 -59.5h-139v752h-170l-29 -401q-10 -138 -26.5 -211.5t-53.5 -108t-107 -33.5zM562 58q83 0 118.5 40.5t35.5 134.5q0 91 -35.5 135t-120.5 44h-63v-354h65
z" />
    <glyph glyph-name="uni040A" unicode="&#x40a;" horiz-adv-x="761" 
d="M71 810h76v-342h219v342h77v-340h60q120 0 176 -56.5t56 -181.5q0 -113 -55 -172.5t-174 -59.5h-140v412h-219v-412h-76v810zM507 58q84 0 119 40.5t35 134.5q0 91 -35 135t-120 44h-63v-354h64z" />
    <glyph glyph-name="uni040B" unicode="&#x40b;" horiz-adv-x="560" 
d="M140 751h-145v59h373v-59h-150v-316q65 17 117 17q174 0 174 -180v-272h-77v272q0 69 -28.5 98t-82.5 29q-50 0 -103 -16v-383h-78v751z" />
    <glyph glyph-name="uni040C" unicode="&#x40c;" horiz-adv-x="484" 
d="M70 810h77v-372h57l166 372h77l-176 -390l203 -420h-77l-192 397h-58v-397h-77v810zM286 1054h73l-98 -196h-38z" />
    <glyph glyph-name="uni040D" unicode="&#x40d;" horiz-adv-x="529" 
d="M70 810h68v-642l262 642h59v-810h-68v645l-261 -645h-60v810zM159 1054h74l55 -196h-37z" />
    <glyph glyph-name="uni040E" unicode="&#x40e;" horiz-adv-x="452" 
d="M59 -45l27 -1q53 0 76.5 13.5t30 42t8.5 92.5l-173 708h74l83 -363l54 -261l47 261l74 363h74l-155 -712l-6 -28q-16 -77 -29 -109.5t-47 -49t-106 -16.5l-33 1zM137 903q-30 31 -32 89h47q1 -76 73 -76q71 0 75 76h46q-1 -57 -32 -88.5t-89 -31.5t-88 31z" />
    <glyph glyph-name="uni040F" unicode="&#x40f;" horiz-adv-x="525" 
d="M233 0h-162v810h76v-753h231v753h76v-810h-151l-6 -139h-58z" />
    <glyph glyph-name="uni0410" unicode="&#x410;" horiz-adv-x="477" 
d="M198 810h80l172 -810h-75l-40 217h-193l-41 -217h-74zM325 272l-86 437l-86 -437h172z" />
    <glyph glyph-name="uni0411" unicode="&#x411;" horiz-adv-x="479" 
d="M70 810h325v-57h-248v-283h65q120 0 176.5 -56.5t56.5 -181.5q0 -113 -55.5 -172.5t-174.5 -59.5h-145v810zM216 58q83 0 118.5 40.5t35.5 134.5q0 91 -35 135t-120 44h-68v-354h69z" />
    <glyph glyph-name="uni0412" unicode="&#x412;" horiz-adv-x="502" 
d="M71 810h174q106 0 152 -52.5t46 -149.5q0 -66 -24 -113t-79 -58q66 -18 94 -73t28 -130q0 -109 -42.5 -171.5t-148.5 -62.5h-200v810zM257 461q65 0 91 37.5t26 109.5q0 51 -13.5 82t-47 46t-94.5 15h-72v-290h110zM256 57q52 0 80.5 18.5t40 56.5t11.5 102
q0 168 -130 168h-111v-345h109z" />
    <glyph glyph-name="uni0413" unicode="&#x413;" horiz-adv-x="375" 
d="M71 810h287v-59h-211v-751h-76v810z" />
    <glyph glyph-name="uni0414" unicode="&#x414;" horiz-adv-x="588" 
d="M10 57h32q39 28 60.5 63.5t39 133.5t30.5 294l18 262h305v-753h66v-196h-60l-7 139h-417l-7 -139h-60v196zM419 57v695h-162l-15 -221q-12 -191 -29.5 -286t-37.5 -127.5t-56 -60.5h300z" />
    <glyph glyph-name="uni0415" unicode="&#x415;" horiz-adv-x="398" 
d="M70 810h293v-59h-216v-304h176v-56h-176v-334h218v-57h-295v810z" />
    <glyph glyph-name="uni0416" unicode="&#x416;" horiz-adv-x="637" 
d="M215 420l-181 390h74l170 -387h7v387h67v-387h7l171 387h74l-182 -390l201 -420h-75l-186 409h-10v-409h-67v409h-9l-186 -409h-75z" />
    <glyph glyph-name="uni0417" unicode="&#x417;" horiz-adv-x="468" 
d="M102.5 41.5q-44.5 51.5 -44.5 145.5v20h71q0 -18 1 -23q1 -66 26.5 -100t82.5 -34q59 0 88.5 40t29.5 130q0 168 -139 173q-4 1 -43 1v57h42q76 3 108 42.5t32 122.5q0 67 -27.5 105t-87.5 38t-90.5 -33t-31.5 -103v-19h-72v19q0 93 47 144t144 51q93 0 142.5 -55.5
t49.5 -147.5q0 -81 -32 -130t-85 -61q50 -14 83.5 -64t33.5 -139q0 -109 -46.5 -170t-145.5 -61q-92 0 -136.5 51.5z" />
    <glyph glyph-name="uni0418" unicode="&#x418;" horiz-adv-x="529" 
d="M70 810h68v-642l262 642h59v-810h-68v645l-261 -645h-60v810z" />
    <glyph glyph-name="uni0419" unicode="&#x419;" horiz-adv-x="529" 
d="M70 810h68v-642l262 642h59v-810h-68v645l-261 -645h-60v810zM181 903q-30 31 -32 89h47q1 -76 73 -76q71 0 75 76h46q-1 -57 -32 -88.5t-89 -31.5t-88 31z" />
    <glyph glyph-name="uni041A" unicode="&#x41a;" horiz-adv-x="484" 
d="M70 810h77v-372h57l166 372h77l-176 -390l203 -420h-77l-192 397h-58v-397h-77v810z" />
    <glyph glyph-name="uni041B" unicode="&#x41b;" horiz-adv-x="566" 
d="M16 57q54 2 76 22.5t36 100t29 280.5l24 350h315v-810h-77v752h-170l-19 -292q-17 -215 -33.5 -303.5t-55 -124t-125.5 -33.5v58z" />
    <glyph glyph-name="uni041C" unicode="&#x41c;" horiz-adv-x="643" 
d="M84 810h76l160 -703l163 703h76l20 -810h-63l-16 645l-155 -645h-49l-153 644l-16 -644h-63z" />
    <glyph glyph-name="uni041D" unicode="&#x41d;" horiz-adv-x="549" 
d="M70 810h77v-359h255v359h76v-810h-76v394h-255v-394h-77v810z" />
    <glyph glyph-name="uni041E" unicode="&#x41e;" horiz-adv-x="525" 
d="M101.5 55q-47.5 65 -47.5 184v336q0 118 48 180.5t161 62.5q111 0 159 -63t48 -180v-337q0 -119 -47 -183.5t-160 -64.5q-114 0 -161.5 65zM365 94.5q28 43.5 28 127.5v367q0 84 -27.5 126t-102.5 42q-76 0 -104 -41.5t-28 -126.5v-367q0 -85 28 -128t104 -43
q74 0 102 43.5z" />
    <glyph glyph-name="uni041F" unicode="&#x41f;" horiz-adv-x="555" 
d="M71 810h414v-810h-76v753h-262v-753h-76v810z" />
    <glyph glyph-name="uni0420" unicode="&#x420;" horiz-adv-x="483" 
d="M71 810h194q103 0 147.5 -56t44.5 -159q0 -94 -46.5 -153t-144.5 -59h-119v-383h-76v810zM244 440q75 0 106.5 34.5t31.5 120.5q0 63 -12 96.5t-41 47.5t-84 14h-98v-313h97z" />
    <glyph glyph-name="uni0421" unicode="&#x421;" horiz-adv-x="499" 
d="M99.5 57q-45.5 67 -45.5 186v322q0 122 45.5 187.5t159.5 65.5q104 0 148 -59t44 -171v-49h-72v47q0 58 -9 94.5t-35 56.5t-75 20q-53 0 -81 -22t-38 -60.5t-10 -98.5v-345q0 -94 28.5 -137t100.5 -43q71 0 95 43.5t24 132.5v53h72v-48q0 -116 -43 -179t-149 -63
q-114 0 -159.5 67z" />
    <glyph glyph-name="uni0422" unicode="&#x422;" horiz-adv-x="414" 
d="M171 751h-153v59h378v-59h-149v-751h-76v751z" />
    <glyph glyph-name="uni0423" unicode="&#x423;" horiz-adv-x="452" 
d="M59 -45l27 -1q53 0 76.5 13.5t30 42t8.5 92.5l-173 708h74l83 -363l54 -261l47 261l74 363h74l-155 -712l-6 -28q-16 -77 -29 -109.5t-47 -49t-106 -16.5l-33 1z" />
    <glyph glyph-name="uni0424" unicode="&#x424;" horiz-adv-x="619" 
d="M270 94q-33 -3 -43 -3q-87 0 -130 49t-43 159v223q0 110 43.5 162t129.5 52q21 0 43 -2v149h77v-148l48 2q85 0 127.5 -52.5t42.5 -162.5v-223q0 -109 -41.5 -158.5t-121.5 -49.5q-26 0 -55 3v-143h-77v143zM270 142v543q-12 2 -36 2q-60 0 -84.5 -38.5t-24.5 -126.5
v-223q0 -60 9.5 -94t33 -49.5t66.5 -15.5q26 0 36 2zM451 155.5q23 15.5 33 50t10 93.5v223q0 89 -24 127t-86 38l-37 -2v-543q11 -2 40 -2q41 0 64 15.5z" />
    <glyph glyph-name="uni0425" unicode="&#x425;" horiz-adv-x="463" 
d="M189 422l-173 388h71l145 -323l139 323h73l-179 -397l185 -413h-73l-154 342l-136 -342h-73z" />
    <glyph glyph-name="uni0426" unicode="&#x426;" horiz-adv-x="580" 
d="M486 0h-416v810h77v-753h266v753h77v-753h64v-196h-61z" />
    <glyph glyph-name="uni0427" unicode="&#x427;" horiz-adv-x="522" 
d="M374 375q-65 -17 -119 -17q-101 0 -152.5 43.5t-51.5 136.5v272h77v-272q0 -69 36 -98t105 -29q52 0 105 17v382h77v-810h-77v375z" />
    <glyph glyph-name="uni0428" unicode="&#x428;" horiz-adv-x="720" 
d="M71 810h76v-753h178v753h77v-753h171v753h77v-810h-579v810z" />
    <glyph glyph-name="uni0429" unicode="&#x429;" horiz-adv-x="741" 
d="M647 0h-577v810h77v-753h178v753h76v-753h172v753h77v-753h65v-196h-60z" />
    <glyph glyph-name="uni042A" unicode="&#x42a;" horiz-adv-x="551" 
d="M148 751h-142v59h219v-340h68q121 0 177 -56t56 -182q0 -113 -55.5 -172.5t-174.5 -59.5h-148v751zM298 58q83 0 118.5 40.5t35.5 134.5q0 91 -35.5 135t-120.5 44h-71v-354h73z" />
    <glyph glyph-name="uni042B" unicode="&#x42b;" horiz-adv-x="691" 
d="M70 810h77v-340h69q120 0 176 -56.5t56 -181.5q0 -113 -55 -172.5t-174 -59.5h-149v810zM545 810h76v-810h-76v810zM219 58q84 0 119.5 40.5t35.5 134.5q0 91 -35.5 135t-119.5 44h-72v-354h72z" />
    <glyph glyph-name="uni042C" unicode="&#x42c;" horiz-adv-x="473" 
d="M71 810h76v-340h69q120 0 176 -56.5t56 -181.5q0 -113 -55 -172.5t-174 -59.5h-148v810zM220 58q84 0 119 40.5t35 134.5q0 91 -35 135t-120 44h-72v-354h73z" />
    <glyph glyph-name="uni042D" unicode="&#x42d;" horiz-adv-x="506" 
d="M99 55q-44 59 -44 171v36h72v-33q0 -58 9.5 -95t35.5 -57t75 -20q52 0 80 22t38 61t10 99v155h-173v52h173v137q0 94 -28 137t-100 43q-71 0 -95.5 -43.5t-24.5 -131.5v-39h-72v34q0 116 43 179t149 63q115 0 160 -67.5t45 -186.5v-321q0 -123 -45.5 -188.5t-159.5 -65.5
q-104 0 -148 59z" />
    <glyph glyph-name="uni042E" unicode="&#x42e;" horiz-adv-x="687" 
d="M276.5 55q-45.5 65 -45.5 185v140h-88v-380h-72v810h72v-369h88v133q0 118 46 181t155 63t155 -64t46 -181v-334q0 -119 -45.5 -184t-155.5 -65t-155.5 65zM534.5 94.5q28.5 43.5 28.5 127.5v367q0 84 -28.5 126t-102.5 42t-102.5 -42t-28.5 -126v-367q0 -84 28.5 -127.5
t103.5 -43.5q73 0 101.5 43.5z" />
    <glyph glyph-name="uni042F" unicode="&#x42f;" horiz-adv-x="534" 
d="M184 367q-58 23 -87.5 81t-29.5 142q0 100 52.5 160t172.5 60h172v-810h-77v347h-102l-35 1l-145 -348h-86zM387 403v350h-92q-77 0 -115.5 -38.5t-38.5 -123.5q0 -96 36.5 -142t120.5 -46h89z" />
    <glyph glyph-name="uni0430" unicode="&#x430;" horiz-adv-x="397" 
d="M72 28q-32 37 -32 92q0 57 22.5 94t69.5 66t141 71v41q0 54 -6.5 84t-22 43t-43.5 13q-81 0 -81 -99v-20l-72 1q1 89 38 131t119 42q76 0 108.5 -46t32.5 -145v-281q0 -28 1.5 -64t3.5 -51h-65l-11 80q-13 -38 -44.5 -63.5t-74.5 -25.5q-52 0 -84 37zM233.5 73.5
q24.5 20.5 39.5 48.5v180q-68 -36 -98.5 -56t-46 -44.5t-15.5 -63.5q0 -43 18.5 -64t47.5 -21q30 0 54.5 20.5z" />
    <glyph glyph-name="uni0431" unicode="&#x431;" horiz-adv-x="439" 
d="M103.5 40q-45.5 49 -45.5 143v356q0 108 22.5 159.5t71.5 73.5q26 11 55.5 18t35.5 8q39 8 65.5 15.5t55.5 20.5l13 -61q-26 -13 -52.5 -20t-62.5 -14q-30 -6 -49.5 -11t-35.5 -14q-28 -15 -41 -49t-13 -98v-82q19 20 59 36.5t74 16.5q67 0 102 -51.5t35 -169.5v-101
q0 -127 -44 -176t-130 -49q-70 0 -115.5 49zM296.5 78.5q22.5 32.5 22.5 118.5v139q0 84 -17.5 117t-60.5 33q-24 0 -56.5 -14t-53.5 -31v-260q0 -70 25 -102.5t69 -32.5q49 0 71.5 32.5z" />
    <glyph glyph-name="uni0432" unicode="&#x432;" horiz-adv-x="390" 
d="M56 578h140q78 0 112.5 -39t35.5 -100q0 -44 -17 -77.5t-57 -47.5q46 -13 66.5 -52.5t20.5 -94.5q0 -82 -33 -124.5t-120 -42.5h-148v578zM201 334q35 0 55.5 25t20.5 73q0 90 -89 90h-60v-188h73zM191 56q49 0 71.5 28t22.5 86q0 64 -23 87.5t-66 23.5h-68v-225h63z" />
    <glyph glyph-name="uni0433" unicode="&#x433;" horiz-adv-x="283" 
d="M56 578h213v-55h-140v-523h-73v578z" />
    <glyph glyph-name="uni0434" unicode="&#x434;" horiz-adv-x="470" 
d="M10 50q37 23 61 65t39 120.5t21 207.5l9 135h241v-525h58v-192h-55l-6 139h-306l-7 -139h-55v189zM310 53v471h-111l-9 -96q-8 -128 -20 -201.5t-31.5 -113t-52.5 -60.5h224z" />
    <glyph glyph-name="uni0435" unicode="&#x435;" horiz-adv-x="395" 
d="M111 13q-34 22 -50 71t-16 133v146q0 85 16.5 133.5t51 69.5t89.5 21q60 0 92.5 -25.5t45 -76.5t12.5 -137v-52h-234v-101q0 -83 19 -116t64 -33q38 0 58.5 24t20.5 87v40h71v-32q0 -84 -35 -129t-115 -45q-56 0 -90 22zM280 338v48q0 52 -5.5 82t-22.5 47t-51 17
q-31 0 -49 -13.5t-26 -47t-8 -94.5v-39h162z" />
    <glyph glyph-name="uni0436" unicode="&#x436;" horiz-adv-x="533" 
d="M167 296l-155 282h71l145 -277h9v277h61v-277h9l144 277h70l-154 -282l162 -296h-68l-154 287h-9v-287h-61v287h-10l-154 -287h-69z" />
    <glyph glyph-name="uni0437" unicode="&#x437;" horiz-adv-x="364" 
d="M39 162h65q0 -119 81 -119q42 0 60 31t18 90q0 57 -27.5 83t-93.5 26v54q68 0 94.5 24t26.5 75q0 48 -20.5 77t-58.5 29q-85 0 -85 -105h-64q0 160 151 160q71 0 106.5 -45t35.5 -112q0 -59 -28 -91t-69 -38q46 -13 72.5 -44t26.5 -101q0 -79 -38 -122.5t-109 -43.5
q-144 0 -144 172z" />
    <glyph glyph-name="uni0438" unicode="&#x438;" horiz-adv-x="426" 
d="M56 578h62v-445l193 445h59v-578h-62v444l-191 -444h-61v578z" />
    <glyph glyph-name="uni0439" unicode="&#x439;" horiz-adv-x="426" 
d="M56 578h62v-445l193 445h59v-578h-62v444l-191 -444h-61v578zM126 671q-30 31 -32 89h47q1 -76 73 -76q71 0 75 76h46q-1 -57 -32 -88.5t-89 -31.5t-88 31z" />
    <glyph glyph-name="uni043A" unicode="&#x43a;" horiz-adv-x="388" 
d="M56 578h73v-255h41l132 255h76l-141 -279l145 -299h-76l-136 278h-41v-278h-73v578z" />
    <glyph glyph-name="uni043B" unicode="&#x43b;" horiz-adv-x="458" 
d="M11 51q40 1 60 22t31 76t19 171l18 258h264v-578h-73v522h-127l-14 -202q-9 -135 -25.5 -202.5t-48.5 -95t-93 -27.5h-11v56z" />
    <glyph glyph-name="uni043C" unicode="&#x43c;" horiz-adv-x="495" 
d="M57 578h55l135 -397l135 397h57l5 -578h-63l-1 406l-121 -346h-23l-120 344l-1 -404h-63z" />
    <glyph glyph-name="uni043D" unicode="&#x43d;" horiz-adv-x="438" 
d="M56 578h73v-252h180v252h74v-578h-74v271h-180v-271h-73v578z" />
    <glyph glyph-name="uni043E" unicode="&#x43e;" horiz-adv-x="399" 
d="M79 44.5q-34 53.5 -34 164.5v160q0 111 34 164.5t120 53.5q87 0 121 -53.5t34 -164.5v-160q0 -111 -34 -164.5t-121 -53.5q-86 0 -120 53.5zM252.5 65q17.5 19 22.5 51.5t5 88.5v168q0 56 -5 88.5t-22.5 51.5t-53.5 19t-53 -19t-22 -51.5t-5 -88.5v-168q0 -56 5 -88.5
t22 -51.5t53 -19t53.5 19z" />
    <glyph glyph-name="uni043F" unicode="&#x43f;" horiz-adv-x="420" 
d="M56 578h309v-578h-73v521h-163v-521h-73v578z" />
    <glyph glyph-name="uni0440" unicode="&#x440;" horiz-adv-x="417" 
d="M56 578h73v-48q45 57 111 57q76 0 103.5 -62.5t27.5 -167.5v-122q0 -119 -31 -181.5t-108 -62.5q-54 0 -103 55v-236h-73v768zM282.5 92q15.5 43 15.5 141v124q0 93 -15.5 133t-63.5 40q-45 0 -90 -45v-394q40 -42 92 -42q46 0 61.5 43z" />
    <glyph glyph-name="uni0441" unicode="&#x441;" horiz-adv-x="389" 
d="M102 19.5q-34 28.5 -45.5 77t-11.5 122.5v135q0 84 13.5 134t47 74.5t94.5 24.5q85 0 116 -46.5t31 -138.5v-28h-68v28q0 51 -7.5 79t-24.5 39.5t-47 11.5q-34 0 -51.5 -16t-24 -50.5t-6.5 -99.5v-162q0 -60 7 -94t25 -49t51 -15q34 0 50.5 14.5t22 43.5t5.5 81v32h68
v-28q0 -65 -11.5 -107.5t-43.5 -66.5t-92 -24q-64 0 -98 28.5z" />
    <glyph glyph-name="uni0442" unicode="&#x442;" horiz-adv-x="335" 
d="M132 522h-125v56h321v-56h-123v-522h-73v522z" />
    <glyph glyph-name="uni0443" unicode="&#x443;" horiz-adv-x="381" 
d="M40 -87q70 0 94 15t24 45q0 19 -8.5 54.5t-10.5 41.5l-119 509h73l100 -492l97 492h74l-140 -619q-13 -55 -52 -79t-113 -24h-19v57z" />
    <glyph glyph-name="uni0444" unicode="&#x444;" horiz-adv-x="560" 
d="M246 40h-22q-81 0 -130 43t-49 167v104q0 113 46 160.5t127 47.5h28v248h68v-248h31q81 0 126 -47.5t45 -160.5v-104q0 -124 -49 -167t-130 -43h-23v-230h-68v230zM246 92v420h-27q-37 0 -60 -11t-35.5 -43.5t-12.5 -94.5v-113q0 -66 14 -100.5t38 -46t63 -11.5h20z
M333 92q39 0 64 11.5t39 46t14 100.5v113q0 62 -13 94.5t-36.5 43.5t-60.5 11h-26v-420h19z" />
    <glyph glyph-name="uni0445" unicode="&#x445;" horiz-adv-x="380" 
d="M153 302l-130 276h72l99 -212l95 212h74l-135 -284l137 -294h-70l-108 227l-101 -227h-70z" />
    <glyph glyph-name="uni0446" unicode="&#x446;" horiz-adv-x="438" 
d="M366 0h-310v578h73v-526h166v526h74v-526h57v-191h-54z" />
    <glyph glyph-name="uni0447" unicode="&#x447;" horiz-adv-x="397" 
d="M267 241q-52 -10 -84 -10q-143 0 -143 133v214h73v-216q0 -78 85 -78q29 0 69 9v285h74v-578h-74v241z" />
    <glyph glyph-name="uni0448" unicode="&#x448;" horiz-adv-x="579" 
d="M56 578h71v-526h127v526h71v-526h127v526h71v-578h-467v578z" />
    <glyph glyph-name="uni0449" unicode="&#x449;" horiz-adv-x="605" 
d="M519 0h-464v578h71v-526h127v526h71v-526h127v526h71v-526h58v-191h-54z" />
    <glyph glyph-name="uni044A" unicode="&#x44a;" horiz-adv-x="456" 
d="M121 523h-123v55h196v-235h36q110 0 153 -44t43 -130q0 -81 -44 -125t-158 -44h-103v523zM224 46q78 0 106.5 30.5t28.5 93.5q0 61 -27.5 93.5t-105.5 33.5h-32v-251h30z" />
    <glyph glyph-name="uni044B" unicode="&#x44b;" horiz-adv-x="563" 
d="M56 578h73v-235h35q111 -1 154 -44.5t43 -129.5q0 -81 -44.5 -125t-158.5 -44h-102v578zM434 578h73v-578h-73v578zM158 46q78 0 107 30.5t29 93.5q0 61 -27.5 93.5t-105.5 33.5h-32v-251h29z" />
    <glyph glyph-name="uni044C" unicode="&#x44c;" horiz-adv-x="389" 
d="M56 578h73v-235h35q111 -1 154 -44.5t43 -127.5q0 -82 -44.5 -126.5t-158.5 -44.5h-102v578zM158 46q79 0 107.5 30.5t28.5 94.5q0 61 -27.5 93t-105.5 33h-32v-251h29z" />
    <glyph glyph-name="uni044D" unicode="&#x44d;" horiz-adv-x="396" 
d="M80 34.5q-31 43.5 -31 131.5v13h68v-12q0 -68 18.5 -94.5t62.5 -26.5q34 0 51 16t23 50.5t6 99.5v56h-153v45h153v56q0 63 -6.5 96t-23.5 47.5t-50 14.5q-49 0 -65 -29.5t-16 -95.5v-19h-68v16q0 89 31.5 136t118.5 47q64 0 97.5 -27.5t44 -75.5t10.5 -125v-130
q0 -84 -13 -134t-46.5 -74.5t-94.5 -24.5q-86 0 -117 43.5z" />
    <glyph glyph-name="uni044E" unicode="&#x44e;" horiz-adv-x="536" 
d="M233 44q-31 53 -31 165v53h-80v-262h-66v578h66v-267h80v58q0 111 31.5 164.5t112.5 53.5t112.5 -53.5t31.5 -164.5v-160q0 -111 -31.5 -164.5t-112.5 -53.5q-82 0 -113 53zM397 65q17 19 22 52t5 88v168q0 55 -5 88t-22 52t-51 19q-35 0 -51.5 -19t-21.5 -51.5t-5 -88.5
v-168q0 -56 5 -88.5t21.5 -51.5t51.5 -19q34 0 51 19z" />
    <glyph glyph-name="uni044F" unicode="&#x44f;" horiz-adv-x="403" 
d="M130 250q-44 17 -63 59.5t-19 98.5q0 82 42 126t154 44h103v-578h-73v234q-56 0 -76 3l-103 -237h-79zM274 279v254h-33q-75 -1 -100.5 -32t-25.5 -93q0 -67 30 -97.5t103 -31.5h26z" />
    <glyph glyph-name="uni0450" unicode="&#x450;" horiz-adv-x="395" 
d="M111 13q-34 22 -50 71t-16 133v146q0 85 16.5 133.5t51 69.5t89.5 21q60 0 92.5 -25.5t45 -76.5t12.5 -137v-52h-234v-101q0 -83 19 -116t64 -33q38 0 58.5 24t20.5 87v40h71v-32q0 -84 -35 -129t-115 -45q-56 0 -90 22zM280 338v48q0 52 -5.5 82t-22.5 47t-51 17
q-31 0 -49 -13.5t-26 -47t-8 -94.5v-39h162zM87 822h74l55 -196h-37z" />
    <glyph glyph-name="uni0451" unicode="&#x451;" horiz-adv-x="395" 
d="M111 13q-34 22 -50 71t-16 133v146q0 85 16.5 133.5t51 69.5t89.5 21q60 0 92.5 -25.5t45 -76.5t12.5 -137v-52h-234v-101q0 -83 19 -116t64 -33q38 0 58.5 24t20.5 87v40h71v-32q0 -84 -35 -129t-115 -45q-56 0 -90 22zM280 338v48q0 52 -5.5 82t-22.5 47t-51 17
q-31 0 -49 -13.5t-26 -47t-8 -94.5v-39h162zM79 810h75v-89h-75v89zM244 810h75v-89h-75v89z" />
    <glyph glyph-name="uni0452" unicode="&#x452;" horiz-adv-x="425" 
d="M344.5 461q28.5 -27 28.5 -75v-285q0 -92 -10 -139t-43.5 -70t-104.5 -23h-27v51h16q43 0 63 14t26.5 48t6.5 107v284q0 36 -14.5 51.5t-44.5 15.5q-28 0 -57.5 -11t-44.5 -26v-403h-73v622h-72v46h72v142h73v-142h131v-46h-131v-177q18 15 52 29t75 14q50 0 78.5 -27z
" />
    <glyph glyph-name="uni0453" unicode="&#x453;" horiz-adv-x="283" 
d="M56 578h213v-55h-140v-523h-73v578zM216 822h73l-98 -196h-38z" />
    <glyph glyph-name="uni0454" unicode="&#x454;" horiz-adv-x="384" 
d="M102 19.5q-34 28.5 -45.5 77t-11.5 122.5v135q0 84 13.5 134t47 74.5t94.5 24.5q59 0 91 -22t44 -61t12 -99v-15h-67v14q0 51 -8 78.5t-25 38.5t-47 11q-34 0 -51 -16t-23.5 -50.5t-6.5 -99.5v-47h148v-51h-148v-64q0 -60 7 -94t24.5 -49t50.5 -15q34 0 51 14.5t22.5 43
t5.5 79.5v19h67v-16q0 -64 -11.5 -106t-43.5 -65.5t-92 -23.5q-64 0 -98 28.5z" />
    <glyph glyph-name="uni0455" unicode="&#x455;" horiz-adv-x="363" 
d="M78.5 35q-41.5 44 -47.5 120l61 19q6 -66 31 -97t70 -31q38 0 58.5 21.5t20.5 60.5q0 57 -70 116l-79 68q-41 34 -60 67t-19 78q0 61 37.5 95.5t100.5 34.5q64 0 98.5 -41t38.5 -111l-52 -17q-6 114 -82 114q-34 0 -54 -18.5t-20 -51.5q0 -27 10 -47t37 -44l82 -73
q47 -42 71.5 -78.5t24.5 -89.5q0 -66 -40 -102.5t-108 -36.5t-109.5 44z" />
    <glyph glyph-name="uni0456" unicode="&#x456;" horiz-adv-x="204" 
d="M64 757h73v-99h-73v99zM64 578h73v-578h-73v578z" />
    <glyph glyph-name="uni0457" unicode="&#x457;" horiz-adv-x="198" 
d="M64 578h73v-578h-73v578zM-18 810h75v-89h-75v89zM147 810h75v-89h-75v89z" />
    <glyph glyph-name="uni0458" unicode="&#x458;" horiz-adv-x="213" 
d="M77 757h73v-99h-73v99zM-17 -148v56q8 -2 25 -2q41 0 55 21.5t14 58.5v592h73v-598q0 -132 -128 -132q-28 0 -39 4z" />
    <glyph glyph-name="uni0459" unicode="&#x459;" horiz-adv-x="626" 
d="M4 51q39 0 59.5 21t31.5 72t18 152l20 282h263v-256h28q72 0 111 -19t53.5 -53.5t14.5 -89.5q0 -52 -15 -86.5t-55.5 -54t-115.5 -19.5h-93v522h-127l-18 -236q-9 -128 -28.5 -190.5t-51 -81.5t-87.5 -19h-8v56zM418 46q49 0 74.5 13t34.5 37t9 64t-8 64t-33.5 38
t-76.5 14h-22v-230h22z" />
    <glyph glyph-name="uni045A" unicode="&#x45a;" horiz-adv-x="598" 
d="M56 578h73v-253h158v253h73v-256h33q74 0 113.5 -19t54.5 -53.5t15 -89.5q0 -53 -15.5 -87t-56.5 -53.5t-116 -19.5h-101v273h-158v-273h-73v578zM391 46q50 1 75.5 14t34 36.5t8.5 63.5t-8 64t-34 38t-76 14h-31v-230h31z" />
    <glyph glyph-name="uni045B" unicode="&#x45b;" horiz-adv-x="425" 
d="M344.5 461q28.5 -27 28.5 -75v-386h-73v373q0 36 -14.5 51.5t-44.5 15.5q-26 0 -56.5 -11.5t-45.5 -25.5v-403h-73v622h-72v46h72v142h73v-142h131v-46h-131v-177q18 15 52 29t75 14q50 0 78.5 -27z" />
    <glyph glyph-name="uni045C" unicode="&#x45c;" horiz-adv-x="388" 
d="M56 578h73v-255h41l132 255h76l-141 -279l145 -299h-76l-136 278h-41v-278h-73v578zM246 822h73l-98 -196h-38z" />
    <glyph glyph-name="uni045D" unicode="&#x45d;" horiz-adv-x="426" 
d="M56 578h62v-445l193 445h59v-578h-62v444l-191 -444h-61v578zM104 822h74l55 -196h-37z" />
    <glyph glyph-name="uni045E" unicode="&#x45e;" horiz-adv-x="381" 
d="M40 -87q70 0 94 15t24 45q0 19 -8.5 54.5t-10.5 41.5l-119 509h73l100 -492l97 492h74l-140 -619q-13 -55 -52 -79t-113 -24h-19v57zM102 671q-30 31 -32 89h47q1 -76 73 -76q71 0 75 76h46q-1 -57 -32 -88.5t-89 -31.5t-88 31z" />
    <glyph glyph-name="uni045F" unicode="&#x45f;" horiz-adv-x="419" 
d="M180 0h-124v578h73v-524h161v524h74v-578h-122l-5 -139h-49z" />
    <glyph glyph-name="uni0462" unicode="&#x462;" horiz-adv-x="508" 
d="M426 413.5q56 -56.5 56 -181.5q0 -113 -55 -172.5t-174 -59.5h-148v608h-110v59h110v143h76v-143h176v-59h-176v-138h69q120 0 176 -56.5zM373 98.5q35 40.5 35 134.5q0 91 -35 135t-120 44h-72v-354h73q84 0 119 40.5z" />
    <glyph glyph-name="uni0463" unicode="&#x463;" horiz-adv-x="413" 
d="M342 298.5q43 -43.5 43 -127.5q0 -82 -44.5 -126.5t-158.5 -44.5h-101v523h-89v55h89v232h72v-232h152v-55h-152v-180h35q111 -1 154 -44.5zM289.5 76.5q28.5 30.5 28.5 94.5q0 61 -27.5 93t-105.5 33h-32v-251h29q79 0 107.5 30.5z" />
    <glyph glyph-name="uni046A" unicode="&#x46a;" horiz-adv-x="617" 
d="M603 0h-75l-178 438h-8v-438h-67v438h-8l-177 -438h-75l220 512l-177 298h496l-173 -300zM446 752h-277l140 -238z" />
    <glyph glyph-name="uni046B" unicode="&#x46b;" horiz-adv-x="486" 
d="M482 0h-71l-131 288h-6v-288h-63v288h-6l-131 -288h-70l169 347l-138 231h411l-136 -231h1zM243 346l103 178h-210z" />
    <glyph glyph-name="uni0490" unicode="&#x490;" horiz-adv-x="375" 
d="M70 810h242v95h49v-153h-214v-752h-77v810z" />
    <glyph glyph-name="uni0491" unicode="&#x491;" horiz-adv-x="292" 
d="M60 578h170v81h44v-136h-141v-523h-73v578z" />
    <glyph glyph-name="uni0492" unicode="&#x492;" horiz-adv-x="409" 
d="M172 753v-304h141v-59h-141v-390h-76v390h-83v59h83v361h292v-57h-216z" />
    <glyph glyph-name="uni0493" unicode="&#x493;" horiz-adv-x="339" 
d="M145 522v-183h133v-56h-133v-283h-74v283h-71v56h71v239h256v-56h-182z" />
    <glyph glyph-name="uni0496" unicode="&#x496;" horiz-adv-x="648" 
d="M649 57v-196h-60l-5 139h-36l-186 409h-10v-409h-67v409h-9l-186 -409h-75l200 420l-181 390h74l170 -387h7v387h67v-387h7l171 387h74l-182 -390l174 -363h53z" />
    <glyph glyph-name="uni0497" unicode="&#x497;" horiz-adv-x="546" 
d="M555 52v-191h-54l-9 139h-31l-154 287h-9v-287h-61v287h-10l-154 -287h-69l163 296l-155 282h71l145 -277h9v277h61v-277h9l144 277h70l-154 -282l134 -244h54z" />
    <glyph glyph-name="uni049A" unicode="&#x49a;" horiz-adv-x="499" 
d="M500 57v-196h-60l-5 139h-38l-178 405l-72 -132v-273h-77v810h77v-428l216 428h73l-166 -348l177 -405h53z" />
    <glyph glyph-name="uni049B" unicode="&#x49b;" horiz-adv-x="401" 
d="M410 52v-191h-55l-8 139h-41l-136 278h-41v-278h-73v578h73v-255h41l132 255h76l-141 -279l120 -247h53z" />
    <glyph glyph-name="uni04A2" unicode="&#x4a2;" horiz-adv-x="553" 
d="M529 57v-196h-60l-5 139h-62v394h-255v-394h-77v810h77v-359h255v359h76v-753h51z" />
    <glyph glyph-name="uni04A3" unicode="&#x4a3;" horiz-adv-x="453" 
d="M437 52v-191h-54l-9 139h-65v271h-180v-271h-73v578h73v-252h180v252h74v-526h54z" />
    <glyph glyph-name="uni04AE" unicode="&#x4ae;" horiz-adv-x="469" 
d="M200 269l-183 541h74l146 -450l140 450h75l-178 -541v-269h-74v269z" />
    <glyph glyph-name="uni04AF" unicode="&#x4af;" horiz-adv-x="379" 
d="M156 23l-136 555h73l99 -440l98 440h74l-140 -553v-184h-68v182z" />
    <glyph glyph-name="uni04B0" unicode="&#x4b0;" horiz-adv-x="468" 
d="M284 300h145v-54h-155v-246h-74v246h-156v54h146l-173 510h74l146 -450l140 450h75z" />
    <glyph glyph-name="uni04B1" unicode="&#x4b1;" horiz-adv-x="382" 
d="M228 42h103v-50h-107v-151h-68v151h-107v50h102l-131 536h73l99 -440l98 440h74z" />
    <glyph glyph-name="uni04BA" unicode="&#x4ba;" horiz-adv-x="522" 
d="M148 435q65 17 119 17q204 0 204 -180v-272h-77v272q0 69 -36 98t-105 29q-50 0 -105 -16v-383h-77v810h77v-375z" />
    <glyph glyph-name="uni04BB" unicode="&#x4bb;" horiz-adv-x="412" 
d="M57 810h73v-293q65 70 141 70q43 0 66 -32t23 -91v-464h-74v448q0 44 -13.5 63t-41.5 19q-24 0 -50.5 -15t-50.5 -40v-475h-73v810z" />
    <glyph glyph-name="uni04C9" unicode="&#x4c9;" horiz-adv-x="553" 
d="M529 57l-43 -196h-60l26 139h-50v394h-255v-394h-77v810h77v-359h255v359h76v-753h51z" />
    <glyph glyph-name="uni04CA" unicode="&#x4ca;" horiz-adv-x="453" 
d="M437 52l-44 -191h-54l23 139h-53v271h-180v-271h-73v578h73v-252h180v252h74v-526h54z" />
    <glyph glyph-name="uni04D8" unicode="&#x4d8;" horiz-adv-x="521" 
d="M97.5 55q-47.5 65 -47.5 184v182h339v168q0 85 -27.5 126.5t-102.5 41.5q-76 0 -104 -41.5t-28 -126.5v-75h-77v61q0 118 48 180.5t161 62.5q111 0 159 -63t48 -180v-337q0 -119 -47 -183.5t-160 -64.5q-114 0 -161.5 65zM361 94.5q28 43.5 28 127.5v138h-262v-138
q0 -85 28 -128t104 -43q74 0 102 43.5z" />
    <glyph glyph-name="uni04D9" unicode="&#x4d9;" horiz-adv-x="395" 
d="M100.5 15q-32.5 25 -45 76t-12.5 137v52h234v101q0 82 -18 116.5t-65 34.5q-38 0 -58.5 -24t-20.5 -87v-40h-72v32q0 84 35.5 129t115.5 45q55 0 89 -22t50.5 -71t16.5 -133v-148q0 -84 -16.5 -133t-51 -69.5t-89.5 -20.5q-60 0 -92.5 25zM243 57.5q18 13.5 26 47t8 94.5
v39h-162v-47q0 -52 5.5 -82.5t22.5 -47.5t51 -17q31 0 49 13.5z" />
    <glyph glyph-name="uni04E8" unicode="&#x4e8;" horiz-adv-x="529" 
d="M422 755q48 -63 48 -180v-337q0 -119 -47 -183.5t-160 -64.5q-114 0 -161.5 65t-47.5 184v336q0 118 48 180.5t161 62.5q111 0 159 -63zM159 715.5q-28 -41.5 -28 -126.5v-151h262v151q0 84 -27.5 126t-102.5 42q-76 0 -104 -41.5zM365 94.5q28 43.5 28 127.5v162h-262
v-162q0 -85 28 -128t104 -43q74 0 102 43.5z" />
    <glyph glyph-name="uni04E9" unicode="&#x4e9;" horiz-adv-x="398" 
d="M320 533.5q34 -53.5 34 -164.5v-160q0 -111 -34 -164.5t-121 -53.5q-86 0 -120 53.5t-34 164.5v160q0 111 34 164.5t120 53.5q87 0 121 -53.5zM146 513q-17 -19 -22 -51.5t-5 -88.5v-48h161v48q0 56 -5 88.5t-22.5 51.5t-53.5 19t-53 -19zM252.5 65q17.5 19 22.5 51.5
t5 88.5v72h-161v-72q0 -56 5 -88.5t22 -51.5t53 -19t53.5 19z" />
    <glyph glyph-name="uni1E02" unicode="&#x1e02;" horiz-adv-x="502" 
d="M71 810h174q106 0 152 -52.5t46 -149.5q0 -66 -24 -113t-79 -58q66 -18 94 -73t28 -130q0 -109 -42.5 -171.5t-148.5 -62.5h-200v810zM257 461q65 0 91 37.5t26 109.5q0 51 -13.5 82t-47 46t-94.5 15h-72v-290h110zM256 57q52 0 80.5 18.5t40 56.5t11.5 102
q0 168 -130 168h-111v-345h109zM212 1016h78v-110h-78v110z" />
    <glyph glyph-name="uni1E03" unicode="&#x1e03;" horiz-adv-x="416" 
d="M130 46v-46h-73v810h73v-280q19 25 47 41t63 16q76 0 104 -63t28 -167v-122q0 -119 -31 -181.5t-108 -62.5q-56 0 -103 55zM282.5 92q15.5 43 15.5 141v124q0 93 -15.5 133t-63.5 40q-44 0 -89 -45v-394q38 -42 90 -42q47 0 62.5 43zM55 1016h78v-110h-78v110z" />
    <glyph glyph-name="uni1E0A" unicode="&#x1e0a;" horiz-adv-x="521" 
d="M71 810h176q120 0 170 -61.5t50 -176.5v-322q0 -121 -48.5 -185.5t-164.5 -64.5h-183v810zM249 57q61 0 91.5 25.5t39.5 68t9 111.5v302q0 66 -11 105.5t-42 60.5t-90 21h-99v-694h102zM222 1016h78v-110h-78v110z" />
    <glyph glyph-name="uni1E0B" unicode="&#x1e0b;" horiz-adv-x="413" 
d="M77.5 47q-32.5 56 -32.5 186v107q0 123 29 185t107 62q56 0 102 -50v273h73v-810h-73v41q-46 -50 -99 -50q-74 0 -106.5 56zM283 87v402q-46 41 -86 41q-46 0 -62.5 -39t-16.5 -127v-137q0 -94 16.5 -136t64.5 -42q42 0 84 38zM281 1016h78v-110h-78v110z" />
    <glyph glyph-name="uni1E1E" unicode="&#x1e1e;" horiz-adv-x="386" 
d="M71 810h291v-57h-215v-305h179v-56h-179v-392h-76v810zM155 1016h78v-110h-78v110z" />
    <glyph glyph-name="uni1E1F" unicode="&#x1e1f;" horiz-adv-x="268" 
d="M92 525h-74v53h74v60q0 49 7.5 80t30.5 49t68 18q32 0 59 -7v-54q-20 5 -41 5q-31 0 -40.5 -18.5t-9.5 -65.5v-67h93v-53h-93v-525h-74v525zM141 985h78v-110h-78v110z" />
    <glyph glyph-name="uni1E40" unicode="&#x1e40;" horiz-adv-x="643" 
d="M84 810h76l160 -703l163 703h76l20 -810h-63l-16 645l-155 -645h-49l-153 644l-16 -644h-63zM282 1016h78v-110h-78v110z" />
    <glyph glyph-name="uni1E41" unicode="&#x1e41;" horiz-adv-x="644" 
d="M56 578h68v-59q28 34 63 51.5t73 17.5q72 0 92 -75q29 37 65.5 56t76.5 19q43 0 70.5 -31t27.5 -101v-456h-68v454q0 47 -15 65.5t-43 18.5q-26 0 -55 -16t-54 -44q2 -14 2 -22v-456h-69v454q0 48 -15 66t-43 18q-26 0 -54 -16t-54 -43v-479h-68v578zM284 784h78v-110
h-78v110z" />
    <glyph glyph-name="uni1E56" unicode="&#x1e56;" horiz-adv-x="483" 
d="M71 810h194q103 0 147.5 -56t44.5 -159q0 -94 -46.5 -153t-144.5 -59h-119v-383h-76v810zM244 440q75 0 106.5 34.5t31.5 120.5q0 63 -12 96.5t-41 47.5t-84 14h-98v-313h97zM203 1016h78v-110h-78v110z" />
    <glyph glyph-name="uni1E57" unicode="&#x1e57;" horiz-adv-x="417" 
d="M56 578h73v-48q45 57 111 57q76 0 103.5 -62.5t27.5 -167.5v-122q0 -119 -31 -181.5t-108 -62.5q-54 0 -103 55v-236h-73v768zM282.5 92q15.5 43 15.5 141v124q0 93 -15.5 133t-63.5 40q-45 0 -90 -45v-394q40 -42 92 -42q46 0 61.5 43zM170 784h78v-110h-78v110z" />
    <glyph glyph-name="uni1E60" unicode="&#x1e60;" horiz-adv-x="460" 
d="M98 48.5q-50 58.5 -57 161.5l67 20q9 -86 38.5 -132t97.5 -46q114 0 114 117q0 50 -23.5 88t-75.5 87l-143 137q-39 36 -56.5 75.5t-17.5 87.5q0 83 49.5 128.5t133.5 45.5q90 0 138 -48t56 -157l-65 -17q-6 82 -34.5 122t-94.5 40q-52 0 -83 -27t-31 -80q0 -34 13 -61
t44 -57l143 -135q55 -52 86.5 -106.5t31.5 -117.5q0 -88 -51 -136t-135 -48q-95 0 -145 58.5zM191 1016h78v-110h-78v110z" />
    <glyph glyph-name="uni1E61" unicode="&#x1e61;" horiz-adv-x="363" 
d="M78.5 35q-41.5 44 -47.5 120l61 19q6 -66 31 -97t70 -31q38 0 58.5 21.5t20.5 60.5q0 57 -70 116l-79 68q-41 34 -60 67t-19 78q0 61 37.5 95.5t100.5 34.5q64 0 98.5 -41t38.5 -111l-52 -17q-6 114 -82 114q-34 0 -54 -18.5t-20 -51.5q0 -27 10 -47t37 -44l82 -73
q47 -42 71.5 -78.5t24.5 -89.5q0 -66 -40 -102.5t-108 -36.5t-109.5 44zM142 784h78v-110h-78v110z" />
    <glyph glyph-name="uni1E6A" unicode="&#x1e6a;" horiz-adv-x="414" 
d="M171 751h-153v59h378v-59h-149v-751h-76v751zM168 1016h78v-110h-78v110z" />
    <glyph glyph-name="uni1E6B" unicode="&#x1e6b;" horiz-adv-x="280" 
d="M111.5 25.5q-22.5 32.5 -22.5 94.5v410h-71v48h71v179h73v-179h96v-48h-96v-403q0 -44 10 -60.5t41 -16.5q19 0 42 5v-56q-31 -6 -62 -6q-59 0 -81.5 32.5zM87 963h78v-110h-78v110z" />
    <glyph glyph-name="Wgrave" unicode="&#x1e80;" horiz-adv-x="715" 
d="M35 810h65l107 -658l122 646h63l125 -647l99 659h64l-131 -810h-59l-129 668l-127 -668h-62zM247 1054h74l55 -196h-37z" />
    <glyph glyph-name="wgrave" unicode="&#x1e81;" horiz-adv-x="574" 
d="M31 578h63l72 -483l91 483h63l92 -481l69 481h63l-94 -578h-68l-93 470l-90 -470h-74zM176 822h74l55 -196h-37z" />
    <glyph glyph-name="Wacute" unicode="&#x1e82;" horiz-adv-x="715" 
d="M35 810h65l107 -658l122 646h63l125 -647l99 659h64l-131 -810h-59l-129 668l-127 -668h-62zM402 1054h73l-98 -196h-38z" />
    <glyph glyph-name="wacute" unicode="&#x1e83;" horiz-adv-x="574" 
d="M31 578h63l72 -483l91 483h63l92 -481l69 481h63l-94 -578h-68l-93 470l-90 -470h-74zM331 822h73l-98 -196h-38z" />
    <glyph glyph-name="Wdieresis" unicode="&#x1e84;" horiz-adv-x="715" 
d="M35 810h65l107 -658l122 646h63l125 -647l99 659h64l-131 -810h-59l-129 668l-127 -668h-62zM239 1042h75v-89h-75v89zM404 1042h75v-89h-75v89z" />
    <glyph glyph-name="wdieresis" unicode="&#x1e85;" horiz-adv-x="574" 
d="M31 578h63l72 -483l91 483h63l92 -481l69 481h63l-94 -578h-68l-93 470l-90 -470h-74zM168 810h75v-89h-75v89zM333 810h75v-89h-75v89z" />
    <glyph glyph-name="uni1E9E" unicode="&#x1e9e;" horiz-adv-x="513" 
d="M480 230q0 -120 -49.5 -179.5t-143.5 -59.5h-54v59h34q71 0 104.5 41.5t33.5 135.5q0 98 -33.5 141.5t-104.5 43.5h-24v60l156 263q-49 22 -111 22q-73 0 -112 -42t-39 -122v-593h-77v588q0 106 57 168t166 62q96 0 176 -41v-61l-151 -254q172 -18 172 -232z" />
    <glyph glyph-name="uni1EA0" unicode="&#x1ea0;" horiz-adv-x="477" 
d="M198 810h80l172 -810h-75l-40 217h-193l-41 -217h-74zM325 272l-86 437l-86 -437h172zM200 -61h78v-89h-78v89z" />
    <glyph glyph-name="uni1EA1" unicode="&#x1ea1;" horiz-adv-x="397" 
d="M72 28q-32 37 -32 92q0 57 22.5 94t69.5 66t141 71v41q0 54 -6.5 84t-22 43t-43.5 13q-81 0 -81 -99v-20l-72 1q1 89 38 131t119 42q76 0 108.5 -46t32.5 -145v-281q0 -28 1.5 -64t3.5 -51h-65l-11 80q-13 -38 -44.5 -63.5t-74.5 -25.5q-52 0 -84 37zM233.5 73.5
q24.5 20.5 39.5 48.5v180q-68 -36 -98.5 -56t-46 -44.5t-15.5 -63.5q0 -43 18.5 -64t47.5 -21q30 0 54.5 20.5zM160 -61h78v-89h-78v89z" />
    <glyph glyph-name="uni1EA2" unicode="&#x1ea2;" horiz-adv-x="477" 
d="M198 810h80l172 -810h-75l-40 217h-193l-41 -217h-74zM325 272l-86 437l-86 -437h172zM212 912q28 14 41.5 26.5t13.5 29.5q0 36 -52 36q-22 0 -47 -6v38q31 7 64 7q43 0 66.5 -17.5t23.5 -52.5q0 -32 -21.5 -52t-61.5 -38z" />
    <glyph glyph-name="uni1EA3" unicode="&#x1ea3;" horiz-adv-x="397" 
d="M72 28q-32 37 -32 92q0 57 22.5 94t69.5 66t141 71v41q0 54 -6.5 84t-22 43t-43.5 13q-81 0 -81 -99v-20l-72 1q1 89 38 131t119 42q76 0 108.5 -46t32.5 -145v-281q0 -28 1.5 -64t3.5 -51h-65l-11 80q-13 -38 -44.5 -63.5t-74.5 -25.5q-52 0 -84 37zM233.5 73.5
q24.5 20.5 39.5 48.5v180q-68 -36 -98.5 -56t-46 -44.5t-15.5 -63.5q0 -43 18.5 -64t47.5 -21q30 0 54.5 20.5zM177 680q28 14 41.5 26.5t13.5 29.5q0 36 -52 36q-22 0 -47 -6v38q31 7 64 7q43 0 66.5 -17.5t23.5 -52.5q0 -32 -21.5 -52t-61.5 -38z" />
    <glyph glyph-name="uni1EA4" unicode="&#x1ea4;" horiz-adv-x="477" 
d="M198 810h80l172 -810h-75l-40 217h-193l-41 -217h-74zM325 272l-86 437l-86 -437h172zM404 1074h67l-71 -115h-49zM198 1010h82l86 -146h-54l-73 110l-73 -110h-54z" />
    <glyph glyph-name="uni1EA5" unicode="&#x1ea5;" horiz-adv-x="397" 
d="M72 28q-32 37 -32 92q0 57 22.5 94t69.5 66t141 71v41q0 54 -6.5 84t-22 43t-43.5 13q-81 0 -81 -99v-20l-72 1q1 89 38 131t119 42q76 0 108.5 -46t32.5 -145v-281q0 -28 1.5 -64t3.5 -51h-65l-11 80q-13 -38 -44.5 -63.5t-74.5 -25.5q-52 0 -84 37zM233.5 73.5
q24.5 20.5 39.5 48.5v180q-68 -36 -98.5 -56t-46 -44.5t-15.5 -63.5q0 -43 18.5 -64t47.5 -21q30 0 54.5 20.5zM369 842h67l-71 -115h-49zM163 778h82l86 -146h-54l-73 110l-73 -110h-54z" />
    <glyph glyph-name="uni1EA6" unicode="&#x1ea6;" horiz-adv-x="477" 
d="M198 810h80l172 -810h-75l-40 217h-193l-41 -217h-74zM325 272l-86 437l-86 -437h172zM305 1074h67l53 -115h-48zM198 1010h82l86 -146h-54l-73 110l-73 -110h-54z" />
    <glyph glyph-name="uni1EA7" unicode="&#x1ea7;" horiz-adv-x="397" 
d="M72 28q-32 37 -32 92q0 57 22.5 94t69.5 66t141 71v41q0 54 -6.5 84t-22 43t-43.5 13q-81 0 -81 -99v-20l-72 1q1 89 38 131t119 42q76 0 108.5 -46t32.5 -145v-281q0 -28 1.5 -64t3.5 -51h-65l-11 80q-13 -38 -44.5 -63.5t-74.5 -25.5q-52 0 -84 37zM233.5 73.5
q24.5 20.5 39.5 48.5v180q-68 -36 -98.5 -56t-46 -44.5t-15.5 -63.5q0 -43 18.5 -64t47.5 -21q30 0 54.5 20.5zM270 842h67l53 -115h-48zM163 778h82l86 -146h-54l-73 110l-73 -110h-54z" />
    <glyph glyph-name="uni1EA8" unicode="&#x1ea8;" horiz-adv-x="477" 
d="M198 810h80l172 -810h-75l-40 217h-193l-41 -217h-74zM325 272l-86 437l-86 -437h172zM342 979q24 14 35.5 26.5t11.5 29.5t-12 26t-33 9q-24 0 -46 -7v38q32 9 62 9q39 0 62 -18t23 -52q0 -32 -20 -53t-56 -37zM198 1010h82l86 -146h-54l-73 110l-73 -110h-54z" />
    <glyph glyph-name="uni1EA9" unicode="&#x1ea9;" horiz-adv-x="397" 
d="M72 28q-32 37 -32 92q0 57 22.5 94t69.5 66t141 71v41q0 54 -6.5 84t-22 43t-43.5 13q-81 0 -81 -99v-20l-72 1q1 89 38 131t119 42q76 0 108.5 -46t32.5 -145v-281q0 -28 1.5 -64t3.5 -51h-65l-11 80q-13 -38 -44.5 -63.5t-74.5 -25.5q-52 0 -84 37zM233.5 73.5
q24.5 20.5 39.5 48.5v180q-68 -36 -98.5 -56t-46 -44.5t-15.5 -63.5q0 -43 18.5 -64t47.5 -21q30 0 54.5 20.5zM307 747q24 14 35.5 26.5t11.5 29.5t-12 26t-33 9q-24 0 -46 -7v38q32 9 62 9q39 0 62 -18t23 -52q0 -32 -20 -53t-56 -37zM163 778h82l86 -146h-54l-73 110
l-73 -110h-54z" />
    <glyph glyph-name="uni1EAA" unicode="&#x1eaa;" horiz-adv-x="477" 
d="M198 810h80l172 -810h-75l-40 217h-193l-41 -217h-74zM325 272l-86 437l-86 -437h172zM198 1010h82l86 -146h-54l-73 110l-73 -110h-54zM269 1065q-14 7 -34 20q-17 11 -27.5 16t-21.5 5q-32 0 -32 -40h-45q0 33 15.5 60.5t53.5 27.5q17 0 32 -6.5t33 -19.5
q17 -11 27.5 -16t21.5 -5q17 0 25 10t8 33h44q0 -37 -14.5 -64.5t-54.5 -27.5q-17 0 -31 7z" />
    <glyph glyph-name="uni1EAB" unicode="&#x1eab;" horiz-adv-x="397" 
d="M72 28q-32 37 -32 92q0 57 22.5 94t69.5 66t141 71v41q0 54 -6.5 84t-22 43t-43.5 13q-81 0 -81 -99v-20l-72 1q1 89 38 131t119 42q76 0 108.5 -46t32.5 -145v-281q0 -28 1.5 -64t3.5 -51h-65l-11 80q-13 -38 -44.5 -63.5t-74.5 -25.5q-52 0 -84 37zM233.5 73.5
q24.5 20.5 39.5 48.5v180q-68 -36 -98.5 -56t-46 -44.5t-15.5 -63.5q0 -43 18.5 -64t47.5 -21q30 0 54.5 20.5zM163 778h82l86 -146h-54l-73 110l-73 -110h-54zM234 833q-14 7 -34 20q-17 11 -27.5 16t-21.5 5q-32 0 -32 -40h-45q0 33 15.5 60.5t53.5 27.5q17 0 32 -6.5
t33 -19.5q17 -11 27.5 -16t21.5 -5q17 0 25 10t8 33h44q0 -37 -14.5 -64.5t-54.5 -27.5q-17 0 -31 7z" />
    <glyph glyph-name="uni1EAC" unicode="&#x1eac;" horiz-adv-x="477" 
d="M198 810h80l172 -810h-75l-40 217h-193l-41 -217h-74zM325 272l-86 437l-86 -437h172zM198 1010h82l86 -146h-54l-73 110l-73 -110h-54zM200 -61h78v-89h-78v89z" />
    <glyph glyph-name="uni1EAD" unicode="&#x1ead;" horiz-adv-x="397" 
d="M72 28q-32 37 -32 92q0 57 22.5 94t69.5 66t141 71v41q0 54 -6.5 84t-22 43t-43.5 13q-81 0 -81 -99v-20l-72 1q1 89 38 131t119 42q76 0 108.5 -46t32.5 -145v-281q0 -28 1.5 -64t3.5 -51h-65l-11 80q-13 -38 -44.5 -63.5t-74.5 -25.5q-52 0 -84 37zM233.5 73.5
q24.5 20.5 39.5 48.5v180q-68 -36 -98.5 -56t-46 -44.5t-15.5 -63.5q0 -43 18.5 -64t47.5 -21q30 0 54.5 20.5zM160 -61h78v-89h-78v89zM163 778h82l86 -146h-54l-73 110l-73 -110h-54z" />
    <glyph glyph-name="uni1EAE" unicode="&#x1eae;" horiz-adv-x="477" 
d="M198 810h80l172 -810h-75l-40 217h-193l-41 -217h-74zM325 272l-86 437l-86 -437h172zM262 1143h74l-97 -118h-41zM150 896q-30 31 -32 89h47q1 -76 73 -76q71 0 75 76h46q-1 -57 -32 -88.5t-89 -31.5t-88 31z" />
    <glyph glyph-name="uni1EAF" unicode="&#x1eaf;" horiz-adv-x="397" 
d="M72 28q-32 37 -32 92q0 57 22.5 94t69.5 66t141 71v41q0 54 -6.5 84t-22 43t-43.5 13q-81 0 -81 -99v-20l-72 1q1 89 38 131t119 42q76 0 108.5 -46t32.5 -145v-281q0 -28 1.5 -64t3.5 -51h-65l-11 80q-13 -38 -44.5 -63.5t-74.5 -25.5q-52 0 -84 37zM233.5 73.5
q24.5 20.5 39.5 48.5v180q-68 -36 -98.5 -56t-46 -44.5t-15.5 -63.5q0 -43 18.5 -64t47.5 -21q30 0 54.5 20.5zM227 911h74l-97 -118h-41zM115 664q-30 31 -32 89h47q1 -76 73 -76q71 0 75 76h46q-1 -57 -32 -88.5t-89 -31.5t-88 31z" />
    <glyph glyph-name="uni1EB0" unicode="&#x1eb0;" horiz-adv-x="477" 
d="M198 810h80l172 -810h-75l-40 217h-193l-41 -217h-74zM325 272l-86 437l-86 -437h172zM143 1143h74l65 -118h-42zM150 896q-30 31 -32 89h47q1 -76 73 -76q71 0 75 76h46q-1 -57 -32 -88.5t-89 -31.5t-88 31z" />
    <glyph glyph-name="uni1EB1" unicode="&#x1eb1;" horiz-adv-x="397" 
d="M72 28q-32 37 -32 92q0 57 22.5 94t69.5 66t141 71v41q0 54 -6.5 84t-22 43t-43.5 13q-81 0 -81 -99v-20l-72 1q1 89 38 131t119 42q76 0 108.5 -46t32.5 -145v-281q0 -28 1.5 -64t3.5 -51h-65l-11 80q-13 -38 -44.5 -63.5t-74.5 -25.5q-52 0 -84 37zM233.5 73.5
q24.5 20.5 39.5 48.5v180q-68 -36 -98.5 -56t-46 -44.5t-15.5 -63.5q0 -43 18.5 -64t47.5 -21q30 0 54.5 20.5zM108 911h74l65 -118h-42zM115 664q-30 31 -32 89h47q1 -76 73 -76q71 0 75 76h46q-1 -57 -32 -88.5t-89 -31.5t-88 31z" />
    <glyph glyph-name="uni1EB2" unicode="&#x1eb2;" horiz-adv-x="477" 
d="M198 810h80l172 -810h-75l-40 217h-193l-41 -217h-74zM325 272l-86 437l-86 -437h172zM216 1017q24 14 35.5 26.5t11.5 28.5q0 18 -12 27t-33 9q-24 0 -46 -7v37q30 10 62 10q39 0 62 -18t23 -52q0 -56 -76 -90zM150 903q-30 31 -32 89h47q1 -76 73 -76q71 0 75 76h46
q-1 -57 -32 -88.5t-89 -31.5t-88 31z" />
    <glyph glyph-name="uni1EB3" unicode="&#x1eb3;" horiz-adv-x="397" 
d="M72 28q-32 37 -32 92q0 57 22.5 94t69.5 66t141 71v41q0 54 -6.5 84t-22 43t-43.5 13q-81 0 -81 -99v-20l-72 1q1 89 38 131t119 42q76 0 108.5 -46t32.5 -145v-281q0 -28 1.5 -64t3.5 -51h-65l-11 80q-13 -38 -44.5 -63.5t-74.5 -25.5q-52 0 -84 37zM233.5 73.5
q24.5 20.5 39.5 48.5v180q-68 -36 -98.5 -56t-46 -44.5t-15.5 -63.5q0 -43 18.5 -64t47.5 -21q30 0 54.5 20.5zM181 785q24 14 35.5 26.5t11.5 28.5q0 18 -12 27t-33 9q-24 0 -46 -7v37q30 10 62 10q39 0 62 -18t23 -52q0 -56 -76 -90zM115 671q-30 31 -32 89h47
q1 -76 73 -76q71 0 75 76h46q-1 -57 -32 -88.5t-89 -31.5t-88 31z" />
    <glyph glyph-name="uni1EB4" unicode="&#x1eb4;" horiz-adv-x="477" 
d="M198 810h80l172 -810h-75l-40 217h-193l-41 -217h-74zM325 272l-86 437l-86 -437h172zM150 903q-30 31 -32 89h47q1 -76 73 -76q71 0 75 76h46q-1 -57 -32 -88.5t-89 -31.5t-88 31zM269 1045q-14 7 -34 20q-17 11 -27.5 16t-21.5 5q-32 0 -32 -40h-45q0 33 15.5 60.5
t53.5 27.5q17 0 32 -6.5t33 -19.5q17 -11 27.5 -16t21.5 -5q17 0 25 10t8 33h44q0 -37 -14.5 -64.5t-54.5 -27.5q-17 0 -31 7z" />
    <glyph glyph-name="uni1EB5" unicode="&#x1eb5;" horiz-adv-x="397" 
d="M72 28q-32 37 -32 92q0 57 22.5 94t69.5 66t141 71v41q0 54 -6.5 84t-22 43t-43.5 13q-81 0 -81 -99v-20l-72 1q1 89 38 131t119 42q76 0 108.5 -46t32.5 -145v-281q0 -28 1.5 -64t3.5 -51h-65l-11 80q-13 -38 -44.5 -63.5t-74.5 -25.5q-52 0 -84 37zM233.5 73.5
q24.5 20.5 39.5 48.5v180q-68 -36 -98.5 -56t-46 -44.5t-15.5 -63.5q0 -43 18.5 -64t47.5 -21q30 0 54.5 20.5zM115 671q-30 31 -32 89h47q1 -76 73 -76q71 0 75 76h46q-1 -57 -32 -88.5t-89 -31.5t-88 31zM234 813q-14 7 -34 20q-17 11 -27.5 16t-21.5 5q-32 0 -32 -40h-45
q0 33 15.5 60.5t53.5 27.5q17 0 32 -6.5t33 -19.5q17 -11 27.5 -16t21.5 -5q17 0 25 10t8 33h44q0 -37 -14.5 -64.5t-54.5 -27.5q-17 0 -31 7z" />
    <glyph glyph-name="uni1EB6" unicode="&#x1eb6;" horiz-adv-x="477" 
d="M198 810h80l172 -810h-75l-40 217h-193l-41 -217h-74zM325 272l-86 437l-86 -437h172zM200 -61h78v-89h-78v89zM150 903q-30 31 -32 89h47q1 -76 73 -76q71 0 75 76h46q-1 -57 -32 -88.5t-89 -31.5t-88 31z" />
    <glyph glyph-name="uni1EB7" unicode="&#x1eb7;" horiz-adv-x="397" 
d="M72 28q-32 37 -32 92q0 57 22.5 94t69.5 66t141 71v41q0 54 -6.5 84t-22 43t-43.5 13q-81 0 -81 -99v-20l-72 1q1 89 38 131t119 42q76 0 108.5 -46t32.5 -145v-281q0 -28 1.5 -64t3.5 -51h-65l-11 80q-13 -38 -44.5 -63.5t-74.5 -25.5q-52 0 -84 37zM233.5 73.5
q24.5 20.5 39.5 48.5v180q-68 -36 -98.5 -56t-46 -44.5t-15.5 -63.5q0 -43 18.5 -64t47.5 -21q30 0 54.5 20.5zM160 -61h78v-89h-78v89zM115 671q-30 31 -32 89h47q1 -76 73 -76q71 0 75 76h46q-1 -57 -32 -88.5t-89 -31.5t-88 31z" />
    <glyph glyph-name="uni1EB8" unicode="&#x1eb8;" horiz-adv-x="398" 
d="M70 810h293v-59h-216v-304h176v-56h-176v-334h218v-57h-295v810zM173 -61h78v-89h-78v89z" />
    <glyph glyph-name="uni1EB9" unicode="&#x1eb9;" horiz-adv-x="395" 
d="M111 13q-34 22 -50 71t-16 133v146q0 85 16.5 133.5t51 69.5t89.5 21q60 0 92.5 -25.5t45 -76.5t12.5 -137v-52h-234v-101q0 -83 19 -116t64 -33q38 0 58.5 24t20.5 87v40h71v-32q0 -84 -35 -129t-115 -45q-56 0 -90 22zM280 338v48q0 52 -5.5 82t-22.5 47t-51 17
q-31 0 -49 -13.5t-26 -47t-8 -94.5v-39h162zM159 -61h78v-89h-78v89z" />
    <glyph glyph-name="uni1EBA" unicode="&#x1eba;" horiz-adv-x="398" 
d="M70 810h293v-59h-216v-304h176v-56h-176v-334h218v-57h-295v810zM193 912q28 14 41.5 26.5t13.5 29.5q0 36 -52 36q-22 0 -47 -6v38q31 7 64 7q43 0 66.5 -17.5t23.5 -52.5q0 -32 -21.5 -52t-61.5 -38z" />
    <glyph glyph-name="uni1EBB" unicode="&#x1ebb;" horiz-adv-x="395" 
d="M111 13q-34 22 -50 71t-16 133v146q0 85 16.5 133.5t51 69.5t89.5 21q60 0 92.5 -25.5t45 -76.5t12.5 -137v-52h-234v-101q0 -83 19 -116t64 -33q38 0 58.5 24t20.5 87v40h71v-32q0 -84 -35 -129t-115 -45q-56 0 -90 22zM280 338v48q0 52 -5.5 82t-22.5 47t-51 17
q-31 0 -49 -13.5t-26 -47t-8 -94.5v-39h162zM171 680q28 14 41.5 26.5t13.5 29.5q0 36 -52 36q-22 0 -47 -6v38q31 7 64 7q43 0 66.5 -17.5t23.5 -52.5q0 -32 -21.5 -52t-61.5 -38z" />
    <glyph glyph-name="uni1EBC" unicode="&#x1ebc;" horiz-adv-x="398" 
d="M70 810h293v-59h-216v-304h176v-56h-176v-334h218v-57h-295v810zM250 931q-14 7 -34 20q-17 11 -27.5 16t-21.5 5q-32 0 -32 -40h-45q0 33 15.5 60.5t53.5 27.5q17 0 32 -6.5t33 -19.5q17 -11 27.5 -16t21.5 -5q17 0 25 10t8 33h44q0 -37 -14.5 -64.5t-54.5 -27.5
q-17 0 -31 7z" />
    <glyph glyph-name="uni1EBD" unicode="&#x1ebd;" horiz-adv-x="395" 
d="M111 13q-34 22 -50 71t-16 133v146q0 85 16.5 133.5t51 69.5t89.5 21q60 0 92.5 -25.5t45 -76.5t12.5 -137v-52h-234v-101q0 -83 19 -116t64 -33q38 0 58.5 24t20.5 87v40h71v-32q0 -84 -35 -129t-115 -45q-56 0 -90 22zM280 338v48q0 52 -5.5 82t-22.5 47t-51 17
q-31 0 -49 -13.5t-26 -47t-8 -94.5v-39h162zM228 699q-14 7 -34 20q-17 11 -27.5 16t-21.5 5q-32 0 -32 -40h-45q0 33 15.5 60.5t53.5 27.5q17 0 32 -6.5t33 -19.5q17 -11 27.5 -16t21.5 -5q17 0 25 10t8 33h44q0 -37 -14.5 -64.5t-54.5 -27.5q-17 0 -31 7z" />
    <glyph glyph-name="uni1EBE" unicode="&#x1ebe;" horiz-adv-x="398" 
d="M70 810h293v-59h-216v-304h176v-56h-176v-334h218v-57h-295v810zM385 1074h67l-71 -115h-49zM179 1010h82l86 -146h-54l-73 110l-73 -110h-54z" />
    <glyph glyph-name="uni1EBF" unicode="&#x1ebf;" horiz-adv-x="395" 
d="M111 13q-34 22 -50 71t-16 133v146q0 85 16.5 133.5t51 69.5t89.5 21q60 0 92.5 -25.5t45 -76.5t12.5 -137v-52h-234v-101q0 -83 19 -116t64 -33q38 0 58.5 24t20.5 87v40h71v-32q0 -84 -35 -129t-115 -45q-56 0 -90 22zM280 338v48q0 52 -5.5 82t-22.5 47t-51 17
q-31 0 -49 -13.5t-26 -47t-8 -94.5v-39h162zM363 842h67l-71 -115h-49zM157 778h82l86 -146h-54l-73 110l-73 -110h-54z" />
    <glyph glyph-name="uni1EC0" unicode="&#x1ec0;" horiz-adv-x="398" 
d="M70 810h293v-59h-216v-304h176v-56h-176v-334h218v-57h-295v810zM286 1074h67l53 -115h-48zM179 1010h82l86 -146h-54l-73 110l-73 -110h-54z" />
    <glyph glyph-name="uni1EC1" unicode="&#x1ec1;" horiz-adv-x="395" 
d="M111 13q-34 22 -50 71t-16 133v146q0 85 16.5 133.5t51 69.5t89.5 21q60 0 92.5 -25.5t45 -76.5t12.5 -137v-52h-234v-101q0 -83 19 -116t64 -33q38 0 58.5 24t20.5 87v40h71v-32q0 -84 -35 -129t-115 -45q-56 0 -90 22zM280 338v48q0 52 -5.5 82t-22.5 47t-51 17
q-31 0 -49 -13.5t-26 -47t-8 -94.5v-39h162zM264 842h67l53 -115h-48zM157 778h82l86 -146h-54l-73 110l-73 -110h-54z" />
    <glyph glyph-name="uni1EC2" unicode="&#x1ec2;" horiz-adv-x="398" 
d="M70 810h293v-59h-216v-304h176v-56h-176v-334h218v-57h-295v810zM323 979q24 14 35.5 26.5t11.5 29.5t-12 26t-33 9q-24 0 -46 -7v38q32 9 62 9q39 0 62 -18t23 -52q0 -32 -20 -53t-56 -37zM179 1010h82l86 -146h-54l-73 110l-73 -110h-54z" />
    <glyph glyph-name="uni1EC3" unicode="&#x1ec3;" horiz-adv-x="395" 
d="M111 13q-34 22 -50 71t-16 133v146q0 85 16.5 133.5t51 69.5t89.5 21q60 0 92.5 -25.5t45 -76.5t12.5 -137v-52h-234v-101q0 -83 19 -116t64 -33q38 0 58.5 24t20.5 87v40h71v-32q0 -84 -35 -129t-115 -45q-56 0 -90 22zM280 338v48q0 52 -5.5 82t-22.5 47t-51 17
q-31 0 -49 -13.5t-26 -47t-8 -94.5v-39h162zM301 747q24 14 35.5 26.5t11.5 29.5t-12 26t-33 9q-24 0 -46 -7v38q32 9 62 9q39 0 62 -18t23 -52q0 -32 -20 -53t-56 -37zM157 778h82l86 -146h-54l-73 110l-73 -110h-54z" />
    <glyph glyph-name="uni1EC4" unicode="&#x1ec4;" horiz-adv-x="398" 
d="M70 810h293v-59h-216v-304h176v-56h-176v-334h218v-57h-295v810zM179 1010h82l86 -146h-54l-73 110l-73 -110h-54zM250 1065q-14 7 -34 20q-17 11 -27.5 16t-21.5 5q-32 0 -32 -40h-45q0 33 15.5 60.5t53.5 27.5q17 0 32 -6.5t33 -19.5q17 -11 27.5 -16t21.5 -5
q17 0 25 10t8 33h44q0 -37 -14.5 -64.5t-54.5 -27.5q-17 0 -31 7z" />
    <glyph glyph-name="uni1EC5" unicode="&#x1ec5;" horiz-adv-x="395" 
d="M111 13q-34 22 -50 71t-16 133v146q0 85 16.5 133.5t51 69.5t89.5 21q60 0 92.5 -25.5t45 -76.5t12.5 -137v-52h-234v-101q0 -83 19 -116t64 -33q38 0 58.5 24t20.5 87v40h71v-32q0 -84 -35 -129t-115 -45q-56 0 -90 22zM280 338v48q0 52 -5.5 82t-22.5 47t-51 17
q-31 0 -49 -13.5t-26 -47t-8 -94.5v-39h162zM157 778h82l86 -146h-54l-73 110l-73 -110h-54zM228 833q-14 7 -34 20q-17 11 -27.5 16t-21.5 5q-32 0 -32 -40h-45q0 33 15.5 60.5t53.5 27.5q17 0 32 -6.5t33 -19.5q17 -11 27.5 -16t21.5 -5q17 0 25 10t8 33h44
q0 -37 -14.5 -64.5t-54.5 -27.5q-17 0 -31 7z" />
    <glyph glyph-name="uni1EC6" unicode="&#x1ec6;" horiz-adv-x="398" 
d="M70 810h293v-59h-216v-304h176v-56h-176v-334h218v-57h-295v810zM179 1010h82l86 -146h-54l-73 110l-73 -110h-54zM173 -61h78v-89h-78v89z" />
    <glyph glyph-name="uni1EC7" unicode="&#x1ec7;" horiz-adv-x="395" 
d="M111 13q-34 22 -50 71t-16 133v146q0 85 16.5 133.5t51 69.5t89.5 21q60 0 92.5 -25.5t45 -76.5t12.5 -137v-52h-234v-101q0 -83 19 -116t64 -33q38 0 58.5 24t20.5 87v40h71v-32q0 -84 -35 -129t-115 -45q-56 0 -90 22zM280 338v48q0 52 -5.5 82t-22.5 47t-51 17
q-31 0 -49 -13.5t-26 -47t-8 -94.5v-39h162zM159 -61h78v-89h-78v89zM157 778h82l86 -146h-54l-73 110l-73 -110h-54z" />
    <glyph glyph-name="uni1EC8" unicode="&#x1ec8;" horiz-adv-x="222" 
d="M73 810h76v-810h-76v810zM84 912q28 14 41.5 26.5t13.5 29.5q0 36 -52 36q-22 0 -47 -6v38q31 7 64 7q43 0 66.5 -17.5t23.5 -52.5q0 -32 -21.5 -52t-61.5 -38z" />
    <glyph glyph-name="uni1EC9" unicode="&#x1ec9;" horiz-adv-x="198" 
d="M64 578h73v-578h-73v578zM74 680q28 14 41.5 26.5t13.5 29.5q0 36 -52 36q-22 0 -47 -6v38q31 7 64 7q43 0 66.5 -17.5t23.5 -52.5q0 -32 -21.5 -52t-61.5 -38z" />
    <glyph glyph-name="uni1ECA" unicode="&#x1eca;" horiz-adv-x="222" 
d="M73 810h76v-810h-76v810zM72 -61h78v-89h-78v89z" />
    <glyph glyph-name="uni1ECB" unicode="&#x1ecb;" horiz-adv-x="204" 
d="M64 757h73v-99h-73v99zM64 578h73v-578h-73v578zM64 -61h78v-89h-78v89z" />
    <glyph glyph-name="uni1ECC" unicode="&#x1ecc;" horiz-adv-x="525" 
d="M101.5 55q-47.5 65 -47.5 184v336q0 118 48 180.5t161 62.5q111 0 159 -63t48 -180v-337q0 -119 -47 -183.5t-160 -64.5q-114 0 -161.5 65zM365 94.5q28 43.5 28 127.5v367q0 84 -27.5 126t-102.5 42q-76 0 -104 -41.5t-28 -126.5v-367q0 -85 28 -128t104 -43
q74 0 102 43.5zM224 -61h78v-89h-78v89z" />
    <glyph glyph-name="uni1ECD" unicode="&#x1ecd;" horiz-adv-x="399" 
d="M79 44.5q-34 53.5 -34 164.5v160q0 111 34 164.5t120 53.5q87 0 121 -53.5t34 -164.5v-160q0 -111 -34 -164.5t-121 -53.5q-86 0 -120 53.5zM252.5 65q17.5 19 22.5 51.5t5 88.5v168q0 56 -5 88.5t-22.5 51.5t-53.5 19t-53 -19t-22 -51.5t-5 -88.5v-168q0 -56 5 -88.5
t22 -51.5t53 -19t53.5 19zM161 -61h78v-89h-78v89z" />
    <glyph glyph-name="uni1ECE" unicode="&#x1ece;" horiz-adv-x="525" 
d="M101.5 55q-47.5 65 -47.5 184v336q0 118 48 180.5t161 62.5q111 0 159 -63t48 -180v-337q0 -119 -47 -183.5t-160 -64.5q-114 0 -161.5 65zM365 94.5q28 43.5 28 127.5v367q0 84 -27.5 126t-102.5 42q-76 0 -104 -41.5t-28 -126.5v-367q0 -85 28 -128t104 -43
q74 0 102 43.5zM236 912q28 14 41.5 26.5t13.5 29.5q0 36 -52 36q-22 0 -47 -6v38q31 7 64 7q43 0 66.5 -17.5t23.5 -52.5q0 -32 -21.5 -52t-61.5 -38z" />
    <glyph glyph-name="uni1ECF" unicode="&#x1ecf;" horiz-adv-x="399" 
d="M79 44.5q-34 53.5 -34 164.5v160q0 111 34 164.5t120 53.5q87 0 121 -53.5t34 -164.5v-160q0 -111 -34 -164.5t-121 -53.5q-86 0 -120 53.5zM252.5 65q17.5 19 22.5 51.5t5 88.5v168q0 56 -5 88.5t-22.5 51.5t-53.5 19t-53 -19t-22 -51.5t-5 -88.5v-168q0 -56 5 -88.5
t22 -51.5t53 -19t53.5 19zM173 680q28 14 41.5 26.5t13.5 29.5q0 36 -52 36q-22 0 -47 -6v38q31 7 64 7q43 0 66.5 -17.5t23.5 -52.5q0 -32 -21.5 -52t-61.5 -38z" />
    <glyph glyph-name="uni1ED0" unicode="&#x1ed0;" horiz-adv-x="525" 
d="M101.5 55q-47.5 65 -47.5 184v336q0 118 48 180.5t161 62.5q111 0 159 -63t48 -180v-337q0 -119 -47 -183.5t-160 -64.5q-114 0 -161.5 65zM365 94.5q28 43.5 28 127.5v367q0 84 -27.5 126t-102.5 42q-76 0 -104 -41.5t-28 -126.5v-367q0 -85 28 -128t104 -43
q74 0 102 43.5zM428 1074h67l-71 -115h-49zM222 1010h82l86 -146h-54l-73 110l-73 -110h-54z" />
    <glyph glyph-name="uni1ED1" unicode="&#x1ed1;" horiz-adv-x="399" 
d="M79 44.5q-34 53.5 -34 164.5v160q0 111 34 164.5t120 53.5q87 0 121 -53.5t34 -164.5v-160q0 -111 -34 -164.5t-121 -53.5q-86 0 -120 53.5zM252.5 65q17.5 19 22.5 51.5t5 88.5v168q0 56 -5 88.5t-22.5 51.5t-53.5 19t-53 -19t-22 -51.5t-5 -88.5v-168q0 -56 5 -88.5
t22 -51.5t53 -19t53.5 19zM365 842h67l-71 -115h-49zM159 778h82l86 -146h-54l-73 110l-73 -110h-54z" />
    <glyph glyph-name="uni1ED2" unicode="&#x1ed2;" horiz-adv-x="525" 
d="M101.5 55q-47.5 65 -47.5 184v336q0 118 48 180.5t161 62.5q111 0 159 -63t48 -180v-337q0 -119 -47 -183.5t-160 -64.5q-114 0 -161.5 65zM365 94.5q28 43.5 28 127.5v367q0 84 -27.5 126t-102.5 42q-76 0 -104 -41.5t-28 -126.5v-367q0 -85 28 -128t104 -43
q74 0 102 43.5zM329 1074h67l53 -115h-48zM222 1010h82l86 -146h-54l-73 110l-73 -110h-54z" />
    <glyph glyph-name="uni1ED3" unicode="&#x1ed3;" horiz-adv-x="399" 
d="M79 44.5q-34 53.5 -34 164.5v160q0 111 34 164.5t120 53.5q87 0 121 -53.5t34 -164.5v-160q0 -111 -34 -164.5t-121 -53.5q-86 0 -120 53.5zM252.5 65q17.5 19 22.5 51.5t5 88.5v168q0 56 -5 88.5t-22.5 51.5t-53.5 19t-53 -19t-22 -51.5t-5 -88.5v-168q0 -56 5 -88.5
t22 -51.5t53 -19t53.5 19zM266 842h67l53 -115h-48zM159 778h82l86 -146h-54l-73 110l-73 -110h-54z" />
    <glyph glyph-name="uni1ED4" unicode="&#x1ed4;" horiz-adv-x="525" 
d="M101.5 55q-47.5 65 -47.5 184v336q0 118 48 180.5t161 62.5q111 0 159 -63t48 -180v-337q0 -119 -47 -183.5t-160 -64.5q-114 0 -161.5 65zM365 94.5q28 43.5 28 127.5v367q0 84 -27.5 126t-102.5 42q-76 0 -104 -41.5t-28 -126.5v-367q0 -85 28 -128t104 -43
q74 0 102 43.5zM366 979q24 14 35.5 26.5t11.5 29.5t-12 26t-33 9q-24 0 -46 -7v38q32 9 62 9q39 0 62 -18t23 -52q0 -32 -20 -53t-56 -37zM222 1010h82l86 -146h-54l-73 110l-73 -110h-54z" />
    <glyph glyph-name="uni1ED5" unicode="&#x1ed5;" horiz-adv-x="399" 
d="M79 44.5q-34 53.5 -34 164.5v160q0 111 34 164.5t120 53.5q87 0 121 -53.5t34 -164.5v-160q0 -111 -34 -164.5t-121 -53.5q-86 0 -120 53.5zM252.5 65q17.5 19 22.5 51.5t5 88.5v168q0 56 -5 88.5t-22.5 51.5t-53.5 19t-53 -19t-22 -51.5t-5 -88.5v-168q0 -56 5 -88.5
t22 -51.5t53 -19t53.5 19zM303 747q24 14 35.5 26.5t11.5 29.5t-12 26t-33 9q-24 0 -46 -7v38q32 9 62 9q39 0 62 -18t23 -52q0 -32 -20 -53t-56 -37zM159 778h82l86 -146h-54l-73 110l-73 -110h-54z" />
    <glyph glyph-name="uni1ED6" unicode="&#x1ed6;" horiz-adv-x="525" 
d="M101.5 55q-47.5 65 -47.5 184v336q0 118 48 180.5t161 62.5q111 0 159 -63t48 -180v-337q0 -119 -47 -183.5t-160 -64.5q-114 0 -161.5 65zM365 94.5q28 43.5 28 127.5v367q0 84 -27.5 126t-102.5 42q-76 0 -104 -41.5t-28 -126.5v-367q0 -85 28 -128t104 -43
q74 0 102 43.5zM222 1010h82l86 -146h-54l-73 110l-73 -110h-54zM293 1065q-14 7 -34 20q-17 11 -27.5 16t-21.5 5q-32 0 -32 -40h-45q0 33 15.5 60.5t53.5 27.5q17 0 32 -6.5t33 -19.5q17 -11 27.5 -16t21.5 -5q17 0 25 10t8 33h44q0 -37 -14.5 -64.5t-54.5 -27.5
q-17 0 -31 7z" />
    <glyph glyph-name="uni1ED7" unicode="&#x1ed7;" horiz-adv-x="399" 
d="M79 44.5q-34 53.5 -34 164.5v160q0 111 34 164.5t120 53.5q87 0 121 -53.5t34 -164.5v-160q0 -111 -34 -164.5t-121 -53.5q-86 0 -120 53.5zM252.5 65q17.5 19 22.5 51.5t5 88.5v168q0 56 -5 88.5t-22.5 51.5t-53.5 19t-53 -19t-22 -51.5t-5 -88.5v-168q0 -56 5 -88.5
t22 -51.5t53 -19t53.5 19zM159 778h82l86 -146h-54l-73 110l-73 -110h-54zM230 833q-14 7 -34 20q-17 11 -27.5 16t-21.5 5q-32 0 -32 -40h-45q0 33 15.5 60.5t53.5 27.5q17 0 32 -6.5t33 -19.5q17 -11 27.5 -16t21.5 -5q17 0 25 10t8 33h44q0 -37 -14.5 -64.5t-54.5 -27.5
q-17 0 -31 7z" />
    <glyph glyph-name="uni1ED8" unicode="&#x1ed8;" horiz-adv-x="525" 
d="M101.5 55q-47.5 65 -47.5 184v336q0 118 48 180.5t161 62.5q111 0 159 -63t48 -180v-337q0 -119 -47 -183.5t-160 -64.5q-114 0 -161.5 65zM365 94.5q28 43.5 28 127.5v367q0 84 -27.5 126t-102.5 42q-76 0 -104 -41.5t-28 -126.5v-367q0 -85 28 -128t104 -43
q74 0 102 43.5zM222 1010h82l86 -146h-54l-73 110l-73 -110h-54zM224 -61h78v-89h-78v89z" />
    <glyph glyph-name="uni1ED9" unicode="&#x1ed9;" horiz-adv-x="399" 
d="M79 44.5q-34 53.5 -34 164.5v160q0 111 34 164.5t120 53.5q87 0 121 -53.5t34 -164.5v-160q0 -111 -34 -164.5t-121 -53.5q-86 0 -120 53.5zM252.5 65q17.5 19 22.5 51.5t5 88.5v168q0 56 -5 88.5t-22.5 51.5t-53.5 19t-53 -19t-22 -51.5t-5 -88.5v-168q0 -56 5 -88.5
t22 -51.5t53 -19t53.5 19zM161 -61h78v-89h-78v89zM159 778h82l86 -146h-54l-73 110l-73 -110h-54z" />
    <glyph glyph-name="uni1EDA" unicode="&#x1eda;" horiz-adv-x="525" 
d="M101.5 55q-47.5 65 -47.5 184v336q0 118 48 180.5t161 62.5q111 0 159 -63t48 -180v-337q0 -119 -47 -183.5t-160 -64.5q-114 0 -161.5 65zM365 94.5q28 43.5 28 127.5v367q0 84 -27.5 126t-102.5 42q-76 0 -104 -41.5t-28 -126.5v-367q0 -85 28 -128t104 -43
q74 0 102 43.5zM313 810h20q29 0 41.5 16t12.5 51h57q0 -54 -28 -81.5t-81 -27.5h-22v42zM307 1054h73l-98 -196h-38z" />
    <glyph glyph-name="uni1EDB" unicode="&#x1edb;" horiz-adv-x="399" 
d="M79 44.5q-34 53.5 -34 164.5v160q0 111 34 164.5t120 53.5q87 0 121 -53.5t34 -164.5v-160q0 -111 -34 -164.5t-121 -53.5q-86 0 -120 53.5zM252.5 65q17.5 19 22.5 51.5t5 88.5v168q0 56 -5 88.5t-22.5 51.5t-53.5 19t-53 -19t-22 -51.5t-5 -88.5v-168q0 -56 5 -88.5
t22 -51.5t53 -19t53.5 19zM233 578h10q29 0 41.5 16t12.5 51h57q0 -54 -28 -81.5t-81 -27.5h-12v42zM244 822h73l-98 -196h-38z" />
    <glyph glyph-name="uni1EDC" unicode="&#x1edc;" horiz-adv-x="525" 
d="M101.5 55q-47.5 65 -47.5 184v336q0 118 48 180.5t161 62.5q111 0 159 -63t48 -180v-337q0 -119 -47 -183.5t-160 -64.5q-114 0 -161.5 65zM365 94.5q28 43.5 28 127.5v367q0 84 -27.5 126t-102.5 42q-76 0 -104 -41.5t-28 -126.5v-367q0 -85 28 -128t104 -43
q74 0 102 43.5zM313 810h20q29 0 41.5 16t12.5 51h57q0 -54 -28 -81.5t-81 -27.5h-22v42zM152 1054h74l55 -196h-37z" />
    <glyph glyph-name="uni1EDD" unicode="&#x1edd;" horiz-adv-x="399" 
d="M79 44.5q-34 53.5 -34 164.5v160q0 111 34 164.5t120 53.5q87 0 121 -53.5t34 -164.5v-160q0 -111 -34 -164.5t-121 -53.5q-86 0 -120 53.5zM252.5 65q17.5 19 22.5 51.5t5 88.5v168q0 56 -5 88.5t-22.5 51.5t-53.5 19t-53 -19t-22 -51.5t-5 -88.5v-168q0 -56 5 -88.5
t22 -51.5t53 -19t53.5 19zM233 578h10q29 0 41.5 16t12.5 51h57q0 -54 -28 -81.5t-81 -27.5h-12v42zM89 822h74l55 -196h-37z" />
    <glyph glyph-name="uni1EDE" unicode="&#x1ede;" horiz-adv-x="525" 
d="M101.5 55q-47.5 65 -47.5 184v336q0 118 48 180.5t161 62.5q111 0 159 -63t48 -180v-337q0 -119 -47 -183.5t-160 -64.5q-114 0 -161.5 65zM365 94.5q28 43.5 28 127.5v367q0 84 -27.5 126t-102.5 42q-76 0 -104 -41.5t-28 -126.5v-367q0 -85 28 -128t104 -43
q74 0 102 43.5zM313 810h20q29 0 41.5 16t12.5 51h57q0 -54 -28 -81.5t-81 -27.5h-22v42zM236 912q28 14 41.5 26.5t13.5 29.5q0 36 -52 36q-22 0 -47 -6v38q31 7 64 7q43 0 66.5 -17.5t23.5 -52.5q0 -32 -21.5 -52t-61.5 -38z" />
    <glyph glyph-name="uni1EDF" unicode="&#x1edf;" horiz-adv-x="399" 
d="M79 44.5q-34 53.5 -34 164.5v160q0 111 34 164.5t120 53.5q87 0 121 -53.5t34 -164.5v-160q0 -111 -34 -164.5t-121 -53.5q-86 0 -120 53.5zM252.5 65q17.5 19 22.5 51.5t5 88.5v168q0 56 -5 88.5t-22.5 51.5t-53.5 19t-53 -19t-22 -51.5t-5 -88.5v-168q0 -56 5 -88.5
t22 -51.5t53 -19t53.5 19zM233 578h10q29 0 41.5 16t12.5 51h57q0 -54 -28 -81.5t-81 -27.5h-12v42zM173 680q28 14 41.5 26.5t13.5 29.5q0 36 -52 36q-22 0 -47 -6v38q31 7 64 7q43 0 66.5 -17.5t23.5 -52.5q0 -32 -21.5 -52t-61.5 -38z" />
    <glyph glyph-name="uni1EE0" unicode="&#x1ee0;" horiz-adv-x="525" 
d="M101.5 55q-47.5 65 -47.5 184v336q0 118 48 180.5t161 62.5q111 0 159 -63t48 -180v-337q0 -119 -47 -183.5t-160 -64.5q-114 0 -161.5 65zM365 94.5q28 43.5 28 127.5v367q0 84 -27.5 126t-102.5 42q-76 0 -104 -41.5t-28 -126.5v-367q0 -85 28 -128t104 -43
q74 0 102 43.5zM313 810h20q29 0 41.5 16t12.5 51h57q0 -54 -28 -81.5t-81 -27.5h-22v42zM293 931q-14 7 -34 20q-17 11 -27.5 16t-21.5 5q-32 0 -32 -40h-45q0 33 15.5 60.5t53.5 27.5q17 0 32 -6.5t33 -19.5q17 -11 27.5 -16t21.5 -5q17 0 25 10t8 33h44
q0 -37 -14.5 -64.5t-54.5 -27.5q-17 0 -31 7z" />
    <glyph glyph-name="uni1EE1" unicode="&#x1ee1;" horiz-adv-x="399" 
d="M79 44.5q-34 53.5 -34 164.5v160q0 111 34 164.5t120 53.5q87 0 121 -53.5t34 -164.5v-160q0 -111 -34 -164.5t-121 -53.5q-86 0 -120 53.5zM252.5 65q17.5 19 22.5 51.5t5 88.5v168q0 56 -5 88.5t-22.5 51.5t-53.5 19t-53 -19t-22 -51.5t-5 -88.5v-168q0 -56 5 -88.5
t22 -51.5t53 -19t53.5 19zM233 578h10q29 0 41.5 16t12.5 51h57q0 -54 -28 -81.5t-81 -27.5h-12v42zM230 699q-14 7 -34 20q-17 11 -27.5 16t-21.5 5q-32 0 -32 -40h-45q0 33 15.5 60.5t53.5 27.5q17 0 32 -6.5t33 -19.5q17 -11 27.5 -16t21.5 -5q17 0 25 10t8 33h44
q0 -37 -14.5 -64.5t-54.5 -27.5q-17 0 -31 7z" />
    <glyph glyph-name="uni1EE2" unicode="&#x1ee2;" horiz-adv-x="525" 
d="M101.5 55q-47.5 65 -47.5 184v336q0 118 48 180.5t161 62.5q111 0 159 -63t48 -180v-337q0 -119 -47 -183.5t-160 -64.5q-114 0 -161.5 65zM365 94.5q28 43.5 28 127.5v367q0 84 -27.5 126t-102.5 42q-76 0 -104 -41.5t-28 -126.5v-367q0 -85 28 -128t104 -43
q74 0 102 43.5zM313 810h20q29 0 41.5 16t12.5 51h57q0 -54 -28 -81.5t-81 -27.5h-22v42zM224 -61h78v-89h-78v89z" />
    <glyph glyph-name="uni1EE3" unicode="&#x1ee3;" horiz-adv-x="399" 
d="M79 44.5q-34 53.5 -34 164.5v160q0 111 34 164.5t120 53.5q87 0 121 -53.5t34 -164.5v-160q0 -111 -34 -164.5t-121 -53.5q-86 0 -120 53.5zM252.5 65q17.5 19 22.5 51.5t5 88.5v168q0 56 -5 88.5t-22.5 51.5t-53.5 19t-53 -19t-22 -51.5t-5 -88.5v-168q0 -56 5 -88.5
t22 -51.5t53 -19t53.5 19zM233 578h10q29 0 41.5 16t12.5 51h57q0 -54 -28 -81.5t-81 -27.5h-12v42zM161 -61h78v-89h-78v89z" />
    <glyph glyph-name="uni1EE4" unicode="&#x1ee4;" horiz-adv-x="537" 
d="M107 49.5q-45 59.5 -45 171.5v589h74v-591q0 -80 28.5 -124t104.5 -44q73 0 103 44.5t30 123.5v591h73v-589q0 -110 -46.5 -170.5t-159.5 -60.5q-117 0 -162 59.5zM230 -61h78v-89h-78v89z" />
    <glyph glyph-name="uni1EE5" unicode="&#x1ee5;" horiz-adv-x="412" 
d="M74 23q-23 32 -23 91v464h74v-448q0 -44 13.5 -62.5t41.5 -18.5q25 0 51.5 15.5t50.5 41.5v472h73v-578h-73v64q-29 -34 -65 -53.5t-76 -19.5q-44 0 -67 32zM167 -61h78v-89h-78v89z" />
    <glyph glyph-name="uni1EE6" unicode="&#x1ee6;" horiz-adv-x="537" 
d="M107 49.5q-45 59.5 -45 171.5v589h74v-591q0 -80 28.5 -124t104.5 -44q73 0 103 44.5t30 123.5v591h73v-589q0 -110 -46.5 -170.5t-159.5 -60.5q-117 0 -162 59.5zM242 912q28 14 41.5 26.5t13.5 29.5q0 36 -52 36q-22 0 -47 -6v38q31 7 64 7q43 0 66.5 -17.5t23.5 -52.5
q0 -32 -21.5 -52t-61.5 -38z" />
    <glyph glyph-name="uni1EE7" unicode="&#x1ee7;" horiz-adv-x="412" 
d="M74 23q-23 32 -23 91v464h74v-448q0 -44 13.5 -62.5t41.5 -18.5q25 0 51.5 15.5t50.5 41.5v472h73v-578h-73v64q-29 -34 -65 -53.5t-76 -19.5q-44 0 -67 32zM179 680q28 14 41.5 26.5t13.5 29.5q0 36 -52 36q-22 0 -47 -6v38q31 7 64 7q43 0 66.5 -17.5t23.5 -52.5
q0 -32 -21.5 -52t-61.5 -38z" />
    <glyph glyph-name="uni1EE8" unicode="&#x1ee8;" horiz-adv-x="537" 
d="M107 49.5q-45 59.5 -45 171.5v589h74v-591q0 -80 28.5 -124t104.5 -44q73 0 103 44.5t30 123.5v591h73v-589q0 -110 -46.5 -170.5t-159.5 -60.5q-117 0 -162 59.5zM421 810h10q29 0 41.5 16t12.5 51h57q0 -54 -28 -81.5t-81 -27.5h-12v42zM313 1054h73l-98 -196h-38z" />
    <glyph glyph-name="uni1EE9" unicode="&#x1ee9;" horiz-adv-x="412" 
d="M74 23q-23 32 -23 91v464h74v-448q0 -44 13.5 -62.5t41.5 -18.5q25 0 51.5 15.5t50.5 41.5v472h73v-578h-73v64q-29 -34 -65 -53.5t-76 -19.5q-44 0 -67 32zM291 578h10q29 0 41.5 16t12.5 51h57q0 -54 -28 -81.5t-81 -27.5h-12v42zM247 822h73l-98 -196h-38z" />
    <glyph glyph-name="uni1EEA" unicode="&#x1eea;" horiz-adv-x="537" 
d="M107 49.5q-45 59.5 -45 171.5v589h74v-591q0 -80 28.5 -124t104.5 -44q73 0 103 44.5t30 123.5v591h73v-589q0 -110 -46.5 -170.5t-159.5 -60.5q-117 0 -162 59.5zM421 810h10q29 0 41.5 16t12.5 51h57q0 -54 -28 -81.5t-81 -27.5h-12v42zM158 1054h74l55 -196h-37z" />
    <glyph glyph-name="uni1EEB" unicode="&#x1eeb;" horiz-adv-x="412" 
d="M74 23q-23 32 -23 91v464h74v-448q0 -44 13.5 -62.5t41.5 -18.5q25 0 51.5 15.5t50.5 41.5v472h73v-578h-73v64q-29 -34 -65 -53.5t-76 -19.5q-44 0 -67 32zM291 578h10q29 0 41.5 16t12.5 51h57q0 -54 -28 -81.5t-81 -27.5h-12v42zM92 822h74l55 -196h-37z" />
    <glyph glyph-name="uni1EEC" unicode="&#x1eec;" horiz-adv-x="537" 
d="M107 49.5q-45 59.5 -45 171.5v589h74v-591q0 -80 28.5 -124t104.5 -44q73 0 103 44.5t30 123.5v591h73v-589q0 -110 -46.5 -170.5t-159.5 -60.5q-117 0 -162 59.5zM421 810h10q29 0 41.5 16t12.5 51h57q0 -54 -28 -81.5t-81 -27.5h-12v42zM242 912q28 14 41.5 26.5
t13.5 29.5q0 36 -52 36q-22 0 -47 -6v38q31 7 64 7q43 0 66.5 -17.5t23.5 -52.5q0 -32 -21.5 -52t-61.5 -38z" />
    <glyph glyph-name="uni1EED" unicode="&#x1eed;" horiz-adv-x="412" 
d="M74 23q-23 32 -23 91v464h74v-448q0 -44 13.5 -62.5t41.5 -18.5q25 0 51.5 15.5t50.5 41.5v472h73v-578h-73v64q-29 -34 -65 -53.5t-76 -19.5q-44 0 -67 32zM291 578h10q29 0 41.5 16t12.5 51h57q0 -54 -28 -81.5t-81 -27.5h-12v42zM176 680q28 14 41.5 26.5t13.5 29.5
q0 36 -52 36q-22 0 -47 -6v38q31 7 64 7q43 0 66.5 -17.5t23.5 -52.5q0 -32 -21.5 -52t-61.5 -38z" />
    <glyph glyph-name="uni1EEE" unicode="&#x1eee;" horiz-adv-x="537" 
d="M107 49.5q-45 59.5 -45 171.5v589h74v-591q0 -80 28.5 -124t104.5 -44q73 0 103 44.5t30 123.5v591h73v-589q0 -110 -46.5 -170.5t-159.5 -60.5q-117 0 -162 59.5zM421 810h10q29 0 41.5 16t12.5 51h57q0 -54 -28 -81.5t-81 -27.5h-12v42zM299 931q-14 7 -34 20
q-17 11 -27.5 16t-21.5 5q-32 0 -32 -40h-45q0 33 15.5 60.5t53.5 27.5q17 0 32 -6.5t33 -19.5q17 -11 27.5 -16t21.5 -5q17 0 25 10t8 33h44q0 -37 -14.5 -64.5t-54.5 -27.5q-17 0 -31 7z" />
    <glyph glyph-name="uni1EEF" unicode="&#x1eef;" horiz-adv-x="412" 
d="M74 23q-23 32 -23 91v464h74v-448q0 -44 13.5 -62.5t41.5 -18.5q25 0 51.5 15.5t50.5 41.5v472h73v-578h-73v64q-29 -34 -65 -53.5t-76 -19.5q-44 0 -67 32zM291 578h10q29 0 41.5 16t12.5 51h57q0 -54 -28 -81.5t-81 -27.5h-12v42zM233 699q-14 7 -34 20
q-17 11 -27.5 16t-21.5 5q-32 0 -32 -40h-45q0 33 15.5 60.5t53.5 27.5q17 0 32 -6.5t33 -19.5q17 -11 27.5 -16t21.5 -5q17 0 25 10t8 33h44q0 -37 -14.5 -64.5t-54.5 -27.5q-17 0 -31 7z" />
    <glyph glyph-name="uni1EF0" unicode="&#x1ef0;" horiz-adv-x="537" 
d="M107 49.5q-45 59.5 -45 171.5v589h74v-591q0 -80 28.5 -124t104.5 -44q73 0 103 44.5t30 123.5v591h73v-589q0 -110 -46.5 -170.5t-159.5 -60.5q-117 0 -162 59.5zM421 810h10q29 0 41.5 16t12.5 51h57q0 -54 -28 -81.5t-81 -27.5h-12v42zM230 -61h78v-89h-78v89z" />
    <glyph glyph-name="uni1EF1" unicode="&#x1ef1;" horiz-adv-x="412" 
d="M74 23q-23 32 -23 91v464h74v-448q0 -44 13.5 -62.5t41.5 -18.5q25 0 51.5 15.5t50.5 41.5v472h73v-578h-73v64q-29 -34 -65 -53.5t-76 -19.5q-44 0 -67 32zM291 578h10q29 0 41.5 16t12.5 51h57q0 -54 -28 -81.5t-81 -27.5h-12v42zM162 -61h78v-89h-78v89z" />
    <glyph glyph-name="Ygrave" unicode="&#x1ef2;" horiz-adv-x="469" 
d="M200 269l-183 541h74l146 -450l140 450h75l-178 -541v-269h-74v269zM124 1054h74l55 -196h-37z" />
    <glyph glyph-name="ygrave" unicode="&#x1ef3;" horiz-adv-x="381" 
d="M40 -87q70 0 94 15t24 45q0 19 -8.5 54.5t-10.5 41.5l-119 509h73l100 -492l97 492h74l-140 -619q-13 -55 -52 -79t-113 -24h-19v57zM80 822h74l55 -196h-37z" />
    <glyph glyph-name="uni1EF4" unicode="&#x1ef4;" horiz-adv-x="469" 
d="M200 269l-183 541h74l146 -450l140 450h75l-178 -541v-269h-74v269zM196 -61h78v-89h-78v89z" />
    <glyph glyph-name="uni1EF5" unicode="&#x1ef5;" horiz-adv-x="381" 
d="M40 -87q70 0 94 15t24 45q0 19 -8.5 54.5t-10.5 41.5l-119 509h73l100 -492l97 492h74l-140 -619q-13 -55 -52 -79t-113 -24h-19v57zM249 -61h78v-89h-78v89z" />
    <glyph glyph-name="uni1EF6" unicode="&#x1ef6;" horiz-adv-x="469" 
d="M200 269l-183 541h74l146 -450l140 450h75l-178 -541v-269h-74v269zM208 912q28 14 41.5 26.5t13.5 29.5q0 36 -52 36q-22 0 -47 -6v38q31 7 64 7q43 0 66.5 -17.5t23.5 -52.5q0 -32 -21.5 -52t-61.5 -38z" />
    <glyph glyph-name="uni1EF7" unicode="&#x1ef7;" horiz-adv-x="381" 
d="M40 -87q70 0 94 15t24 45q0 19 -8.5 54.5t-10.5 41.5l-119 509h73l100 -492l97 492h74l-140 -619q-13 -55 -52 -79t-113 -24h-19v57zM164 680q28 14 41.5 26.5t13.5 29.5q0 36 -52 36q-22 0 -47 -6v38q31 7 64 7q43 0 66.5 -17.5t23.5 -52.5q0 -32 -21.5 -52t-61.5 -38z
" />
    <glyph glyph-name="uni1EF8" unicode="&#x1ef8;" horiz-adv-x="469" 
d="M200 269l-183 541h74l146 -450l140 450h75l-178 -541v-269h-74v269zM265 931q-14 7 -34 20q-17 11 -27.5 16t-21.5 5q-32 0 -32 -40h-45q0 33 15.5 60.5t53.5 27.5q17 0 32 -6.5t33 -19.5q17 -11 27.5 -16t21.5 -5q17 0 25 10t8 33h44q0 -37 -14.5 -64.5t-54.5 -27.5
q-17 0 -31 7z" />
    <glyph glyph-name="uni1EF9" unicode="&#x1ef9;" horiz-adv-x="381" 
d="M40 -87q70 0 94 15t24 45q0 19 -8.5 54.5t-10.5 41.5l-119 509h73l100 -492l97 492h74l-140 -619q-13 -55 -52 -79t-113 -24h-19v57zM221 699q-14 7 -34 20q-17 11 -27.5 16t-21.5 5q-32 0 -32 -40h-45q0 33 15.5 60.5t53.5 27.5q17 0 32 -6.5t33 -19.5q17 -11 27.5 -16
t21.5 -5q17 0 25 10t8 33h44q0 -37 -14.5 -64.5t-54.5 -27.5q-17 0 -31 7z" />
    <glyph glyph-name="uni2010" unicode="&#x2010;" horiz-adv-x="402" 
d="M43 355h212v-58h-212v58z" />
    <glyph glyph-name="endash" unicode="&#x2013;" horiz-adv-x="471" 
d="M41 270h395v-60h-395v60z" />
    <glyph glyph-name="emdash" unicode="&#x2014;" horiz-adv-x="829" 
d="M41 305h753v-59h-753v59z" />
    <glyph glyph-name="quoteleft" unicode="&#x2018;" horiz-adv-x="173" 
d="M32 694q0 65 16 99t57 45l17 -25q-27 -12 -36.5 -34.5t-9.5 -69.5h41v-99h-85v84z" />
    <glyph glyph-name="quoteright" unicode="&#x2019;" horiz-adv-x="174" 
d="M51 608q27 10 36.5 32.5t9.5 70.5h-40v99h84v-84q0 -65 -15.5 -99t-56.5 -46z" />
    <glyph glyph-name="quotesinglbase" unicode="&#x201a;" horiz-adv-x="174" 
d="M51 -93q27 10 36.5 32.5t9.5 70.5h-40v99h84v-84q0 -65 -15.5 -99t-56.5 -46z" />
    <glyph glyph-name="quotedblleft" unicode="&#x201c;" horiz-adv-x="308" 
d="M32 694q0 65 16 99t57 45l17 -25q-27 -12 -36.5 -34.5t-9.5 -69.5h41v-99h-85v84zM167 694q0 65 16 99t57 45l17 -25q-27 -12 -36.5 -34.5t-9.5 -69.5h41v-99h-85v84z" />
    <glyph glyph-name="quotedblright" unicode="&#x201d;" horiz-adv-x="309" 
d="M51 608q27 10 36.5 32.5t9.5 70.5h-40v99h84v-84q0 -65 -15.5 -99t-56.5 -46zM186 608q27 10 36.5 32.5t9.5 70.5h-40v99h84v-84q0 -65 -15.5 -99t-56.5 -46z" />
    <glyph glyph-name="quotedblbase" unicode="&#x201e;" horiz-adv-x="309" 
d="M186 -93q27 10 36.5 32.5t9.5 70.5h-40v99h84v-84q0 -65 -15.5 -99t-56.5 -46zM51 -93q27 10 36.5 32.5t9.5 70.5h-40v99h84v-84q0 -65 -15.5 -99t-56.5 -46z" />
    <glyph glyph-name="dagger" unicode="&#x2020;" horiz-adv-x="349" 
d="M140 550h-114v57h114v185h71v-185h113v-57h-113v-550h-71v550z" />
    <glyph glyph-name="daggerdbl" unicode="&#x2021;" horiz-adv-x="370" 
d="M151 257h-120v52h120v218h-120v51h120v215h70v-215h118v-51h-118v-218h118v-52h-118v-257h-70v257z" />
    <glyph glyph-name="bullet" unicode="&#x2022;" horiz-adv-x="302" 
d="M84.5 323q-23.5 26 -23.5 66q0 41 23.5 66.5t65.5 25.5q43 0 67 -25.5t24 -66.5t-24 -66.5t-67 -25.5q-42 0 -65.5 26z" />
    <glyph glyph-name="ellipsis" unicode="&#x2026;" horiz-adv-x="531" 
d="M54 110h78v-110h-78v110zM232 110h78v-110h-78v110zM409 110h78v-110h-78v110z" />
    <glyph glyph-name="perthousand" unicode="&#x2030;" horiz-adv-x="1039" 
d="M45 559v113q0 74 29 113.5t93 39.5q65 0 94 -39t29 -112v-116q0 -155 -123 -155q-122 0 -122 156zM467 817h66l-257 -817h-65zM210.5 485q12.5 25 12.5 71v119q0 45 -12 69t-44 24q-31 0 -43 -24.5t-12 -69.5v-118q0 -46 12 -71t43 -25t43.5 25zM451 150v112
q0 74 29 113.5t94 39.5t94 -38.5t29 -112.5v-116q0 -154 -123 -154t-123 156zM750 149v112q0 75 28.5 114.5t93.5 39.5t93.5 -38.5t28.5 -112.5v-116q0 -74 -28.5 -114t-93.5 -40q-122 0 -122 155zM617.5 75.5q12.5 25.5 12.5 71.5v118q0 46 -12 70t-44 24
q-31 0 -43.5 -24.5t-12.5 -69.5v-118q0 -46 12.5 -71.5t43.5 -25.5t43.5 25.5zM915.5 75.5q12.5 25.5 12.5 71.5v118q0 46 -12 70t-44 24q-31 0 -43.5 -25t-12.5 -70v-118q0 -45 12.5 -70.5t43.5 -25.5t43.5 25.5z" />
    <glyph glyph-name="minute" unicode="&#x2032;" horiz-adv-x="124" 
d="M36 810h70l-49 -231h-39z" />
    <glyph glyph-name="second" unicode="&#x2033;" horiz-adv-x="246" 
d="M36 810h70l-49 -211h-39zM157 810h71l-49 -211h-40z" />
    <glyph glyph-name="guilsinglleft" unicode="&#x2039;" horiz-adv-x="326" 
d="M99 302v32l186 216v-94l-124 -138l124 -139v-93z" />
    <glyph glyph-name="guilsinglright" unicode="&#x203a;" horiz-adv-x="316" 
d="M74 208l125 139l-125 139v93l186 -216v-33l-186 -215v93z" />
    <glyph glyph-name="fraction" unicode="&#x2044;" horiz-adv-x="152" 
d="M217 810h62l-376 -810h-63z" />
    <glyph glyph-name="uni2052" unicode="&#x2052;" horiz-adv-x="488" 
d="M74 817h77v-110h-77v110zM338 817h64l-255 -817h-66zM338 110h77v-110h-77v110z" />
    <glyph glyph-name="uni2074" unicode="&#x2074;" horiz-adv-x="368" 
d="M220 553h-172v46l191 289h37v-287h44v-48h-44v-120h-56v120zM220 601l-1 174l-113 -174h114z" />
    <glyph glyph-name="colonmonetary" unicode="&#x20a1;" horiz-adv-x="499" 
d="M379 539v47q0 52 -7.5 87.5t-27.5 55.5l-72 -678q63 4 85 47.5t22 128.5v53h72v-48q0 -115 -41.5 -177.5t-144.5 -64.5l-8 -78h-32l8 79q-18 1 -43 7l-9 -86h-32l10 97q-58 27 -81.5 87t-23.5 147v322q0 118 43 183.5t149 69.5l9 84h32l-9 -85q20 0 42 -5l10 90h32
l-11 -101q53 -23 76.5 -76.5t23.5 -136.5v-49h-72zM240 52l74 696q-18 8 -43 9l-74 -695q21 -9 43 -10zM167 84l72 672q-64 -6 -86 -50.5t-22 -129.5v-345q0 -107 36 -147z" />
    <glyph glyph-name="franc" unicode="&#x20a3;" horiz-adv-x="386" 
d="M147 753v-305h179v-56h-179v-139h129v-55h-129v-198h-76v198h-61v55h61v557h291v-57h-215z" />
    <glyph glyph-name="lira" unicode="&#x20a4;" horiz-adv-x="375" 
d="M172.5 738.5q-17.5 -21.5 -22.5 -57t-6 -94.5v-127h133v-54h-133v-67h133v-54h-133v-230h210v-55h-343v37l61 17v231h-61v54h61v67h-61v54h61v87q0 90 10.5 147t44 90.5t100.5 33.5q72 0 100.5 -43t28.5 -122v-25h-56q0 69 -14.5 100.5t-59.5 31.5q-36 0 -53.5 -21.5z
" />
    <glyph glyph-name="uni20A6" unicode="&#x20a6;" horiz-adv-x="520" 
d="M450 455v-87h52v-52h-52v-316h-54l-129 316h-130v-316h-66v316h-52v52h52v87h-52v53h52v302h55l124 -302h134v302h66v-302h52v-53h-52zM137 636v-132h54zM246 368l-35 87h-74v-87h109zM384 368v87h-112l35 -87h77zM384 181v139h-57z" />
    <glyph glyph-name="peseta" unicode="&#x20a7;" horiz-adv-x="1070" 
d="M71 810h194q103 0 147.5 -56t44.5 -159q0 -94 -46.5 -153t-144.5 -59h-119v-383h-76v810zM244 440q75 0 106.5 34.5t31.5 120.5q0 63 -12 96.5t-41 47.5t-84 14h-98v-313h97zM568.5 25.5q-22.5 32.5 -22.5 94.5v410h-71v48h71v179h73v-179h96v-48h-96v-403
q0 -44 10 -60.5t41 -16.5q19 0 42 5v-56q-31 -6 -62 -6q-59 0 -81.5 32.5zM785.5 35q-41.5 44 -47.5 120l61 19q6 -66 31 -97t70 -31q38 0 58.5 21.5t20.5 60.5q0 57 -70 116l-79 68q-41 34 -60 67t-19 78q0 61 37.5 95.5t100.5 34.5q64 0 98.5 -41t38.5 -111l-52 -17
q-6 114 -82 114q-34 0 -54 -18.5t-20 -51.5q0 -27 10 -47t37 -44l82 -73q47 -42 71.5 -78.5t24.5 -89.5q0 -66 -40 -102.5t-108 -36.5t-109.5 44z" />
    <glyph glyph-name="uni20A9" unicode="&#x20a9;" horiz-adv-x="715" 
d="M625 471l-14 -87h78v-53h-86l-54 -331h-59l-64 331h-129l-63 -331h-62l-56 331h-88v53h79l-15 87h-64v53h55l-48 286h65l47 -286h130l52 274h63l53 -274h128l43 286h64l-46 -286h55v-53h-64zM334 524h55l-28 144zM169 384h82l16 87h-112zM416 384l-17 87h-75l-17 -87h109
zM552 384l13 87h-110l17 -87h80zM241 331h-63l29 -179zM544 331h-62l35 -180z" />
    </font>
</defs>
</svg>
