<?xml version="1.0" standalone="no"?>
<!DOCTYPE svg PUBLIC "-//W3C//DTD SVG 1.1//EN" "http://www.w3.org/Graphics/SVG/1.1/DTD/svg11.dtd" >
<svg xmlns="http://www.w3.org/2000/svg" xmlns:xlink="http://www.w3.org/1999/xlink" version="1.1">
<metadata>
Created by FontForge 20170731 at Mon Oct 30 16:13:18 2017
 By Aleksey,,,
Copyright 2016 The Oswald Project Authors (https://github.com/googlefonts/OswaldFont)
</metadata>
<defs>
<font id="Oswald-Medium" horiz-adv-x="0" >
  <font-face 
    font-family="Oswald Medium"
    font-weight="500"
    font-stretch="normal"
    units-per-em="1000"
    panose-1="0 0 6 0 0 0 0 0 0 0"
    ascent="800"
    descent="-200"
    x-height="578"
    cap-height="810"
    bbox="-211 -323 1309 1308"
    underline-thickness="50"
    underline-position="-150"
    unicode-range="U+000D-FB02"
  />
<missing-glyph horiz-adv-x="674" 
d="M86 810h502v-810h-502v810zM485 90v630h-296v-630h296z" />
    <glyph glyph-name="fi" unicode="fi" horiz-adv-x="522" 
d="M78 483h-61v95h61v37q0 86 32.5 128.5t113.5 42.5q26 0 64 -5v-97q-13 4 -30 4q-24 0 -34 -14t-10 -48v-48h253v-578h-135v483h-118v-483h-136v483zM342 783h126v-113h-126v113z" />
    <glyph glyph-name="fl" unicode="fl" horiz-adv-x="534" 
d="M76 481h-61v97h61v37q0 56 12.5 95t58.5 66.5t138 27.5q82 0 198 -23v-781h-136v706q-27 3 -48 3q-40 0 -58.5 -11.5t-23.5 -30.5t-5 -52v-37h75v-97h-75v-481h-136v481z" />
    <glyph glyph-name="f_f" unicode="ff" horiz-adv-x="580" 
d="M80 483h-62v95h62v37q0 59 10 95t41 56t91 20q33 0 74 -6v-100q-27 5 -37 5q-24 0 -34 -15t-10 -45v-47h81v-95h-81v-483h-135v483zM356 483h-62v95h62v37q0 59 10 95t41 56t91 20q33 0 74 -6v-100q-27 5 -37 5q-24 0 -34 -15t-10 -45v-47h81v-95h-81v-483h-135v483z" />
    <glyph glyph-name="f_f_i" unicode="ffi" horiz-adv-x="771" 
d="M76 484h-61v94h61v37q0 58 10.5 94.5t41.5 56.5t91 20q30 0 68 -6v-100q-22 4 -35 4q-22 0 -31 -14.5t-9 -44.5v-47h118v37q0 59 10 95t41 56t91 20q31 0 69 -6v-100q-20 4 -35 4q-23 0 -32 -14.5t-9 -44.5v-47h252v-578h-135v484h-117v-484h-135v484h-118v-484h-136v484
zM589 783h129v-113h-129v113z" />
    <glyph glyph-name="f_f_l" unicode="ffl" horiz-adv-x="818" 
d="M762 781v-781h-135v706q-28 3 -48 3q-40 0 -58.5 -11.5t-23.5 -30.5t-5 -52v-37h74v-95h-74v-483h-136v483h-141v-483h-135v483h-62v95h62v37q0 59 10 95t41 56t91 20q33 0 74 -6v-100q-27 5 -37 5q-24 0 -34 -15t-10 -45v-47h141v37q0 56 12 95t58 66.5t138 27.5
q82 0 198 -23z" />
    <glyph glyph-name=".notdef" horiz-adv-x="674" 
d="M86 810h502v-810h-502v810zM485 90v630h-296v-630h296z" />
    <glyph glyph-name=".null" 
 />
    <glyph glyph-name="nonmarkingreturn" unicode="&#xd;" horiz-adv-x="243" 
 />
    <glyph glyph-name="NULL" 
 />
    <glyph glyph-name="NULL" 
 />
    <glyph glyph-name="space" unicode=" " horiz-adv-x="243" 
 />
    <glyph glyph-name="exclam" unicode="!" horiz-adv-x="233" 
d="M50 809h136l-48 -619h-48zM48 132h132v-132h-132v132z" />
    <glyph glyph-name="quotedbl" unicode="&#x22;" horiz-adv-x="314" 
d="M22 810h119l-52 -275h-67v275zM185 810h119l-53 -275h-66v275z" />
    <glyph glyph-name="numbersign" unicode="#" horiz-adv-x="511" 
d="M89 279h-49l1 91h61l14 107h-73l1 93h87l31 240h106l-31 -240h83l32 240h105l-32 -240h47l-1 -93h-60l-14 -107h72l-2 -91h-83l-37 -279h-106l37 279h-83l-36 -279h-106zM291 370l14 107h-83l-15 -107h84z" />
    <glyph glyph-name="dollar" unicode="$" horiz-adv-x="488" 
d="M239 -10q-200 7 -209 246l127 25q3 -77 24.5 -117.5t67.5 -40.5q34 0 50.5 20.5t16.5 55.5q0 48 -21.5 81t-67.5 74l-102 89q-47 42 -70.5 86.5t-23.5 109.5q0 90 51 142t141 57v82h43v-81q93 -6 132 -65t45 -155l-126 -22q-4 66 -18.5 99.5t-55.5 33.5q-35 0 -54.5 -21
t-19.5 -55q0 -39 16 -65t50 -57l101 -89q57 -51 89 -106t32 -129q0 -82 -47.5 -135.5t-127.5 -61.5v-85h-43v84z" />
    <glyph glyph-name="percent" unicode="%" horiz-adv-x="950" 
d="M82 415q-41 51 -41 151v49q0 103 40 151t133 48q94 0 134 -47t40 -148v-55q0 -100 -41 -150t-133 -50q-91 0 -132 51zM548 811h91l-236 -811h-92zM261 484q11 27 11 84v48q0 56 -10.5 80t-47.5 24q-36 0 -46.5 -24.5t-10.5 -80.5v-48q0 -56 11 -83t46 -27q36 0 47 27z
M603 47.5q-41 50.5 -41 151.5v49q0 102 40 150t133 48q94 0 134 -47t40 -148v-54q0 -101 -41 -150.5t-133 -49.5q-91 0 -132 50.5zM782 117q11 27 11 83v48q0 56 -10.5 80.5t-47.5 24.5q-36 0 -46.5 -24.5t-10.5 -80.5v-48q0 -56 11 -83t46 -27q36 0 47 27z" />
    <glyph glyph-name="ampersand" unicode="&#x26;" horiz-adv-x="587" 
d="M98 40.5q-50 51.5 -50 136.5q0 72 30.5 129t85.5 111l-12 22q-36 64 -54 109.5t-18 92.5q0 79 46.5 128.5t128.5 49.5q77 0 125.5 -44t48.5 -117q0 -50 -21.5 -95.5t-49.5 -79t-73 -78.5l108 -185q13 25 22.5 72.5t11.5 93.5h108q0 -132 -69 -245q12 -15 31.5 -25.5
t40.5 -11.5v-114q-12 -2 -21 -2q-36 1 -66.5 21.5t-59.5 53.5q-28 -35 -68 -54.5t-91 -19.5q-84 0 -134 51.5zM291.5 564.5q20.5 51.5 20.5 95.5q0 27 -15.5 42.5t-40.5 15.5q-27 0 -41.5 -22t-14.5 -55q0 -39 11.5 -78.5t31.5 -85.5q28 36 48.5 87.5zM325 140l-111 186
q-47 -69 -47 -145q0 -40 17 -66t51 -26q53 0 90 51z" />
    <glyph glyph-name="quotesingle" unicode="'" horiz-adv-x="149" 
d="M22 810h116l-47 -275h-69v275z" />
    <glyph glyph-name="parenleft" unicode="(" horiz-adv-x="319" 
d="M142 -118q-48 68 -61.5 172t-13.5 260q0 161 13.5 265t61 171.5t144.5 67.5v-94q-40 0 -59.5 -52t-25.5 -137.5t-6 -220.5q0 -134 6 -219.5t26 -136t59 -51.5v-93q-96 0 -144 68z" />
    <glyph glyph-name="parenright" unicode=")" horiz-adv-x="295" 
d="M32 -92q39 0 59.5 51.5t26.5 136.5t6 219q0 136 -6 221t-26 137t-60 52v93q97 0 145 -67t61 -171t13 -265q0 -157 -13 -261t-61 -172t-145 -68v94z" />
    <glyph glyph-name="asterisk" unicode="*" horiz-adv-x="411" 
d="M79 507l76 106l-113 43l31 83l105 -56l-12 126h102l-13 -127l106 57l30 -83l-112 -44l76 -105l-81 -48l-58 115l-57 -115z" />
    <glyph glyph-name="plus" unicode="+" horiz-adv-x="432" 
d="M167 371h-142v88h142v160h95v-160h145v-88h-145v-161h-95v161z" />
    <glyph glyph-name="comma" unicode="," horiz-adv-x="213" 
d="M49 -86q29 8 47 29.5t18 56.5h-72v135h133v-123q0 -64 -27.5 -100t-84.5 -47z" />
    <glyph glyph-name="hyphen" unicode="-" horiz-adv-x="355" 
d="M57 374h241v-93h-241v93z" />
    <glyph glyph-name="period" unicode="." horiz-adv-x="217" 
d="M47 137h132v-137h-132v137z" />
    <glyph glyph-name="slash" unicode="/" horiz-adv-x="397" 
d="M270 810h90l-234 -810h-90z" />
    <glyph glyph-name="zero" unicode="0" horiz-adv-x="534" 
d="M110 52q-54 64 -54 171v359q0 111 52 174t159 63q105 0 158 -63.5t53 -173.5v-359q0 -107 -54 -171t-157 -64t-157 64zM338 225v355q0 53 -14.5 86.5t-56.5 33.5q-43 0 -57 -33.5t-14 -86.5v-355q0 -49 15.5 -83.5t55.5 -34.5q71 0 71 118z" />
    <glyph glyph-name="one" unicode="1" horiz-adv-x="392" 
d="M151 657q-10 -7 -73 -23q-51 -15 -52 -16v103q40 14 87.5 38.5t69.5 50.5h107v-810h-139v657z" />
    <glyph glyph-name="two" unicode="2" horiz-adv-x="496" 
d="M41 98l200 309q5 8 9 14t7 11q36 56 53 93t17 84q0 94 -66 94q-45 0 -63 -35t-18 -94v-34h-136v36q0 114 51.5 178.5t161.5 64.5q102 0 155 -55.5t53 -155.5q0 -62 -21.5 -110t-66.5 -118l-12 -18l-167 -251h246v-111h-403v98z" />
    <glyph glyph-name="three" unicode="3" horiz-adv-x="496" 
d="M39 220v28h137v-24q2 -62 17.5 -91t57.5 -29q43 0 58 30.5t15 96.5t-21 100t-74 37h-23v111h21q54 1 75.5 29t21.5 92q0 55 -16.5 82t-58.5 27q-41 0 -56 -29t-17 -86v-29h-137v38q0 104 54.5 160.5t155.5 56.5q103 0 157.5 -55.5t54.5 -158.5q0 -71 -29.5 -117.5
t-77.5 -60.5q50 -17 78.5 -64.5t28.5 -129.5q0 -116 -50.5 -181t-160.5 -65q-211 0 -211 232z" />
    <glyph glyph-name="four" unicode="4" horiz-adv-x="504" 
d="M275 199h-243v118l211 493h161v-501h83v-110h-83v-199h-129v199zM275 309v352l-128 -352h128z" />
    <glyph glyph-name="five" unicode="5" horiz-adv-x="493" 
d="M89.5 49.5q-44.5 61.5 -44.5 182.5h135q0 -69 15 -104t59 -35q33 0 49 21.5t20.5 58t4.5 101.5q0 80 -15 118t-62 38q-28 0 -47.5 -19t-28.5 -52h-119l8 451h364v-124h-248l-8 -195q17 19 49 30.5t70 11.5q86 0 127.5 -65.5t41.5 -184.5q0 -93 -17.5 -157t-63.5 -101
t-130 -37q-115 0 -159.5 61.5z" />
    <glyph glyph-name="six" unicode="6" horiz-adv-x="521" 
d="M107.5 62q-52.5 73 -52.5 193v284q0 131 47.5 205.5t163.5 74.5q104 0 152.5 -51t50.5 -152v-13h-133q0 58 -14 83t-55 25q-40 0 -56.5 -37.5t-16.5 -129.5v-96q15 24 44.5 37t68.5 13q171 0 171 -233q0 -276 -211 -276q-107 0 -159.5 73zM323.5 132q15.5 36 15.5 107
q0 55 -3.5 85.5t-19 49.5t-49.5 19q-24 0 -43.5 -13t-29.5 -30v-127q0 -57 17 -92t57 -35t55.5 36z" />
    <glyph glyph-name="seven" unicode="7" horiz-adv-x="413" 
d="M240 704h-219v106h355v-84l-164 -726h-133z" />
    <glyph glyph-name="eight" unicode="8" horiz-adv-x="510" 
d="M44 231q0 142 97 196q-39 27 -62 72.5t-23 111.5q0 98 51 153t148 55q98 0 148 -55t50 -153q0 -127 -84 -184q97 -55 97 -199q0 -239 -211 -239t-211 242zM321 610q0 48 -16 76t-50 28t-51 -28t-17 -75q0 -129 68 -130q66 1 66 129zM316 132.5q15 38.5 15 101.5
q0 58 -16.5 93.5t-59.5 36.5q-43 -1 -60 -38.5t-17 -98.5q0 -59 16 -96t61 -37q46 0 61 38.5z" />
    <glyph glyph-name="nine" unicode="9" horiz-adv-x="521" 
d="M100.5 40.5q-48.5 51.5 -50.5 153.5v12h133q0 -58 14.5 -83t56.5 -25q39 0 54.5 37.5t15.5 129.5v96q-14 -24 -43 -37t-69 -13q-170 0 -170 238q0 127 50.5 198.5t160.5 71.5q108 0 160 -70.5t52 -190.5v-287q0 -132 -47.5 -207t-164.5 -75q-104 0 -152.5 51.5zM324 460
v126q0 59 -15.5 93t-55.5 34t-55.5 -36.5t-15.5 -106.5q0 -55 3.5 -85.5t19 -49.5t49.5 -19q45 0 70 44z" />
    <glyph glyph-name="colon" unicode=":" horiz-adv-x="239" 
d="M64 547h130v-134h-130v134zM64 209h130v-134h-130v134z" />
    <glyph glyph-name="semicolon" unicode=";" horiz-adv-x="251" 
d="M63 570h131v-136h-131v136zM70 -33q65 8 65 75h-72v134h133v-123q0 -133 -112 -136z" />
    <glyph glyph-name="less" unicode="&#x3c;" horiz-adv-x="386" 
d="M30 279v116l298 211v-125l-198 -143l198 -144v-125z" />
    <glyph glyph-name="equal" unicode="=" horiz-adv-x="429" 
d="M58 537h313v-91h-313v91zM58 353h313v-90h-313v90z" />
    <glyph glyph-name="greater" unicode="&#x3e;" horiz-adv-x="386" 
d="M56 194l200 144l-200 143v125l299 -210v-117l-299 -210v125z" />
    <glyph glyph-name="question" unicode="?" horiz-adv-x="485" 
d="M145 335q79 65 124 133.5t45 144.5q0 42 -19 65.5t-55 23.5q-32 0 -50 -18t-18 -49q0 -25 9 -52l-124 -27q-14 40 -14 79q0 85 52 134.5t147 49.5q98 0 152 -53.5t54 -150.5q0 -91 -46.5 -165t-134.5 -144v-98h-122v127zM140 133h134v-133h-134v133z" />
    <glyph glyph-name="at" unicode="@" horiz-adv-x="928" 
d="M250 -83q-93 47 -143 138t-50 222q0 27 1 41q7 156 66.5 266.5t163 167.5t239.5 58q120 0 202 -49t122 -133t40 -191q0 -24 -1 -36q-3 -78 -32.5 -147t-84.5 -112t-130 -43q-43 0 -75.5 21.5t-39.5 61.5q-11 -31 -35.5 -53t-59.5 -25q-50 -4 -87 20t-56 68.5t-19 99.5
q0 71 27.5 144.5t80.5 122.5t124 49q24 0 39 -13t31 -34l10 41h105l-50 -347q-4 -24 -4 -42q0 -35 21 -38q34 -3 65 25.5t51.5 80.5t23.5 115q1 11 1 33q0 133 -68.5 212t-209.5 78q-107 0 -184.5 -50.5t-120 -141t-47.5 -207.5q-1 -13 -1 -39q0 -156 80.5 -238t237.5 -82
q42 0 94 8t97 22l18 -89q-123 -32 -221 -32q-128 0 -221 47zM493.5 214.5q23.5 15.5 31.5 50.5l33 234q-3 5 -12 7.5t-16 2.5q-39 0 -70.5 -30t-49 -79t-18.5 -104q0 -43 15 -70t46 -27q17 0 40.5 15.5z" />
    <glyph glyph-name="A" unicode="A" horiz-adv-x="522" 
d="M182 810h158l162 -810h-137l-32 187h-141l-33 -187h-139zM317 281l-55 340l-55 -340h110z" />
    <glyph glyph-name="B" unicode="B" horiz-adv-x="557" 
d="M61 810h200q115 0 176 -47t61 -161q0 -74 -30 -115.5t-87 -50.5q140 -27 140 -200q0 -117 -57 -176.5t-169 -59.5h-234v810zM259 479q64 0 87.5 28.5t23.5 92.5q0 62 -30.5 84.5t-101.5 22.5h-30v-228h51zM265 104q65 0 90 31t25 102q0 73 -27.5 106.5t-92.5 33.5h-52
v-273h57z" />
    <glyph glyph-name="C" unicode="C" horiz-adv-x="540" 
d="M100.5 59.5q-52.5 70.5 -52.5 199.5v289q0 133 52 202t179 69q119 0 169 -60t50 -173v-68h-142v70q0 43 -4 67.5t-20.5 40t-51.5 15.5q-36 0 -54 -16.5t-23.5 -44t-5.5 -71.5v-351q0 -69 18 -99.5t65 -30.5q34 0 50.5 16t21 42.5t4.5 70.5v73h142v-65q0 -117 -49 -181.5
t-170 -64.5q-126 0 -178.5 70.5z" />
    <glyph glyph-name="D" unicode="D" horiz-adv-x="557" 
d="M61 810h191q98 0 154 -26.5t79.5 -81t23.5 -144.5v-295q0 -92 -23.5 -149t-78.5 -85.5t-149 -28.5h-197v810zM254 103q49 0 71 17t28 47.5t6 90.5v310q0 54 -7 82t-29.5 41.5t-70.5 13.5h-44v-602h46z" />
    <glyph glyph-name="E" unicode="E" horiz-adv-x="428" 
d="M61 810h340v-104h-193v-233h152v-103h-152v-269h195v-101h-342v810z" />
    <glyph glyph-name="F" unicode="F" horiz-adv-x="413" 
d="M61 810h333v-102h-186v-236h152v-103h-152v-369h-147v810z" />
    <glyph glyph-name="G" unicode="G" horiz-adv-x="559" 
d="M98.5 60.5q-50.5 71.5 -50.5 206.5v272q0 139 52 209.5t179 70.5q120 0 172 -59.5t52 -176.5v-42h-141v46q0 44 -5.5 70t-23 40t-52.5 14q-37 0 -55 -18t-23.5 -46t-5.5 -73v-339q0 -69 18.5 -103t69.5 -34q50 0 69.5 36t19.5 108v76h-87v93h220v-411h-96l-10 79
q-38 -90 -137 -90q-115 0 -165.5 71.5z" />
    <glyph glyph-name="H" unicode="H" horiz-adv-x="586" 
d="M63 810h147v-338h165v338h148v-810h-148v366h-165v-366h-147v810z" />
    <glyph glyph-name="I" unicode="I" horiz-adv-x="275" 
d="M65 810h146v-810h-146v810z" />
    <glyph glyph-name="J" unicode="J" horiz-adv-x="326" 
d="M10 84q45 0 67 7.5t31 29t9 64.5v625h147v-629q0 -71 -16 -114.5t-56 -65t-111 -21.5h-71v104z" />
    <glyph glyph-name="K" unicode="K" horiz-adv-x="532" 
d="M61 810h147v-356l161 356h141l-155 -361l171 -449h-147l-135 368l-36 -61v-307h-147v810z" />
    <glyph glyph-name="L" unicode="L" horiz-adv-x="421" 
d="M61 810h147v-709h197v-101h-344v810z" />
    <glyph glyph-name="M" unicode="M" horiz-adv-x="683" 
d="M73 810h153l115 -561l119 561h149l15 -810h-110l-12 563l-115 -563h-89l-117 565l-11 -565h-111z" />
    <glyph glyph-name="N" unicode="N" horiz-adv-x="545" 
d="M61 810h103l197 -462v462h122v-810h-98l-198 484v-484h-126v810z" />
    <glyph glyph-name="O" unicode="O" horiz-adv-x="563" 
d="M102 56.5q-54 67.5 -54 197.5v304q0 129 54 195t180 66q125 0 179 -66t54 -195v-304q0 -129 -54.5 -197t-178.5 -68q-126 0 -180 67.5zM348 129q17 31 17 90v373q0 59 -16.5 89t-66.5 30t-67 -30.5t-17 -88.5v-373q0 -59 17 -90t67 -31q49 0 66 31z" />
    <glyph glyph-name="P" unicode="P" horiz-adv-x="527" 
d="M61 810h238q207 0 207 -230q0 -220 -217 -220h-81v-360h-147v810zM265 464q60 0 81 25.5t21 91.5q0 48 -7 73.5t-28.5 38.5t-66.5 13h-57v-242h57z" />
    <glyph glyph-name="Q" unicode="Q" horiz-adv-x="564" 
d="M375 -101q-45 44 -76 91q-5 -1 -17 -1q-126 0 -180 67.5t-54 197.5v304q0 129 54 195t180 66q125 0 179 -66t54 -195v-304q0 -187 -112 -240q47 -57 81 -78l-28 -98q-36 17 -81 61zM349 129.5q17 31.5 17 89.5v373q0 58 -17 88.5t-67 30.5t-67 -30t-17 -89v-373
q0 -59 17 -90t67 -31t67 31.5z" />
    <glyph glyph-name="R" unicode="R" horiz-adv-x="561" 
d="M61 810h195q128 0 191 -48.5t63 -166.5q0 -77 -22.5 -125.5t-77.5 -70.5l113 -399h-148l-97 371h-70v-371h-147v810zM255 463q63 0 89.5 29t26.5 95q0 64 -23.5 93t-84.5 29h-55v-246h47z" />
    <glyph glyph-name="S" unicode="S" horiz-adv-x="494" 
d="M100.5 51q-54.5 62 -59.5 185l127 25q3 -77 24.5 -117.5t67.5 -40.5q34 0 50.5 20.5t16.5 55.5q0 48 -21.5 81.5t-67.5 73.5l-102 89q-47 40 -70.5 86t-23.5 110q0 95 55.5 147.5t153.5 52.5q105 0 150.5 -59.5t52.5 -160.5l-127 -22q-3 66 -18.5 99.5t-60.5 33.5
q-32 0 -50 -21.5t-18 -54.5q0 -39 15.5 -65.5t50.5 -56.5l101 -89q57 -49 89 -105t32 -130q0 -58 -25.5 -103t-71.5 -70.5t-106 -25.5q-110 0 -164.5 62z" />
    <glyph glyph-name="T" unicode="T" horiz-adv-x="429" 
d="M142 701h-129v109h403v-109h-126v-701h-148v701z" />
    <glyph glyph-name="U" unicode="U" horiz-adv-x="566" 
d="M145 21q-50 32 -70 91t-20 150v548h144v-565q0 -70 16.5 -108t67.5 -38q52 0 68.5 38t16.5 108v565h143v-548q0 -90 -20 -149.5t-70 -91.5t-138 -32t-138 32z" />
    <glyph glyph-name="V" unicode="V" horiz-adv-x="516" 
d="M23 810h130l107 -573l101 573h133l-163 -810h-145z" />
    <glyph glyph-name="W" unicode="W" horiz-adv-x="713" 
d="M32 810h123l67 -525l84 523h100l87 -523l66 525h122l-113 -810h-120l-90 543l-89 -543h-123z" />
    <glyph glyph-name="X" unicode="X" horiz-adv-x="499" 
d="M173 430l-158 380h138l105 -252l92 252h127l-155 -408l167 -402h-137l-115 273l-100 -273h-127z" />
    <glyph glyph-name="Y" unicode="Y" horiz-adv-x="487" 
d="M174 309l-164 501h138l100 -321l94 321h135l-162 -501v-309h-141v309z" />
    <glyph glyph-name="Z" unicode="Z" horiz-adv-x="425" 
d="M34 95l217 613h-206v102h355v-76l-226 -633h227v-101h-367v95z" />
    <glyph glyph-name="bracketleft" unicode="[" horiz-adv-x="336" 
d="M57 810h236v-59h-118l-1 -876h119v-59h-236v994z" />
    <glyph glyph-name="backslash" unicode="\" horiz-adv-x="397" 
d="M36 810h90l234 -810h-90z" />
    <glyph glyph-name="bracketright" unicode="]" horiz-adv-x="317" 
d="M24 -125h118v875h-118v60h236v-994h-236v59z" />
    <glyph glyph-name="asciicircum" unicode="^" horiz-adv-x="460" 
d="M171 810h119l139 -329h-121l-78 218l-79 -218h-119z" />
    <glyph glyph-name="underscore" unicode="_" horiz-adv-x="356" 
d="M0 -55h356v-96h-356v96z" />
    <glyph glyph-name="grave" unicode="`" horiz-adv-x="293" 
d="M49 810h137l59 -200h-78z" />
    <glyph glyph-name="a" unicode="a" horiz-adv-x="452" 
d="M98.5 11q-28.5 20 -44 51.5t-15.5 65.5q0 67 31.5 110.5t78 67.5t123.5 53v50q0 40 -9.5 58.5t-36.5 18.5q-46 0 -48 -64l-2 -35l-129 5q3 100 49.5 147.5t140.5 47.5q85 0 126 -46.5t41 -131.5v-267q0 -62 10 -142h-122q-10 54 -14 83q-12 -39 -40.5 -65.5t-73.5 -26.5
q-37 0 -65.5 20zM246.5 104q15.5 12 25.5 26v162q-53 -31 -79 -59.5t-26 -71.5q0 -32 12.5 -50.5t34.5 -18.5q17 0 32.5 12z" />
    <glyph glyph-name="b" unicode="b" horiz-adv-x="477" 
d="M189 43v-43h-135v810h135v-276q55 53 118 53q70 0 99 -58t29 -135v-196q0 -93 -32.5 -150t-101.5 -57q-57 0 -112 52zM289 114q10 28 10 79v208q0 44 -11 69.5t-39 25.5q-29 0 -60 -24v-366q28 -20 60 -20q30 0 40 28z" />
    <glyph glyph-name="c" unicode="c" horiz-adv-x="441" 
d="M85 45.5q-44 54.5 -44 156.5v174q0 103 44 157t141 54q92 0 134.5 -44t42.5 -134v-48h-128v51q0 45 -10.5 62t-37.5 17q-29 0 -39.5 -21t-10.5 -77v-212q0 -54 11.5 -74t38.5 -20q28 0 38 18.5t10 59.5v62h128v-55q0 -89 -43 -135t-134 -46q-97 0 -141 54.5z" />
    <glyph glyph-name="d" unicode="d" horiz-adv-x="474" 
d="M77.5 40.5q-34.5 49.5 -34.5 156.5v177q0 98 32.5 155.5t105.5 57.5q56 0 104 -46v269h137v-810h-137v41q-48 -50 -103 -50q-70 0 -104.5 49.5zM285 104v371q-26 19 -54 19q-52 0 -52 -91v-216q0 -49 11 -75.5t41 -26.5q26 0 54 19z" />
    <glyph glyph-name="e" unicode="e" horiz-adv-x="446" 
d="M86 44.5q-45 53.5 -45 158.5v172q0 106 45.5 159t140.5 53q98 0 138.5 -55t40.5 -166v-83h-230v-114q0 -42 12.5 -61t39.5 -19q26 0 37.5 18.5t11.5 56.5v49h128v-40q0 -89 -45 -135.5t-133 -46.5q-96 0 -141 53.5zM277 350v55q0 45 -11 64.5t-39 19.5q-29 0 -40 -21
t-11 -78v-40h101z" />
    <glyph glyph-name="f" unicode="f" horiz-adv-x="304" 
d="M80 483h-62v95h62v37q0 59 10 95t41 56t91 20q33 0 74 -6v-100q-27 5 -37 5q-24 0 -34 -15t-10 -45v-47h81v-95h-81v-483h-135v483z" />
    <glyph glyph-name="g" unicode="g" horiz-adv-x="469" 
d="M76 -161.5q-54 28.5 -54 85.5q0 38 24 66.5t63 46.5q-33 10 -50.5 29.5t-17.5 47.5q0 32 15.5 56t48.5 53q-31 25 -46.5 63.5t-15.5 97.5q0 99 47.5 151t138.5 52q88 0 128 -54q9 14 29 31t45 29l19 8l32 -73q-18 -5 -49 -17.5t-45 -21.5q9 -20 15 -50t6 -57
q0 -95 -44 -147.5t-136 -52.5q-40 0 -78 12q-17 -25 -17 -40q0 -12 12 -18.5t40 -9.5l121 -12q140 -15 140 -146q0 -79 -54.5 -118.5t-170.5 -39.5q-92 0 -146 28.5zM274 294q11 26 11 90q0 63 -11 90t-45 27t-46 -26.5t-12 -90.5q0 -60 12 -88t46 -28t45 26zM321.5 -76.5
q27.5 11.5 27.5 39.5q0 24 -17.5 35.5t-65.5 16.5l-99 9q-19 -16 -29 -30.5t-10 -32.5q0 -25 25 -37t84 -12q57 0 84.5 11.5z" />
    <glyph glyph-name="h" unicode="h" horiz-adv-x="478" 
d="M54 810h136v-288q65 65 143 65q49 0 72.5 -36t23.5 -91v-460h-135v433q0 28 -8.5 41t-30.5 13q-27 0 -65 -29v-458h-136v810z" />
    <glyph glyph-name="i" unicode="i" horiz-adv-x="248" 
d="M56 783h136v-113h-136v113zM56 578h136v-578h-136v578z" />
    <glyph glyph-name="j" unicode="j" horiz-adv-x="254" 
d="M66 783h137v-113h-137v113zM-14 -153v97q24 -3 29 -3q52 0 52 59v578h135v-594q0 -69 -37.5 -108.5t-106.5 -39.5q-43 0 -72 11z" />
    <glyph glyph-name="k" unicode="k" horiz-adv-x="487" 
d="M54 811h135v-466l148 233h149l-145 -232l142 -346h-143l-105 285l-46 -64v-220h-135v810z" />
    <glyph glyph-name="l" unicode="l" horiz-adv-x="252" 
d="M61 810h135v-810h-135v810z" />
    <glyph glyph-name="m" unicode="m" horiz-adv-x="718" 
d="M52 578h131v-51q58 61 136 61q35 0 60 -17.5t37 -52.5q60 70 146 70q48 0 77.5 -35t29.5 -101v-452h-130v439q0 32 -10.5 45t-31.5 13q-16 0 -35.5 -9t-35.5 -25v-11v-452h-129v439q0 32 -11 45t-32 13q-16 0 -35 -9t-36 -25v-463h-131v578z" />
    <glyph glyph-name="n" unicode="n" horiz-adv-x="474" 
d="M52 578h136v-57q69 66 140 66q49 0 73.5 -36t24.5 -91v-460h-136v433q0 28 -8.5 41t-30.5 13q-24 0 -63 -28v-459h-136v578z" />
    <glyph glyph-name="o" unicode="o" horiz-adv-x="455" 
d="M88 42.5q-46 51.5 -46 149.5v194q0 98 46 149.5t139 51.5t139.5 -51.5t46.5 -149.5v-194q0 -98 -46.5 -149.5t-139.5 -51.5t-139 51.5zM269 109.5q10 24.5 10 72.5v213q0 48 -10 73t-41 25q-32 0 -42 -25t-10 -73v-213q0 -48 10 -72.5t42 -24.5q31 0 41 24.5z" />
    <glyph glyph-name="p" unicode="p" horiz-adv-x="476" 
d="M52 578h136v-44q55 53 118 53q70 0 99 -58t29 -135v-196q0 -93 -32.5 -150t-102.5 -57q-56 0 -111 52v-233h-136v768zM287.5 114q10.5 28 10.5 79v208q0 45 -11 70t-40 25q-30 0 -59 -25v-365q28 -20 60 -20q29 0 39.5 28z" />
    <glyph glyph-name="q" unicode="q" horiz-adv-x="475" 
d="M287 43q-50 -52 -105 -52q-70 0 -104.5 49.5t-34.5 156.5v177q0 97 32.5 155t105.5 58q57 0 106 -47v38h136v-768h-136v233zM287 104v371q-30 19 -55 19q-53 0 -53 -91v-216q0 -49 11.5 -75.5t41.5 -26.5q25 0 55 19z" />
    <glyph glyph-name="r" unicode="r" horiz-adv-x="353" 
d="M55 578h136v-89q29 51 59 73.5t67 22.5q13 0 21 -2v-141q-32 12 -56 12q-54 0 -91 -56v-398h-136v578z" />
    <glyph glyph-name="s" unicode="s" horiz-adv-x="400" 
d="M89 30q-47 39 -67 114l101 39q23 -97 84 -97q23 0 35.5 12t12.5 33q0 23 -14 42.5t-50 49.5l-69 60q-44 36 -65 70t-21 83q0 68 46.5 109.5t117.5 41.5q68 0 111 -40.5t56 -109.5l-89 -38q-8 40 -26.5 65.5t-47.5 25.5q-21 0 -33.5 -13t-12.5 -33q0 -16 14 -34t42 -42
l70 -64q45 -39 69.5 -74.5t24.5 -85.5q0 -73 -47.5 -113t-121.5 -40q-73 0 -120 39z" />
    <glyph glyph-name="t" unicode="t" horiz-adv-x="332" 
d="M107.5 31q-32.5 38 -32.5 113v345h-58v89h58v173h137v-173h87v-89h-87v-333q0 -29 12.5 -42t39.5 -13q25 0 42 4v-105q-40 -7 -87 -7q-79 0 -111.5 38z" />
    <glyph glyph-name="u" unicode="u" horiz-adv-x="473" 
d="M72 27q-24 36 -24 91v460h135v-435q0 -27 9 -41t31 -14q23 0 61 27v463h136v-578h-136v55q-67 -64 -139 -64q-49 0 -73 36z" />
    <glyph glyph-name="v" unicode="v" horiz-adv-x="404" 
d="M13 578h132l59 -415l58 415h131l-115 -578h-151z" />
    <glyph glyph-name="w" unicode="w" horiz-adv-x="593" 
d="M24 578h113l51 -376l61 376h100l57 -378l54 378h108l-91 -578h-115l-64 365l-67 -365h-118z" />
    <glyph glyph-name="x" unicode="x" horiz-adv-x="417" 
d="M136 311l-121 267h133l74 -160l64 160h116l-123 -286l132 -292h-134l-81 177l-68 -177h-118z" />
    <glyph glyph-name="y" unicode="y" horiz-adv-x="421" 
d="M56 -59q54 0 76.5 9.5t22.5 36.5q0 18 -21 102l-127 489h132l75 -382l65 382h131l-135 -601q-17 -73 -64.5 -103.5t-128.5 -30.5h-26v98z" />
    <glyph glyph-name="z" unicode="z" horiz-adv-x="370" 
d="M34 89l167 389h-153v100h296v-79l-168 -398h168v-101h-310v89z" />
    <glyph glyph-name="braceleft" unicode="{" horiz-adv-x="338" 
d="M173 -175q-42 17 -54.5 58t-12.5 133v109q0 67 -4 95t-16.5 37.5t-41.5 9.5v96q29 0 41.5 9.5t16.5 38t4 95.5v108q0 92 12.5 133.5t54.5 58.5t138 17v-95q-36 0 -50.5 -8t-19 -30.5t-4.5 -79.5v-122q0 -81 -17.5 -122t-58.5 -51q41 -10 58.5 -50.5t17.5 -121.5v-123
q0 -57 4.5 -79.5t19 -30.5t50.5 -8v-94q-96 0 -138 17z" />
    <glyph glyph-name="bar" unicode="|" horiz-adv-x="251" 
d="M67 810h117v-974h-117v974z" />
    <glyph glyph-name="braceright" unicode="}" horiz-adv-x="351" 
d="M40 -98q36 0 50.5 8t19 30.5t4.5 79.5v123q0 81 17.5 121.5t59.5 50.5q-41 10 -59 51t-18 122v122q0 57 -4.5 79.5t-19 30.5t-50.5 8v95q96 0 138.5 -17t55 -58.5t12.5 -133.5v-108q0 -68 4 -96t16 -37.5t41 -9.5v-96q-29 0 -41 -9.5t-16 -37.5t-4 -95v-109
q0 -92 -12.5 -133t-55 -58t-138.5 -17v94z" />
    <glyph glyph-name="asciitilde" unicode="~" horiz-adv-x="465" 
d="M274.5 354.5q-19.5 7.5 -52.5 24.5q-29 14 -43 20t-26 6q-13 0 -33 -12t-37 -31l-45 60q22 31 56.5 57t61.5 26q19 0 39.5 -8t49.5 -23q24 -13 39.5 -19.5t28.5 -6.5q24 0 70 44l47 -54q-20 -34 -54.5 -62.5t-63.5 -28.5q-18 0 -37.5 7.5z" />
    <glyph glyph-name="uni00A0" unicode="&#xa0;" horiz-adv-x="243" 
 />
    <glyph glyph-name="exclamdown" unicode="&#xa1;" horiz-adv-x="223" 
d="M49 642h132v-131h-132v131zM91 452h47l41 -618h-136z" />
    <glyph glyph-name="cent" unicode="&#xa2;" horiz-adv-x="424" 
d="M196 -8q-156 15 -156 210v174q0 194 156 210v97h38v-96q88 -2 128 -46t40 -132v-48h-128v49q0 45 -11 62t-37 17q-29 0 -39.5 -21t-10.5 -77v-208q0 -54 11.5 -74t38.5 -20q28 0 38 18.5t10 59.5v60h128v-55q0 -87 -40.5 -133t-127.5 -48v-97h-38v98z" />
    <glyph glyph-name="sterling" unicode="&#xa3;" horiz-adv-x="446" 
d="M12 74l59 26v237h-59v104h59v92q0 91 12.5 151.5t52.5 97.5t118 37q91 0 127 -51.5t37 -145.5v-29h-112q0 55 -10 84t-41 29q-32 0 -41 -32t-11 -99v-134h120v-104h-120v-227h212v-110h-403v74z" />
    <glyph glyph-name="currency" unicode="&#xa4;" horiz-adv-x="552" 
d="M39 201l80 79q-26 28 -40.5 65t-14.5 78q0 40 14.5 77t40.5 66l-80 79l15 15l79 -79q28 27 65 41.5t78 14.5t78 -14.5t65 -41.5l79 79l15 -15l-79 -79q25 -29 39 -65.5t14 -77.5t-14 -78t-40 -65l80 -79l-15 -15l-79 79q-29 -27 -65.5 -42t-77.5 -14q-41 -1 -77.5 14
t-65.5 42l-79 -79zM360 276q38 23 59.5 62t21.5 85t-21.5 85t-59.5 62t-84 23q-45 0 -82.5 -23t-59.5 -62t-22 -85t22 -85t59.5 -62t82.5 -23q46 0 84 23z" />
    <glyph glyph-name="yen" unicode="&#xa5;" horiz-adv-x="466" 
d="M169 117h-86v76h86v65h-86v77h71l-149 475h138l99 -350l95 350h136l-147 -475h70v-77h-86v-65h86v-76h-86v-117h-141v117z" />
    <glyph glyph-name="brokenbar" unicode="&#xa6;" horiz-adv-x="214" 
d="M57 810h100v-409h-100v409zM57 241h100v-408h-100v408z" />
    <glyph glyph-name="section" unicode="&#xa7;" horiz-adv-x="451" 
d="M107 37q-44 44 -62 115l95 27q12 -34 33.5 -59.5t52.5 -25.5q28 0 45 14.5t17 40.5q0 24 -13.5 43.5t-47.5 41.5l-102 65q-38 24 -59 53.5t-21 71.5q0 47 24.5 80.5t61.5 47.5q-36 22 -61.5 57t-25.5 75q0 66 51 105t129 39q73 0 118.5 -44t62.5 -115l-94 -27
q-13 38 -32 62t-51 24q-27 0 -42.5 -14t-15.5 -39q0 -22 14 -37t36 -29l101 -65q38 -24 59.5 -58.5t21.5 -76.5q0 -81 -76 -125q38 -31 57.5 -62t19.5 -72q0 -73 -48 -115t-131 -42q-73 0 -117 44zM280 366.5q13 14.5 13 33.5q0 15 -8 30t-26 27l-52 34q-20 -8 -33 -24.5
t-13 -36.5q0 -13 7 -25.5t18 -19.5l63 -41q18 8 31 22.5z" />
    <glyph glyph-name="dieresis" unicode="&#xa8;" horiz-adv-x="413" 
d="M49 810h119v-130h-119v130zM243 810h120v-130h-120v130z" />
    <glyph glyph-name="copyright" unicode="&#xa9;" horiz-adv-x="873" 
d="M211.5 48.5q-90.5 60.5 -133 156.5t-42.5 204t42.5 204t133 156.5t225.5 60.5t225 -60.5t132.5 -156.5t42.5 -204t-42.5 -204t-132.5 -156.5t-225 -60.5t-225.5 60.5zM635 83q79 53 117.5 139.5t38.5 186.5t-38.5 186t-117.5 138.5t-196 52.5t-196.5 -52.5t-118 -138.5
t-38.5 -186t38.5 -186.5t118 -139.5t196.5 -53t196 53zM283 179q-48 55 -48 158v152q0 106 48 160t154 54q101 0 147.5 -44t46.5 -134v-43h-139v43q0 46 -12.5 63.5t-41.5 17.5q-32 0 -44.5 -21.5t-12.5 -78.5v-188q0 -56 13 -76.5t44 -20.5t42.5 19.5t11.5 60.5v49h139v-44
q0 -182 -194 -182q-106 0 -154 55z" />
    <glyph glyph-name="ordfeminine" unicode="&#xaa;" horiz-adv-x="463" 
d="M95.5 349.5q-29.5 32.5 -29.5 82.5q0 52 29 85.5t70.5 52.5t111.5 42v54q0 64 -36 64q-23 0 -32.5 -19.5t-11.5 -60.5l-115 2q1 81 44.5 125.5t121.5 44.5q80 0 115 -45.5t35 -130.5v-322h-108l-5 66q-15 -32 -43.5 -52.5t-67.5 -20.5q-49 0 -78.5 32.5zM254 416
q14 10 23 26v121q-42 -19 -67.5 -47t-25.5 -60q0 -24 11.5 -37t29.5 -13q15 0 29 10z" />
    <glyph glyph-name="guillemotleft" unicode="&#xab;" horiz-adv-x="472" 
d="M34 270v54l180 231v-145l-92 -113l92 -113v-145zM239 270v54l182 231v-145l-93 -113l93 -113v-145z" />
    <glyph glyph-name="logicalnot" unicode="&#xac;" horiz-adv-x="445" 
d="M339 365h-296v96h364v-231h-68v135z" />
    <glyph glyph-name="uni00AD" unicode="&#xad;" horiz-adv-x="358" 
d="M62 453h240v-93h-240v93z" />
    <glyph glyph-name="registered" unicode="&#xae;" horiz-adv-x="889" 
d="M221.5 47q-89.5 60 -132 155.5t-42.5 202.5t42.5 202.5t132 155.5t223.5 60t223 -60t131.5 -155.5t42.5 -202.5q0 -108 -42 -203t-131.5 -155t-223.5 -60t-223.5 60zM632.5 89.5q76.5 51.5 113.5 135t37 180.5t-37 179.5t-113 133.5t-189 51t-189 -51t-113 -133.5
t-37 -179.5t37 -180.5t113.5 -135t188.5 -51.5t188.5 51.5zM284 667h162q89 0 132.5 -35t43.5 -111q0 -48 -19 -78.5t-59 -48.5l91 -246h-118l-76 224h-44v-224h-113v519zM424 430q50 0 69 20.5t19 66.5q0 39 -17 59.5t-55 20.5h-43v-167h27z" />
    <glyph glyph-name="macron" unicode="&#xaf;" horiz-adv-x="327" 
d="M52 810h224v-71h-224v71z" />
    <glyph glyph-name="degree" unicode="&#xb0;" horiz-adv-x="498" 
d="M114 501.5q-50 49.5 -50 134.5q0 84 50 133.5t134 49.5q85 0 136 -49.5t51 -133.5t-51 -134t-136 -50q-84 0 -134 49.5zM316.5 560.5q24.5 28.5 24.5 75.5t-24.5 75t-68.5 28t-68.5 -28t-24.5 -75t25 -75.5t68 -28.5q44 0 68.5 28.5z" />
    <glyph glyph-name="plusminus" unicode="&#xb1;" horiz-adv-x="427" 
d="M168 290h-107v88h107v109h92v-109h107v-88h-107v-110h-92v110zM61 91h306v-91h-306v91z" />
    <glyph glyph-name="uni00B2" unicode="&#xb2;" horiz-adv-x="449" 
d="M79 504l120 125q46 48 63 75t17 54q0 26 -12 39.5t-35 13.5q-30 0 -42.5 -22t-12.5 -67h-99v15q0 72 38 116.5t118 44.5q68 0 107 -37t39 -102q0 -48 -21 -84.5t-71 -86.5l-70 -71h166v-84h-305v71z" />
    <glyph glyph-name="uni00B3" unicode="&#xb3;" horiz-adv-x="451" 
d="M79 559v16h99v-4q0 -31 13 -46t40 -15q47 0 47 56q0 31 -13 46t-45 15h-26v70h23q30 0 43.5 14.5t13.5 44.5q0 55 -46 55q-50 0 -50 -61v-4h-99v16q0 66 39.5 101t110.5 35q68 0 107 -31.5t39 -91.5q0 -42 -18.5 -70.5t-47.5 -38.5q70 -23 70 -110q0 -64 -40 -98.5
t-110 -34.5q-150 0 -150 136z" />
    <glyph glyph-name="acute" unicode="&#xb4;" horiz-adv-x="293" 
d="M115 810h138l-119 -200h-79z" />
    <glyph glyph-name="uni00B5" unicode="&#xb5;" horiz-adv-x="467" 
d="M46 578h135v-433q0 -27 8.5 -40.5t30.5 -13.5q26 0 61 27v460h136v-578h-136v51q-33 -34 -72 -48q-15 -5 -26 -5v-179h-137v759z" />
    <glyph glyph-name="paragraph" unicode="&#xb6;" horiz-adv-x="507" 
d="M193 502q-72 1 -115.5 41t-43.5 113q0 80 51 117t138 37h218v-906h-83v833h-79v-833h-86v598z" />
    <glyph glyph-name="periodcentered" unicode="&#xb7;" horiz-adv-x="202" 
d="M36 442h132v-131h-132v131z" />
    <glyph glyph-name="cedilla" unicode="&#xb8;" horiz-adv-x="352" 
d="M72 -246v63q24 -8 54 -8q61 0 61 37q0 45 -88 54v100h57v-61q57 0 90.5 -24.5t33.5 -70.5q0 -50 -38.5 -75.5t-97.5 -25.5q-34 0 -72 11z" />
    <glyph glyph-name="uni00B9" unicode="&#xb9;" horiz-adv-x="359" 
d="M164 770l-92 -36v88l131 66h62v-455h-101v337z" />
    <glyph glyph-name="ordmasculine" unicode="&#xba;" horiz-adv-x="463" 
d="M109 360.5q-41 44.5 -41 126.5v164q0 83 41 127t123 44q79 0 121.5 -45.5t42.5 -125.5v-164q0 -80 -42.5 -125.5t-121.5 -45.5q-82 0 -123 44.5zM271.5 427.5q10.5 22.5 10.5 65.5v152q0 44 -10.5 66t-40.5 22t-41 -22.5t-11 -65.5v-152q0 -42 11 -65t41 -23t40.5 22.5z
" />
    <glyph glyph-name="guillemotright" unicode="&#xbb;" horiz-adv-x="488" 
d="M51 184l97 113l-97 113v145l186 -231v-54l-186 -231v145zM257 184l97 113l-97 113v145l185 -231v-54l-185 -231v145z" />
    <glyph glyph-name="onequarter" unicode="&#xbc;" horiz-adv-x="897" 
d="M154 692l-92 -36v88l131 66h62v-455h-101v337zM571 810h94l-379 -810h-94zM652 104h-174v67l193 284h82v-282h44v-69h-44v-104h-101v104zM652 173l-1 139l-92 -139h93z" />
    <glyph glyph-name="onehalf" unicode="&#xbd;" horiz-adv-x="919" 
d="M133 692l-92 -36v88l131 66h62v-455h-101v337zM550 810h94l-379 -810h-94zM541 71l120 125q46 48 63 75t17 54q0 26 -12 39.5t-35 13.5q-30 0 -42.5 -22t-12.5 -67h-99v15q0 72 38 116.5t118 44.5q68 0 107 -37t39 -102q0 -48 -21 -84.5t-71 -86.5l-70 -71h166v-84h-305
v71z" />
    <glyph glyph-name="threequarters" unicode="&#xbe;" horiz-adv-x="899" 
d="M60 480v16h99v-4q0 -31 13 -46t40 -15q47 0 47 56q0 31 -13 46t-45 15h-26v70h23q30 0 43.5 14.5t13.5 44.5q0 55 -46 55q-50 0 -50 -61v-4h-99v16q0 66 39.5 101t110.5 35q68 0 107 -31.5t39 -91.5q0 -42 -18.5 -70.5t-47.5 -38.5q70 -23 70 -110q0 -64 -40 -98.5
t-110 -34.5q-150 0 -150 136zM633 810h94l-379 -810h-94zM713 104h-174v67l193 284h82v-282h44v-69h-44v-104h-101v104zM713 173l-1 139l-92 -139h93z" />
    <glyph glyph-name="questiondown" unicode="&#xbf;" horiz-adv-x="485" 
d="M345 300q-79 -65 -124 -133.5t-45 -144.5q0 -42 19 -65.5t55 -23.5q32 0 50 18t18 49q0 25 -9 52l124 27q14 -40 14 -79q0 -85 -52 -134.5t-147 -49.5q-98 0 -152 53.5t-54 150.5q0 91 46.5 165t134.5 144v98h122v-127zM350 502h-134v133h134v-133z" />
    <glyph glyph-name="Agrave" unicode="&#xc0;" horiz-adv-x="522" 
d="M182 810h158l162 -810h-137l-32 187h-141l-33 -187h-139zM317 281l-55 340l-55 -340h110zM106 1066h138l59 -200h-78z" />
    <glyph glyph-name="Aacute" unicode="&#xc1;" horiz-adv-x="522" 
d="M182 810h158l162 -810h-137l-32 187h-141l-33 -187h-139zM317 281l-55 340l-55 -340h110zM281 1066h138l-119 -200h-79z" />
    <glyph glyph-name="Acircumflex" unicode="&#xc2;" horiz-adv-x="522" 
d="M182 810h158l162 -810h-137l-32 187h-141l-33 -187h-139zM317 281l-55 340l-55 -340h110zM200 1058h122l92 -184h-101l-52 120l-51 -120h-100z" />
    <glyph glyph-name="Atilde" unicode="&#xc3;" horiz-adv-x="522" 
d="M182 810h158l162 -810h-137l-32 187h-141l-33 -187h-139zM317 281l-55 340l-55 -340h110zM305 922.5q-16 6.5 -36 19.5q-18 10 -30.5 15.5t-25.5 5.5q-19 0 -27 -10.5t-8 -30.5h-70q0 126 85 126q17 0 31.5 -6t35.5 -18q20 -11 32 -16.5t26 -5.5q32 0 32 40h66
q0 -57 -16 -91.5t-60 -34.5q-19 0 -35 6.5z" />
    <glyph glyph-name="Adieresis" unicode="&#xc4;" horiz-adv-x="522" 
d="M182 810h158l162 -810h-137l-32 187h-141l-33 -187h-139zM317 281l-55 340l-55 -340h110zM104 1042h120v-130h-120v130zM300 1042h120v-130h-120v130z" />
    <glyph glyph-name="Aring" unicode="&#xc5;" horiz-adv-x="522" 
d="M182 810h158l162 -810h-137l-32 187h-141l-33 -187h-139zM317 281l-55 340l-55 -340h110zM180 871q-32 30 -32 81t32 80.5t82 29.5t82 -29.5t32 -80.5t-32 -81t-82 -30t-82 30zM300.5 912.5q14.5 15.5 14.5 39.5q0 25 -14 40t-39 15t-39.5 -15t-14.5 -40
q0 -24 14.5 -39.5t39.5 -15.5q24 0 38.5 15.5z" />
    <glyph glyph-name="AE" unicode="&#xc6;" horiz-adv-x="673" 
d="M316 804h332v-103h-187v-230h134v-104h-134v-265h187v-102h-318v187h-139l-78 -187h-144zM330 284v284l-106 -284h106z" />
    <glyph glyph-name="Ccedilla" unicode="&#xc7;" horiz-adv-x="540" 
d="M100.5 59.5q-52.5 70.5 -52.5 199.5v289q0 133 52 202t179 69q119 0 169 -60t50 -173v-68h-142v70q0 43 -4 67.5t-20.5 40t-51.5 15.5q-36 0 -54 -16.5t-23.5 -44t-5.5 -71.5v-351q0 -69 18 -99.5t65 -30.5q34 0 50.5 16t21 42.5t4.5 70.5v73h142v-65q0 -117 -49 -181.5
t-170 -64.5q-126 0 -178.5 70.5zM215 -246v63q24 -8 54 -8q61 0 61 37q0 45 -88 54v100h57v-61q57 0 90.5 -24.5t33.5 -70.5q0 -50 -38.5 -75.5t-97.5 -25.5q-34 0 -72 11z" />
    <glyph glyph-name="Egrave" unicode="&#xc8;" horiz-adv-x="428" 
d="M61 810h340v-104h-193v-233h152v-103h-152v-269h195v-101h-342v810zM78 1066h138l59 -200h-78z" />
    <glyph glyph-name="Eacute" unicode="&#xc9;" horiz-adv-x="428" 
d="M61 810h340v-104h-193v-233h152v-103h-152v-269h195v-101h-342v810zM253 1066h138l-119 -200h-79z" />
    <glyph glyph-name="Ecircumflex" unicode="&#xca;" horiz-adv-x="428" 
d="M61 810h340v-104h-193v-233h152v-103h-152v-269h195v-101h-342v810zM172 1058h122l92 -184h-101l-52 120l-51 -120h-100z" />
    <glyph glyph-name="Edieresis" unicode="&#xcb;" horiz-adv-x="428" 
d="M61 810h340v-104h-193v-233h152v-103h-152v-269h195v-101h-342v810zM76 1042h120v-130h-120v130zM272 1042h120v-130h-120v130z" />
    <glyph glyph-name="Igrave" unicode="&#xcc;" horiz-adv-x="275" 
d="M65 810h146v-810h-146v810zM-18 1066h138l59 -200h-78z" />
    <glyph glyph-name="Iacute" unicode="&#xcd;" horiz-adv-x="275" 
d="M65 810h146v-810h-146v810zM157 1066h138l-119 -200h-79z" />
    <glyph glyph-name="Icircumflex" unicode="&#xce;" horiz-adv-x="275" 
d="M65 810h146v-810h-146v810zM76 1058h122l92 -184h-101l-52 120l-51 -120h-100z" />
    <glyph glyph-name="Idieresis" unicode="&#xcf;" horiz-adv-x="275" 
d="M65 810h146v-810h-146v810zM-20 1042h120v-130h-120v130zM176 1042h120v-130h-120v130z" />
    <glyph glyph-name="Eth" unicode="&#xd0;" horiz-adv-x="541" 
d="M57 379h-47v77h47v354h191q98 0 154 -26.5t79.5 -81t23.5 -144.5v-295q0 -92 -23.5 -149t-78.5 -85.5t-149 -28.5h-197v379zM250 103q49 0 71 17t28 47.5t6 90.5v310q0 54 -7 82t-29.5 41.5t-70.5 13.5h-44v-249h51v-77h-51v-276h46z" />
    <glyph glyph-name="Ntilde" unicode="&#xd1;" horiz-adv-x="545" 
d="M61 810h103l197 -462v462h122v-810h-98l-198 484v-484h-126v810zM315 922.5q-16 6.5 -36 19.5q-18 10 -30.5 15.5t-25.5 5.5q-19 0 -27 -10.5t-8 -30.5h-70q0 126 85 126q17 0 31.5 -6t35.5 -18q20 -11 32 -16.5t26 -5.5q32 0 32 40h66q0 -57 -16 -91.5t-60 -34.5
q-19 0 -35 6.5z" />
    <glyph glyph-name="Ograve" unicode="&#xd2;" horiz-adv-x="563" 
d="M102 56.5q-54 67.5 -54 197.5v304q0 129 54 195t180 66q125 0 179 -66t54 -195v-304q0 -129 -54.5 -197t-178.5 -68q-126 0 -180 67.5zM348 129q17 31 17 90v373q0 59 -16.5 89t-66.5 30t-67 -30.5t-17 -88.5v-373q0 -59 17 -90t67 -31q49 0 66 31zM126 1066h138l59 -200
h-78z" />
    <glyph glyph-name="Oacute" unicode="&#xd3;" horiz-adv-x="563" 
d="M102 56.5q-54 67.5 -54 197.5v304q0 129 54 195t180 66q125 0 179 -66t54 -195v-304q0 -129 -54.5 -197t-178.5 -68q-126 0 -180 67.5zM348 129q17 31 17 90v373q0 59 -16.5 89t-66.5 30t-67 -30.5t-17 -88.5v-373q0 -59 17 -90t67 -31q49 0 66 31zM301 1066h138
l-119 -200h-79z" />
    <glyph glyph-name="Ocircumflex" unicode="&#xd4;" horiz-adv-x="563" 
d="M102 56.5q-54 67.5 -54 197.5v304q0 129 54 195t180 66q125 0 179 -66t54 -195v-304q0 -129 -54.5 -197t-178.5 -68q-126 0 -180 67.5zM348 129q17 31 17 90v373q0 59 -16.5 89t-66.5 30t-67 -30.5t-17 -88.5v-373q0 -59 17 -90t67 -31q49 0 66 31zM220 1058h122l92 -184
h-101l-52 120l-51 -120h-100z" />
    <glyph glyph-name="Otilde" unicode="&#xd5;" horiz-adv-x="563" 
d="M102 56.5q-54 67.5 -54 197.5v304q0 129 54 195t180 66q125 0 179 -66t54 -195v-304q0 -129 -54.5 -197t-178.5 -68q-126 0 -180 67.5zM348 129q17 31 17 90v373q0 59 -16.5 89t-66.5 30t-67 -30.5t-17 -88.5v-373q0 -59 17 -90t67 -31q49 0 66 31zM325 922.5
q-16 6.5 -36 19.5q-18 10 -30.5 15.5t-25.5 5.5q-19 0 -27 -10.5t-8 -30.5h-70q0 126 85 126q17 0 31.5 -6t35.5 -18q20 -11 32 -16.5t26 -5.5q32 0 32 40h66q0 -57 -16 -91.5t-60 -34.5q-19 0 -35 6.5z" />
    <glyph glyph-name="Odieresis" unicode="&#xd6;" horiz-adv-x="563" 
d="M102 56.5q-54 67.5 -54 197.5v304q0 129 54 195t180 66q125 0 179 -66t54 -195v-304q0 -129 -54.5 -197t-178.5 -68q-126 0 -180 67.5zM348 129q17 31 17 90v373q0 59 -16.5 89t-66.5 30t-67 -30.5t-17 -88.5v-373q0 -59 17 -90t67 -31q49 0 66 31zM124 1042h120v-130
h-120v130zM320 1042h120v-130h-120v130z" />
    <glyph glyph-name="multiply" unicode="&#xd7;" horiz-adv-x="436" 
d="M52 304l102 103l-102 102l64 65l102 -103l102 103l65 -64l-103 -103l103 -103l-64 -64l-103 103l-102 -103z" />
    <glyph glyph-name="Oslash" unicode="&#xd8;" horiz-adv-x="556" 
d="M492.5 700q22.5 -57 22.5 -142v-304q0 -129 -54.5 -197t-178.5 -68q-66 0 -114 20l-29 -91l-39 14l31 97q-44 32 -63.5 88.5t-19.5 136.5v304q0 129 54 195t180 66q56 0 100 -14l25 77l40 -12l-27 -83q50 -30 72.5 -87zM198 235l146 452q-21 24 -62 24q-50 0 -67 -30.5
t-17 -88.5v-357zM365 592q0 16 -1 23l-154 -477q19 -40 72 -40q49 0 66 31t17 90v373z" />
    <glyph glyph-name="Ugrave" unicode="&#xd9;" horiz-adv-x="566" 
d="M145 21q-50 32 -70 91t-20 150v548h144v-565q0 -70 16.5 -108t67.5 -38q52 0 68.5 38t16.5 108v565h143v-548q0 -90 -20 -149.5t-70 -91.5t-138 -32t-138 32zM128 1066h138l59 -200h-78z" />
    <glyph glyph-name="Uacute" unicode="&#xda;" horiz-adv-x="566" 
d="M145 21q-50 32 -70 91t-20 150v548h144v-565q0 -70 16.5 -108t67.5 -38q52 0 68.5 38t16.5 108v565h143v-548q0 -90 -20 -149.5t-70 -91.5t-138 -32t-138 32zM303 1066h138l-119 -200h-79z" />
    <glyph glyph-name="Ucircumflex" unicode="&#xdb;" horiz-adv-x="566" 
d="M145 21q-50 32 -70 91t-20 150v548h144v-565q0 -70 16.5 -108t67.5 -38q52 0 68.5 38t16.5 108v565h143v-548q0 -90 -20 -149.5t-70 -91.5t-138 -32t-138 32zM222 1058h122l92 -184h-101l-52 120l-51 -120h-100z" />
    <glyph glyph-name="Udieresis" unicode="&#xdc;" horiz-adv-x="566" 
d="M145 21q-50 32 -70 91t-20 150v548h144v-565q0 -70 16.5 -108t67.5 -38q52 0 68.5 38t16.5 108v565h143v-548q0 -90 -20 -149.5t-70 -91.5t-138 -32t-138 32zM126 1042h120v-130h-120v130zM322 1042h120v-130h-120v130z" />
    <glyph glyph-name="Yacute" unicode="&#xdd;" horiz-adv-x="487" 
d="M174 309l-164 501h138l100 -321l94 321h135l-162 -501v-309h-141v309zM263 1066h138l-119 -200h-79z" />
    <glyph glyph-name="Thorn" unicode="&#xde;" horiz-adv-x="533" 
d="M57 810h147v-107h97q110 0 163.5 -57.5t53.5 -172.5q0 -127 -56 -183.5t-175 -56.5h-83v-233h-147v810zM268 343q60 0 86 28t26 98q0 65 -24 93.5t-80 28.5h-72v-248h64z" />
    <glyph glyph-name="germandbls" unicode="&#xdf;" horiz-adv-x="529" 
d="M239 95q64 0 89.5 32t25.5 104q0 62 -27 97t-80 35v107q43 0 63 37t20 99q0 55 -16 84.5t-56 29.5t-55 -29t-15 -86v-605h-136v605q0 96 49 156t148 60q102 0 152.5 -55t50.5 -159q0 -65 -26.5 -109t-82.5 -69q72 -19 109 -72t37 -136q0 -118 -62 -175.5t-188 -57.5v107z
" />
    <glyph glyph-name="agrave" unicode="&#xe0;" horiz-adv-x="452" 
d="M98.5 11q-28.5 20 -44 51.5t-15.5 65.5q0 67 31.5 110.5t78 67.5t123.5 53v50q0 40 -9.5 58.5t-36.5 18.5q-46 0 -48 -64l-2 -35l-129 5q3 100 49.5 147.5t140.5 47.5q85 0 126 -46.5t41 -131.5v-267q0 -62 10 -142h-122q-10 54 -14 83q-12 -39 -40.5 -65.5t-73.5 -26.5
q-37 0 -65.5 20zM246.5 104q15.5 12 25.5 26v162q-53 -31 -79 -59.5t-26 -71.5q0 -32 12.5 -50.5t34.5 -18.5q17 0 32.5 12zM81 834h138l59 -200h-78z" />
    <glyph glyph-name="aacute" unicode="&#xe1;" horiz-adv-x="452" 
d="M98.5 11q-28.5 20 -44 51.5t-15.5 65.5q0 67 31.5 110.5t78 67.5t123.5 53v50q0 40 -9.5 58.5t-36.5 18.5q-46 0 -48 -64l-2 -35l-129 5q3 100 49.5 147.5t140.5 47.5q85 0 126 -46.5t41 -131.5v-267q0 -62 10 -142h-122q-10 54 -14 83q-12 -39 -40.5 -65.5t-73.5 -26.5
q-37 0 -65.5 20zM246.5 104q15.5 12 25.5 26v162q-53 -31 -79 -59.5t-26 -71.5q0 -32 12.5 -50.5t34.5 -18.5q17 0 32.5 12zM256 834h138l-119 -200h-79z" />
    <glyph glyph-name="acircumflex" unicode="&#xe2;" horiz-adv-x="452" 
d="M98.5 11q-28.5 20 -44 51.5t-15.5 65.5q0 67 31.5 110.5t78 67.5t123.5 53v50q0 40 -9.5 58.5t-36.5 18.5q-46 0 -48 -64l-2 -35l-129 5q3 100 49.5 147.5t140.5 47.5q85 0 126 -46.5t41 -131.5v-267q0 -62 10 -142h-122q-10 54 -14 83q-12 -39 -40.5 -65.5t-73.5 -26.5
q-37 0 -65.5 20zM246.5 104q15.5 12 25.5 26v162q-53 -31 -79 -59.5t-26 -71.5q0 -32 12.5 -50.5t34.5 -18.5q17 0 32.5 12zM175 826h122l92 -184h-101l-52 120l-51 -120h-100z" />
    <glyph glyph-name="atilde" unicode="&#xe3;" horiz-adv-x="452" 
d="M98.5 11q-28.5 20 -44 51.5t-15.5 65.5q0 67 31.5 110.5t78 67.5t123.5 53v50q0 40 -9.5 58.5t-36.5 18.5q-46 0 -48 -64l-2 -35l-129 5q3 100 49.5 147.5t140.5 47.5q85 0 126 -46.5t41 -131.5v-267q0 -62 10 -142h-122q-10 54 -14 83q-12 -39 -40.5 -65.5t-73.5 -26.5
q-37 0 -65.5 20zM246.5 104q15.5 12 25.5 26v162q-53 -31 -79 -59.5t-26 -71.5q0 -32 12.5 -50.5t34.5 -18.5q17 0 32.5 12zM280 690.5q-16 6.5 -36 19.5q-18 10 -30.5 15.5t-25.5 5.5q-19 0 -27 -10.5t-8 -30.5h-70q0 126 85 126q17 0 31.5 -6t35.5 -18q20 -11 32 -16.5
t26 -5.5q32 0 32 40h66q0 -57 -16 -91.5t-60 -34.5q-19 0 -35 6.5z" />
    <glyph glyph-name="adieresis" unicode="&#xe4;" horiz-adv-x="452" 
d="M98.5 11q-28.5 20 -44 51.5t-15.5 65.5q0 67 31.5 110.5t78 67.5t123.5 53v50q0 40 -9.5 58.5t-36.5 18.5q-46 0 -48 -64l-2 -35l-129 5q3 100 49.5 147.5t140.5 47.5q85 0 126 -46.5t41 -131.5v-267q0 -62 10 -142h-122q-10 54 -14 83q-12 -39 -40.5 -65.5t-73.5 -26.5
q-37 0 -65.5 20zM246.5 104q15.5 12 25.5 26v162q-53 -31 -79 -59.5t-26 -71.5q0 -32 12.5 -50.5t34.5 -18.5q17 0 32.5 12zM79 810h120v-130h-120v130zM275 810h120v-130h-120v130z" />
    <glyph glyph-name="aring" unicode="&#xe5;" horiz-adv-x="452" 
d="M98.5 11q-28.5 20 -44 51.5t-15.5 65.5q0 67 31.5 110.5t78 67.5t123.5 53v50q0 40 -9.5 58.5t-36.5 18.5q-46 0 -48 -64l-2 -35l-129 5q3 100 49.5 147.5t140.5 47.5q85 0 126 -46.5t41 -131.5v-267q0 -62 10 -142h-122q-10 54 -14 83q-12 -39 -40.5 -65.5t-73.5 -26.5
q-37 0 -65.5 20zM246.5 104q15.5 12 25.5 26v162q-53 -31 -79 -59.5t-26 -71.5q0 -32 12.5 -50.5t34.5 -18.5q17 0 32.5 12zM155 639q-32 30 -32 81t32 80.5t82 29.5t82 -29.5t32 -80.5t-32 -81t-82 -30t-82 30zM275.5 680.5q14.5 15.5 14.5 39.5q0 25 -14 40t-39 15
t-39.5 -15t-14.5 -40q0 -24 14.5 -39.5t39.5 -15.5q24 0 38.5 15.5z" />
    <glyph glyph-name="ae" unicode="&#xe6;" horiz-adv-x="665" 
d="M493 201h129v-35q0 -85 -40 -130.5t-119 -45.5q-56 0 -92.5 28t-45.5 78q-15 -50 -52 -78t-88 -28q-69 0 -107.5 38t-38.5 102q0 77 43.5 119t120.5 61l69 18v78q0 40 -11 59.5t-37 19.5q-27 0 -38.5 -21.5t-11.5 -68.5l-133 3q0 90 44.5 139.5t130.5 49.5q45 0 76 -18
t44 -49q15 30 52 48.5t84 18.5q74 0 112 -36.5t38 -99.5q0 -71 -39 -104t-111 -50l-69 -15v-120q0 -35 9.5 -53t35.5 -18t35.5 20t9.5 59v31zM403 348l35 8q35 8 51 25t16 49q0 24 -12 39t-37 15q-29 0 -41 -20t-12 -58v-58zM272 261l-39 -14q-35 -14 -51.5 -36.5
t-16.5 -56.5q0 -31 13 -49t38 -18q56 0 56 78v96z" />
    <glyph glyph-name="ccedilla" unicode="&#xe7;" horiz-adv-x="441" 
d="M85 45.5q-44 54.5 -44 156.5v174q0 103 44 157t141 54q92 0 134.5 -44t42.5 -134v-48h-128v51q0 45 -10.5 62t-37.5 17q-29 0 -39.5 -21t-10.5 -77v-212q0 -54 11.5 -74t38.5 -20q28 0 38 18.5t10 59.5v62h128v-55q0 -89 -43 -135t-134 -46q-97 0 -141 54.5zM166 -246v63
q24 -8 54 -8q61 0 61 37q0 45 -88 54v100h57v-61q57 0 90.5 -24.5t33.5 -70.5q0 -50 -38.5 -75.5t-97.5 -25.5q-34 0 -72 11z" />
    <glyph glyph-name="egrave" unicode="&#xe8;" horiz-adv-x="446" 
d="M86 44.5q-45 53.5 -45 158.5v172q0 106 45.5 159t140.5 53q98 0 138.5 -55t40.5 -166v-83h-230v-114q0 -42 12.5 -61t39.5 -19q26 0 37.5 18.5t11.5 56.5v49h128v-40q0 -89 -45 -135.5t-133 -46.5q-96 0 -141 53.5zM277 350v55q0 45 -11 64.5t-39 19.5q-29 0 -40 -21
t-11 -78v-40h101zM69 834h138l59 -200h-78z" />
    <glyph glyph-name="eacute" unicode="&#xe9;" horiz-adv-x="446" 
d="M86 44.5q-45 53.5 -45 158.5v172q0 106 45.5 159t140.5 53q98 0 138.5 -55t40.5 -166v-83h-230v-114q0 -42 12.5 -61t39.5 -19q26 0 37.5 18.5t11.5 56.5v49h128v-40q0 -89 -45 -135.5t-133 -46.5q-96 0 -141 53.5zM277 350v55q0 45 -11 64.5t-39 19.5q-29 0 -40 -21
t-11 -78v-40h101zM244 834h138l-119 -200h-79z" />
    <glyph glyph-name="ecircumflex" unicode="&#xea;" horiz-adv-x="446" 
d="M86 44.5q-45 53.5 -45 158.5v172q0 106 45.5 159t140.5 53q98 0 138.5 -55t40.5 -166v-83h-230v-114q0 -42 12.5 -61t39.5 -19q26 0 37.5 18.5t11.5 56.5v49h128v-40q0 -89 -45 -135.5t-133 -46.5q-96 0 -141 53.5zM277 350v55q0 45 -11 64.5t-39 19.5q-29 0 -40 -21
t-11 -78v-40h101zM163 826h122l92 -184h-101l-52 120l-51 -120h-100z" />
    <glyph glyph-name="edieresis" unicode="&#xeb;" horiz-adv-x="446" 
d="M86 44.5q-45 53.5 -45 158.5v172q0 106 45.5 159t140.5 53q98 0 138.5 -55t40.5 -166v-83h-230v-114q0 -42 12.5 -61t39.5 -19q26 0 37.5 18.5t11.5 56.5v49h128v-40q0 -89 -45 -135.5t-133 -46.5q-96 0 -141 53.5zM277 350v55q0 45 -11 64.5t-39 19.5q-29 0 -40 -21
t-11 -78v-40h101zM67 810h120v-130h-120v130zM263 810h120v-130h-120v130z" />
    <glyph glyph-name="igrave" unicode="&#xec;" horiz-adv-x="253" 
d="M60 578h136v-578h-136v578zM-27 834h138l59 -200h-78z" />
    <glyph glyph-name="iacute" unicode="&#xed;" horiz-adv-x="253" 
d="M60 578h136v-578h-136v578zM148 834h138l-119 -200h-79z" />
    <glyph glyph-name="icircumflex" unicode="&#xee;" horiz-adv-x="253" 
d="M60 578h136v-578h-136v578zM67 826h122l92 -184h-101l-52 120l-51 -120h-100z" />
    <glyph glyph-name="idieresis" unicode="&#xef;" horiz-adv-x="253" 
d="M60 578h136v-578h-136v578zM-29 810h120v-130h-120v130zM167 810h120v-130h-120v130z" />
    <glyph glyph-name="eth" unicode="&#xf0;" horiz-adv-x="496" 
d="M105.5 47q-52.5 59 -52.5 171v120q0 105 42.5 168.5t124.5 63.5q47 0 86 -27q-2 39 -10 72t-19 49l-103 -41l-9 47l84 34q-16 20 -50 30.5t-92 10.5l7 87q90 -1 147 -20.5t89 -60.5l101 41l9 -47l-82 -33q31 -62 48.5 -132t17.5 -169v-185q0 -238 -194 -238
q-92 0 -144.5 59zM295 112.5q12 27.5 12 82.5v256q-14 10 -26.5 16t-27.5 6q-26 0 -40.5 -18.5t-20 -58t-5.5 -110.5q0 -79 4 -120t18 -61t43 -20q31 0 43 27.5z" />
    <glyph glyph-name="ntilde" unicode="&#xf1;" horiz-adv-x="474" 
d="M52 578h136v-57q69 66 140 66q49 0 73.5 -36t24.5 -91v-460h-136v433q0 28 -8.5 41t-30.5 13q-24 0 -63 -28v-459h-136v578zM281 690.5q-16 6.5 -36 19.5q-18 10 -30.5 15.5t-25.5 5.5q-19 0 -27 -10.5t-8 -30.5h-70q0 126 85 126q17 0 31.5 -6t35.5 -18q20 -11 32 -16.5
t26 -5.5q32 0 32 40h66q0 -57 -16 -91.5t-60 -34.5q-19 0 -35 6.5z" />
    <glyph glyph-name="ograve" unicode="&#xf2;" horiz-adv-x="455" 
d="M88 42.5q-46 51.5 -46 149.5v194q0 98 46 149.5t139 51.5t139.5 -51.5t46.5 -149.5v-194q0 -98 -46.5 -149.5t-139.5 -51.5t-139 51.5zM269 109.5q10 24.5 10 72.5v213q0 48 -10 73t-41 25q-32 0 -42 -25t-10 -73v-213q0 -48 10 -72.5t42 -24.5q31 0 41 24.5zM71 834h138
l59 -200h-78z" />
    <glyph glyph-name="oacute" unicode="&#xf3;" horiz-adv-x="455" 
d="M88 42.5q-46 51.5 -46 149.5v194q0 98 46 149.5t139 51.5t139.5 -51.5t46.5 -149.5v-194q0 -98 -46.5 -149.5t-139.5 -51.5t-139 51.5zM269 109.5q10 24.5 10 72.5v213q0 48 -10 73t-41 25q-32 0 -42 -25t-10 -73v-213q0 -48 10 -72.5t42 -24.5q31 0 41 24.5zM246 834
h138l-119 -200h-79z" />
    <glyph glyph-name="ocircumflex" unicode="&#xf4;" horiz-adv-x="455" 
d="M88 42.5q-46 51.5 -46 149.5v194q0 98 46 149.5t139 51.5t139.5 -51.5t46.5 -149.5v-194q0 -98 -46.5 -149.5t-139.5 -51.5t-139 51.5zM269 109.5q10 24.5 10 72.5v213q0 48 -10 73t-41 25q-32 0 -42 -25t-10 -73v-213q0 -48 10 -72.5t42 -24.5q31 0 41 24.5zM165 826
h122l92 -184h-101l-52 120l-51 -120h-100z" />
    <glyph glyph-name="otilde" unicode="&#xf5;" horiz-adv-x="455" 
d="M88 42.5q-46 51.5 -46 149.5v194q0 98 46 149.5t139 51.5t139.5 -51.5t46.5 -149.5v-194q0 -98 -46.5 -149.5t-139.5 -51.5t-139 51.5zM269 109.5q10 24.5 10 72.5v213q0 48 -10 73t-41 25q-32 0 -42 -25t-10 -73v-213q0 -48 10 -72.5t42 -24.5q31 0 41 24.5zM270 690.5
q-16 6.5 -36 19.5q-18 10 -30.5 15.5t-25.5 5.5q-19 0 -27 -10.5t-8 -30.5h-70q0 126 85 126q17 0 31.5 -6t35.5 -18q20 -11 32 -16.5t26 -5.5q32 0 32 40h66q0 -57 -16 -91.5t-60 -34.5q-19 0 -35 6.5z" />
    <glyph glyph-name="odieresis" unicode="&#xf6;" horiz-adv-x="455" 
d="M88 42.5q-46 51.5 -46 149.5v194q0 98 46 149.5t139 51.5t139.5 -51.5t46.5 -149.5v-194q0 -98 -46.5 -149.5t-139.5 -51.5t-139 51.5zM269 109.5q10 24.5 10 72.5v213q0 48 -10 73t-41 25q-32 0 -42 -25t-10 -73v-213q0 -48 10 -72.5t42 -24.5q31 0 41 24.5zM69 810h120
v-130h-120v130zM265 810h120v-130h-120v130z" />
    <glyph glyph-name="divide" unicode="&#xf7;" horiz-adv-x="403" 
d="M158 646h92v-117h-92v117zM27 456h349v-82h-349v82zM158 292h92v-118h-92v118z" />
    <glyph glyph-name="oslash" unicode="&#xf8;" horiz-adv-x="452" 
d="M413 386v-194q0 -98 -46.5 -149.5t-139.5 -51.5q-49 0 -89 16l-38 -99l-34 14l39 104q-63 51 -63 166v194q0 98 46 149.5t139 51.5q49 0 85 -15l37 98l38 -14l-40 -103q66 -50 66 -167zM176 213l95 251q-11 29 -43 29t-42 -25t-10 -73v-182zM269 109.5q10 24.5 10 72.5
v193l-97 -254q10 -36 46 -36q31 0 41 24.5z" />
    <glyph glyph-name="ugrave" unicode="&#xf9;" horiz-adv-x="473" 
d="M72 27q-24 36 -24 91v460h135v-435q0 -27 9 -41t31 -14q23 0 61 27v463h136v-578h-136v55q-67 -64 -139 -64q-49 0 -73 36zM80 834h138l59 -200h-78z" />
    <glyph glyph-name="uacute" unicode="&#xfa;" horiz-adv-x="473" 
d="M72 27q-24 36 -24 91v460h135v-435q0 -27 9 -41t31 -14q23 0 61 27v463h136v-578h-136v55q-67 -64 -139 -64q-49 0 -73 36zM255 834h138l-119 -200h-79z" />
    <glyph glyph-name="ucircumflex" unicode="&#xfb;" horiz-adv-x="473" 
d="M72 27q-24 36 -24 91v460h135v-435q0 -27 9 -41t31 -14q23 0 61 27v463h136v-578h-136v55q-67 -64 -139 -64q-49 0 -73 36zM174 826h122l92 -184h-101l-52 120l-51 -120h-100z" />
    <glyph glyph-name="udieresis" unicode="&#xfc;" horiz-adv-x="473" 
d="M72 27q-24 36 -24 91v460h135v-435q0 -27 9 -41t31 -14q23 0 61 27v463h136v-578h-136v55q-67 -64 -139 -64q-49 0 -73 36zM78 810h120v-130h-120v130zM274 810h120v-130h-120v130z" />
    <glyph glyph-name="yacute" unicode="&#xfd;" horiz-adv-x="421" 
d="M56 -59q54 0 76.5 9.5t22.5 36.5q0 18 -21 102l-127 489h132l75 -382l65 382h131l-135 -601q-17 -73 -64.5 -103.5t-128.5 -30.5h-26v98zM229 834h138l-119 -200h-79z" />
    <glyph glyph-name="thorn" unicode="&#xfe;" horiz-adv-x="471" 
d="M50 810h136v-276q55 53 118 53q69 0 98 -58t29 -135v-196q0 -93 -32.5 -150t-102.5 -57q-55 0 -110 52v-233h-136v1000zM284.5 114q10.5 28 10.5 79v208q0 45 -11 70t-40 25q-28 0 -58 -25v-365q28 -20 60 -20q28 0 38.5 28z" />
    <glyph glyph-name="ydieresis" unicode="&#xff;" horiz-adv-x="421" 
d="M56 -59q54 0 76.5 9.5t22.5 36.5q0 18 -21 102l-127 489h132l75 -382l65 382h131l-135 -601q-17 -73 -64.5 -103.5t-128.5 -30.5h-26v98zM52 810h120v-130h-120v130zM248 810h120v-130h-120v130z" />
    <glyph glyph-name="Amacron" unicode="&#x100;" horiz-adv-x="522" 
d="M182 810h158l162 -810h-137l-32 187h-141l-33 -187h-139zM317 281l-55 340l-55 -340h110zM144 978h236v-71h-236v71z" />
    <glyph glyph-name="amacron" unicode="&#x101;" horiz-adv-x="452" 
d="M98.5 11q-28.5 20 -44 51.5t-15.5 65.5q0 67 31.5 110.5t78 67.5t123.5 53v50q0 40 -9.5 58.5t-36.5 18.5q-46 0 -48 -64l-2 -35l-129 5q3 100 49.5 147.5t140.5 47.5q85 0 126 -46.5t41 -131.5v-267q0 -62 10 -142h-122q-10 54 -14 83q-12 -39 -40.5 -65.5t-73.5 -26.5
q-37 0 -65.5 20zM246.5 104q15.5 12 25.5 26v162q-53 -31 -79 -59.5t-26 -71.5q0 -32 12.5 -50.5t34.5 -18.5q17 0 32.5 12zM119 746h236v-71h-236v71z" />
    <glyph glyph-name="Abreve" unicode="&#x102;" horiz-adv-x="522" 
d="M182 810h158l162 -810h-137l-32 187h-141l-33 -187h-139zM317 281l-55 340l-55 -340h110zM155 913q-37 39 -37 107h77q1 -38 16.5 -56t50.5 -18q36 0 51.5 18.5t15.5 55.5h78q0 -68 -37 -107t-108 -39q-70 0 -107 39z" />
    <glyph glyph-name="abreve" unicode="&#x103;" horiz-adv-x="452" 
d="M98.5 11q-28.5 20 -44 51.5t-15.5 65.5q0 67 31.5 110.5t78 67.5t123.5 53v50q0 40 -9.5 58.5t-36.5 18.5q-46 0 -48 -64l-2 -35l-129 5q3 100 49.5 147.5t140.5 47.5q85 0 126 -46.5t41 -131.5v-267q0 -62 10 -142h-122q-10 54 -14 83q-12 -39 -40.5 -65.5t-73.5 -26.5
q-37 0 -65.5 20zM246.5 104q15.5 12 25.5 26v162q-53 -31 -79 -59.5t-26 -71.5q0 -32 12.5 -50.5t34.5 -18.5q17 0 32.5 12zM130 681q-37 39 -37 107h77q1 -38 16.5 -56t50.5 -18q36 0 51.5 18.5t15.5 55.5h78q0 -68 -37 -107t-108 -39q-70 0 -107 39z" />
    <glyph glyph-name="Aogonek" unicode="&#x104;" horiz-adv-x="522" 
d="M182 810h158l162 -810h-137l-32 187h-141l-33 -187h-139zM317 281l-55 340l-55 -340h110zM358.5 -226q-41.5 20 -41.5 77q0 42 28.5 85t65.5 64h64q-60 -73 -60 -125q0 -54 72 -54q13 0 31 2l-17 -66q-15 -3 -35 -3q-66 0 -107.5 20z" />
    <glyph glyph-name="aogonek" unicode="&#x105;" horiz-adv-x="452" 
d="M98.5 11q-28.5 20 -44 51.5t-15.5 65.5q0 67 31.5 110.5t78 67.5t123.5 53v50q0 40 -9.5 58.5t-36.5 18.5q-46 0 -48 -64l-2 -35l-129 5q3 100 49.5 147.5t140.5 47.5q85 0 126 -46.5t41 -131.5v-267q0 -62 10 -142h-122q-10 54 -14 83q-12 -39 -40.5 -65.5t-73.5 -26.5
q-37 0 -65.5 20zM246.5 104q15.5 12 25.5 26v162q-53 -31 -79 -59.5t-26 -71.5q0 -32 12.5 -50.5t34.5 -18.5q17 0 32.5 12zM275.5 -226q-41.5 20 -41.5 77q0 42 28.5 85t65.5 64h64q-60 -73 -60 -125q0 -54 72 -54q13 0 31 2l-17 -66q-15 -3 -35 -3q-66 0 -107.5 20z" />
    <glyph glyph-name="Cacute" unicode="&#x106;" horiz-adv-x="540" 
d="M100.5 59.5q-52.5 70.5 -52.5 199.5v289q0 133 52 202t179 69q119 0 169 -60t50 -173v-68h-142v70q0 43 -4 67.5t-20.5 40t-51.5 15.5q-36 0 -54 -16.5t-23.5 -44t-5.5 -71.5v-351q0 -69 18 -99.5t65 -30.5q34 0 50.5 16t21 42.5t4.5 70.5v73h142v-65q0 -117 -49 -181.5
t-170 -64.5q-126 0 -178.5 70.5zM293 1066h138l-119 -200h-79z" />
    <glyph glyph-name="cacute" unicode="&#x107;" horiz-adv-x="441" 
d="M85 45.5q-44 54.5 -44 156.5v174q0 103 44 157t141 54q92 0 134.5 -44t42.5 -134v-48h-128v51q0 45 -10.5 62t-37.5 17q-29 0 -39.5 -21t-10.5 -77v-212q0 -54 11.5 -74t38.5 -20q28 0 38 18.5t10 59.5v62h128v-55q0 -89 -43 -135t-134 -46q-97 0 -141 54.5zM240 834h138
l-119 -200h-79z" />
    <glyph glyph-name="Ccircumflex" unicode="&#x108;" horiz-adv-x="540" 
d="M100.5 59.5q-52.5 70.5 -52.5 199.5v289q0 133 52 202t179 69q119 0 169 -60t50 -173v-68h-142v70q0 43 -4 67.5t-20.5 40t-51.5 15.5q-36 0 -54 -16.5t-23.5 -44t-5.5 -71.5v-351q0 -69 18 -99.5t65 -30.5q34 0 50.5 16t21 42.5t4.5 70.5v73h142v-65q0 -117 -49 -181.5
t-170 -64.5q-126 0 -178.5 70.5zM212 1058h122l92 -184h-101l-52 120l-51 -120h-100z" />
    <glyph glyph-name="ccircumflex" unicode="&#x109;" horiz-adv-x="441" 
d="M85 45.5q-44 54.5 -44 156.5v174q0 103 44 157t141 54q92 0 134.5 -44t42.5 -134v-48h-128v51q0 45 -10.5 62t-37.5 17q-29 0 -39.5 -21t-10.5 -77v-212q0 -54 11.5 -74t38.5 -20q28 0 38 18.5t10 59.5v62h128v-55q0 -89 -43 -135t-134 -46q-97 0 -141 54.5zM159 826h122
l92 -184h-101l-52 120l-51 -120h-100z" />
    <glyph glyph-name="Cdotaccent" unicode="&#x10a;" horiz-adv-x="540" 
d="M100.5 59.5q-52.5 70.5 -52.5 199.5v289q0 133 52 202t179 69q119 0 169 -60t50 -173v-68h-142v70q0 43 -4 67.5t-20.5 40t-51.5 15.5q-36 0 -54 -16.5t-23.5 -44t-5.5 -71.5v-351q0 -69 18 -99.5t65 -30.5q34 0 50.5 16t21 42.5t4.5 70.5v73h142v-65q0 -117 -49 -181.5
t-170 -64.5q-126 0 -178.5 70.5zM208 1030h132v-137h-132v137z" />
    <glyph glyph-name="cdotaccent" unicode="&#x10b;" horiz-adv-x="441" 
d="M85 45.5q-44 54.5 -44 156.5v174q0 103 44 157t141 54q92 0 134.5 -44t42.5 -134v-48h-128v51q0 45 -10.5 62t-37.5 17q-29 0 -39.5 -21t-10.5 -77v-212q0 -54 11.5 -74t38.5 -20q28 0 38 18.5t10 59.5v62h128v-55q0 -89 -43 -135t-134 -46q-97 0 -141 54.5zM155 798h132
v-137h-132v137z" />
    <glyph glyph-name="Ccaron" unicode="&#x10c;" horiz-adv-x="540" 
d="M100.5 59.5q-52.5 70.5 -52.5 199.5v289q0 133 52 202t179 69q119 0 169 -60t50 -173v-68h-142v70q0 43 -4 67.5t-20.5 40t-51.5 15.5q-36 0 -54 -16.5t-23.5 -44t-5.5 -71.5v-351q0 -69 18 -99.5t65 -30.5q34 0 50.5 16t21 42.5t4.5 70.5v73h142v-65q0 -117 -49 -181.5
t-170 -64.5q-126 0 -178.5 70.5zM120 1050h100l54 -113l54 113h100l-88 -180h-133z" />
    <glyph glyph-name="ccaron" unicode="&#x10d;" horiz-adv-x="441" 
d="M85 45.5q-44 54.5 -44 156.5v174q0 103 44 157t141 54q92 0 134.5 -44t42.5 -134v-48h-128v51q0 45 -10.5 62t-37.5 17q-29 0 -39.5 -21t-10.5 -77v-212q0 -54 11.5 -74t38.5 -20q28 0 38 18.5t10 59.5v62h128v-55q0 -89 -43 -135t-134 -46q-97 0 -141 54.5zM67 818h100
l54 -113l54 113h100l-88 -180h-133z" />
    <glyph glyph-name="Dcaron" unicode="&#x10e;" horiz-adv-x="557" 
d="M61 810h191q98 0 154 -26.5t79.5 -81t23.5 -144.5v-295q0 -92 -23.5 -149t-78.5 -85.5t-149 -28.5h-197v810zM254 103q49 0 71 17t28 47.5t6 90.5v310q0 54 -7 82t-29.5 41.5t-70.5 13.5h-44v-602h46zM125 1050h100l54 -113l54 113h100l-88 -180h-133z" />
    <glyph glyph-name="dcaron" unicode="&#x10f;" horiz-adv-x="585" 
d="M77.5 40.5q-34.5 49.5 -34.5 156.5v177q0 98 32.5 155.5t105.5 57.5q56 0 104 -46v269h137v-810h-137v41q-48 -50 -103 -50q-70 0 -104.5 49.5zM285 104v371q-26 19 -54 19q-52 0 -52 -91v-216q0 -49 11 -75.5t41 -26.5q26 0 54 19zM477 589q29 8 47 29.5t18 56.5h-72
v135h133v-123q0 -64 -28 -100t-85 -47z" />
    <glyph glyph-name="Dcroat" unicode="&#x110;" horiz-adv-x="560" 
d="M65 381h-50v74h50v355h191q98 0 153.5 -26.5t79 -81t23.5 -144.5v-295q0 -92 -23.5 -149t-78.5 -85.5t-149 -28.5h-196v381zM259 103q49 0 71.5 17t28 47.5t5.5 90.5v310q0 54 -7 82t-29.5 41.5t-70.5 13.5h-47v-250h54v-74h-54v-278h49z" />
    <glyph glyph-name="dcroat" unicode="&#x111;" horiz-adv-x="478" 
d="M75.5 40.5q-34.5 49.5 -34.5 156.5v177q0 97 32.5 155t105.5 58q55 0 104 -46v139h-123v62h123v68h136v-68h54v-62h-54v-680h-136v41q-48 -50 -103 -50q-70 0 -104.5 49.5zM283 104v371q-28 19 -54 19q-27 0 -39.5 -25t-12.5 -66v-216q0 -49 11.5 -75.5t41.5 -26.5
q25 0 53 19z" />
    <glyph glyph-name="Emacron" unicode="&#x112;" horiz-adv-x="428" 
d="M61 810h340v-104h-193v-233h152v-103h-152v-269h195v-101h-342v810zM116 978h236v-71h-236v71z" />
    <glyph glyph-name="emacron" unicode="&#x113;" horiz-adv-x="446" 
d="M86 44.5q-45 53.5 -45 158.5v172q0 106 45.5 159t140.5 53q98 0 138.5 -55t40.5 -166v-83h-230v-114q0 -42 12.5 -61t39.5 -19q26 0 37.5 18.5t11.5 56.5v49h128v-40q0 -89 -45 -135.5t-133 -46.5q-96 0 -141 53.5zM277 350v55q0 45 -11 64.5t-39 19.5q-29 0 -40 -21
t-11 -78v-40h101zM107 746h236v-71h-236v71z" />
    <glyph glyph-name="Ebreve" unicode="&#x114;" horiz-adv-x="428" 
d="M61 810h340v-104h-193v-233h152v-103h-152v-269h195v-101h-342v810zM127 913q-37 39 -37 107h77q1 -38 16.5 -56t50.5 -18q36 0 51.5 18.5t15.5 55.5h78q0 -68 -37 -107t-108 -39q-70 0 -107 39z" />
    <glyph glyph-name="ebreve" unicode="&#x115;" horiz-adv-x="446" 
d="M86 44.5q-45 53.5 -45 158.5v172q0 106 45.5 159t140.5 53q98 0 138.5 -55t40.5 -166v-83h-230v-114q0 -42 12.5 -61t39.5 -19q26 0 37.5 18.5t11.5 56.5v49h128v-40q0 -89 -45 -135.5t-133 -46.5q-96 0 -141 53.5zM277 350v55q0 45 -11 64.5t-39 19.5q-29 0 -40 -21
t-11 -78v-40h101zM118 681q-37 39 -37 107h77q1 -38 16.5 -56t50.5 -18q36 0 51.5 18.5t15.5 55.5h78q0 -68 -37 -107t-108 -39q-70 0 -107 39z" />
    <glyph glyph-name="Edotaccent" unicode="&#x116;" horiz-adv-x="428" 
d="M61 810h340v-104h-193v-233h152v-103h-152v-269h195v-101h-342v810zM168 1030h132v-137h-132v137z" />
    <glyph glyph-name="edotaccent" unicode="&#x117;" horiz-adv-x="446" 
d="M86 44.5q-45 53.5 -45 158.5v172q0 106 45.5 159t140.5 53q98 0 138.5 -55t40.5 -166v-83h-230v-114q0 -42 12.5 -61t39.5 -19q26 0 37.5 18.5t11.5 56.5v49h128v-40q0 -89 -45 -135.5t-133 -46.5q-96 0 -141 53.5zM277 350v55q0 45 -11 64.5t-39 19.5q-29 0 -40 -21
t-11 -78v-40h101zM159 798h132v-137h-132v137z" />
    <glyph glyph-name="Eogonek" unicode="&#x118;" horiz-adv-x="428" 
d="M61 810h340v-104h-193v-233h152v-103h-152v-269h195v-101h-342v810zM231.5 -226q-41.5 20 -41.5 77q0 42 28.5 85t65.5 64h64q-60 -73 -60 -125q0 -54 72 -54q13 0 31 2l-17 -66q-15 -3 -35 -3q-66 0 -107.5 20z" />
    <glyph glyph-name="eogonek" unicode="&#x119;" horiz-adv-x="446" 
d="M86 44.5q-45 53.5 -45 158.5v172q0 106 45.5 159t140.5 53q98 0 138.5 -55t40.5 -166v-83h-230v-114q0 -42 12.5 -61t39.5 -19q26 0 37.5 18.5t11.5 56.5v49h128v-40q0 -89 -45 -135.5t-133 -46.5q-96 0 -141 53.5zM277 350v55q0 45 -11 64.5t-39 19.5q-29 0 -40 -21
t-11 -78v-40h101zM176.5 -216q-41.5 20 -41.5 77q0 42 28.5 85t65.5 64h64q-60 -73 -60 -125q0 -54 72 -54q13 0 31 2l-17 -66q-15 -3 -35 -3q-66 0 -107.5 20z" />
    <glyph glyph-name="Ecaron" unicode="&#x11a;" horiz-adv-x="428" 
d="M61 810h340v-104h-193v-233h152v-103h-152v-269h195v-101h-342v810zM80 1050h100l54 -113l54 113h100l-88 -180h-133z" />
    <glyph glyph-name="ecaron" unicode="&#x11b;" horiz-adv-x="446" 
d="M86 44.5q-45 53.5 -45 158.5v172q0 106 45.5 159t140.5 53q98 0 138.5 -55t40.5 -166v-83h-230v-114q0 -42 12.5 -61t39.5 -19q26 0 37.5 18.5t11.5 56.5v49h128v-40q0 -89 -45 -135.5t-133 -46.5q-96 0 -141 53.5zM277 350v55q0 45 -11 64.5t-39 19.5q-29 0 -40 -21
t-11 -78v-40h101zM71 818h100l54 -113l54 113h100l-88 -180h-133z" />
    <glyph glyph-name="Gcircumflex" unicode="&#x11c;" horiz-adv-x="559" 
d="M98.5 60.5q-50.5 71.5 -50.5 206.5v272q0 139 52 209.5t179 70.5q120 0 172 -59.5t52 -176.5v-42h-141v46q0 44 -5.5 70t-23 40t-52.5 14q-37 0 -55 -18t-23.5 -46t-5.5 -73v-339q0 -69 18.5 -103t69.5 -34q50 0 69.5 36t19.5 108v76h-87v93h220v-411h-96l-10 79
q-38 -90 -137 -90q-115 0 -165.5 71.5zM218 1058h122l92 -184h-101l-52 120l-51 -120h-100z" />
    <glyph glyph-name="gcircumflex" unicode="&#x11d;" horiz-adv-x="469" 
d="M76 -161.5q-54 28.5 -54 85.5q0 38 24 66.5t63 46.5q-33 10 -50.5 29.5t-17.5 47.5q0 32 15.5 56t48.5 53q-31 25 -46.5 63.5t-15.5 97.5q0 99 47.5 151t138.5 52q88 0 128 -54q9 14 29 31t45 29l19 8l32 -73q-18 -5 -49 -17.5t-45 -21.5q9 -20 15 -50t6 -57
q0 -95 -44 -147.5t-136 -52.5q-40 0 -78 12q-17 -25 -17 -40q0 -12 12 -18.5t40 -9.5l121 -12q140 -15 140 -146q0 -79 -54.5 -118.5t-170.5 -39.5q-92 0 -146 28.5zM274 294q11 26 11 90q0 63 -11 90t-45 27t-46 -26.5t-12 -90.5q0 -60 12 -88t46 -28t45 26zM321.5 -76.5
q27.5 11.5 27.5 39.5q0 24 -17.5 35.5t-65.5 16.5l-99 9q-19 -16 -29 -30.5t-10 -32.5q0 -25 25 -37t84 -12q57 0 84.5 11.5zM173 826h122l92 -184h-101l-52 120l-51 -120h-100z" />
    <glyph glyph-name="Gbreve" unicode="&#x11e;" horiz-adv-x="559" 
d="M98.5 60.5q-50.5 71.5 -50.5 206.5v272q0 139 52 209.5t179 70.5q120 0 172 -59.5t52 -176.5v-42h-141v46q0 44 -5.5 70t-23 40t-52.5 14q-37 0 -55 -18t-23.5 -46t-5.5 -73v-339q0 -69 18.5 -103t69.5 -34q50 0 69.5 36t19.5 108v76h-87v93h220v-411h-96l-10 79
q-38 -90 -137 -90q-115 0 -165.5 71.5zM173 913q-37 39 -37 107h77q1 -38 16.5 -56t50.5 -18q36 0 51.5 18.5t15.5 55.5h78q0 -68 -37 -107t-108 -39q-70 0 -107 39z" />
    <glyph glyph-name="gbreve" unicode="&#x11f;" horiz-adv-x="469" 
d="M76 -161.5q-54 28.5 -54 85.5q0 38 24 66.5t63 46.5q-33 10 -50.5 29.5t-17.5 47.5q0 32 15.5 56t48.5 53q-31 25 -46.5 63.5t-15.5 97.5q0 99 47.5 151t138.5 52q88 0 128 -54q9 14 29 31t45 29l19 8l32 -73q-18 -5 -49 -17.5t-45 -21.5q9 -20 15 -50t6 -57
q0 -95 -44 -147.5t-136 -52.5q-40 0 -78 12q-17 -25 -17 -40q0 -12 12 -18.5t40 -9.5l121 -12q140 -15 140 -146q0 -79 -54.5 -118.5t-170.5 -39.5q-92 0 -146 28.5zM274 294q11 26 11 90q0 63 -11 90t-45 27t-46 -26.5t-12 -90.5q0 -60 12 -88t46 -28t45 26zM321.5 -76.5
q27.5 11.5 27.5 39.5q0 24 -17.5 35.5t-65.5 16.5l-99 9q-19 -16 -29 -30.5t-10 -32.5q0 -25 25 -37t84 -12q57 0 84.5 11.5zM128 681q-37 39 -37 107h77q1 -38 16.5 -56t50.5 -18q36 0 51.5 18.5t15.5 55.5h78q0 -68 -37 -107t-108 -39q-70 0 -107 39z" />
    <glyph glyph-name="Gdotaccent" unicode="&#x120;" horiz-adv-x="559" 
d="M98.5 60.5q-50.5 71.5 -50.5 206.5v272q0 139 52 209.5t179 70.5q120 0 172 -59.5t52 -176.5v-42h-141v46q0 44 -5.5 70t-23 40t-52.5 14q-37 0 -55 -18t-23.5 -46t-5.5 -73v-339q0 -69 18.5 -103t69.5 -34q50 0 69.5 36t19.5 108v76h-87v93h220v-411h-96l-10 79
q-38 -90 -137 -90q-115 0 -165.5 71.5zM214 1030h132v-137h-132v137z" />
    <glyph glyph-name="gdotaccent" unicode="&#x121;" horiz-adv-x="469" 
d="M76 -161.5q-54 28.5 -54 85.5q0 38 24 66.5t63 46.5q-33 10 -50.5 29.5t-17.5 47.5q0 32 15.5 56t48.5 53q-31 25 -46.5 63.5t-15.5 97.5q0 99 47.5 151t138.5 52q88 0 128 -54q9 14 29 31t45 29l19 8l32 -73q-18 -5 -49 -17.5t-45 -21.5q9 -20 15 -50t6 -57
q0 -95 -44 -147.5t-136 -52.5q-40 0 -78 12q-17 -25 -17 -40q0 -12 12 -18.5t40 -9.5l121 -12q140 -15 140 -146q0 -79 -54.5 -118.5t-170.5 -39.5q-92 0 -146 28.5zM274 294q11 26 11 90q0 63 -11 90t-45 27t-46 -26.5t-12 -90.5q0 -60 12 -88t46 -28t45 26zM321.5 -76.5
q27.5 11.5 27.5 39.5q0 24 -17.5 35.5t-65.5 16.5l-99 9q-19 -16 -29 -30.5t-10 -32.5q0 -25 25 -37t84 -12q57 0 84.5 11.5zM169 798h132v-137h-132v137z" />
    <glyph glyph-name="Gcommaaccent" unicode="&#x122;" horiz-adv-x="559" 
d="M98.5 60.5q-50.5 71.5 -50.5 206.5v272q0 139 52 209.5t179 70.5q120 0 172 -59.5t52 -176.5v-42h-141v46q0 44 -5.5 70t-23 40t-52.5 14q-37 0 -55 -18t-23.5 -46t-5.5 -73v-339q0 -69 18.5 -103t69.5 -34q50 0 69.5 36t19.5 108v76h-87v93h220v-411h-96l-10 79
q-38 -90 -137 -90q-115 0 -165.5 71.5zM221 -270q31 4 47.5 21t16.5 51h-71v131h132v-117q-1 -67 -25 -102.5t-81 -36.5z" />
    <glyph glyph-name="gcommaaccent" unicode="&#x123;" horiz-adv-x="469" 
d="M76 -161.5q-54 28.5 -54 85.5q0 38 24 66.5t63 46.5q-33 10 -50.5 29.5t-17.5 47.5q0 32 15.5 56t48.5 53q-31 25 -46.5 63.5t-15.5 97.5q0 99 47.5 151t138.5 52q88 0 128 -54q9 14 29 31t45 29l19 8l32 -73q-18 -5 -49 -17.5t-45 -21.5q9 -20 15 -50t6 -57
q0 -95 -44 -147.5t-136 -52.5q-40 0 -78 12q-17 -25 -17 -40q0 -12 12 -18.5t40 -9.5l121 -12q140 -15 140 -146q0 -79 -54.5 -118.5t-170.5 -39.5q-92 0 -146 28.5zM274 294q11 26 11 90q0 63 -11 90t-45 27t-46 -26.5t-12 -90.5q0 -60 12 -88t46 -28t45 26zM321.5 -76.5
q27.5 11.5 27.5 39.5q0 24 -17.5 35.5t-65.5 16.5l-99 9q-19 -16 -29 -30.5t-10 -32.5q0 -25 25 -37t84 -12q57 0 84.5 11.5zM294 846q-31 -4 -47.5 -21t-16.5 -51h71v-131h-132v117q1 67 25 102.5t81 36.5z" />
    <glyph glyph-name="Hcircumflex" unicode="&#x124;" horiz-adv-x="586" 
d="M63 810h147v-338h165v338h148v-810h-148v366h-165v-366h-147v810zM231 1058h122l92 -184h-101l-52 120l-51 -120h-100z" />
    <glyph glyph-name="hcircumflex" unicode="&#x125;" horiz-adv-x="478" 
d="M54 810h136v-288q65 65 143 65q49 0 72.5 -36t23.5 -91v-460h-135v433q0 28 -8.5 41t-30.5 13q-27 0 -65 -29v-458h-136v810zM61 1058h122l92 -184h-101l-52 120l-51 -120h-100z" />
    <glyph glyph-name="Hbar" unicode="&#x126;" horiz-adv-x="550" 
d="M50 617h-49v57h49v136h147v-136h161v136h148v-136h42v-57h-42v-617h-148v366h-161v-366h-147v617zM358 472v145h-161v-145h161z" />
    <glyph glyph-name="hbar" unicode="&#x127;" horiz-adv-x="479" 
d="M55 680h-55v68h55v62h135v-62h120v-68h-120v-158q65 65 143 65q49 0 73 -36t24 -91v-460h-136v433q0 28 -8.5 41t-30.5 13q-27 0 -65 -29v-458h-135v680z" />
    <glyph glyph-name="Itilde" unicode="&#x128;" horiz-adv-x="275" 
d="M65 810h146v-810h-146v810zM181 922.5q-16 6.5 -36 19.5q-18 10 -30.5 15.5t-25.5 5.5q-19 0 -27 -10.5t-8 -30.5h-70q0 126 85 126q17 0 31.5 -6t35.5 -18q20 -11 32 -16.5t26 -5.5q32 0 32 40h66q0 -57 -16 -91.5t-60 -34.5q-19 0 -35 6.5z" />
    <glyph glyph-name="itilde" unicode="&#x129;" horiz-adv-x="253" 
d="M60 578h136v-578h-136v578zM172 690.5q-16 6.5 -36 19.5q-18 10 -30.5 15.5t-25.5 5.5q-19 0 -27 -10.5t-8 -30.5h-70q0 126 85 126q17 0 31.5 -6t35.5 -18q20 -11 32 -16.5t26 -5.5q32 0 32 40h66q0 -57 -16 -91.5t-60 -34.5q-19 0 -35 6.5z" />
    <glyph glyph-name="Imacron" unicode="&#x12a;" horiz-adv-x="275" 
d="M65 810h146v-810h-146v810zM20 978h236v-71h-236v71z" />
    <glyph glyph-name="imacron" unicode="&#x12b;" horiz-adv-x="253" 
d="M60 578h136v-578h-136v578zM11 746h236v-71h-236v71z" />
    <glyph glyph-name="Ibreve" unicode="&#x12c;" horiz-adv-x="275" 
d="M65 810h146v-810h-146v810zM31 913q-37 39 -37 107h77q1 -38 16.5 -56t50.5 -18q36 0 51.5 18.5t15.5 55.5h78q0 -68 -37 -107t-108 -39q-70 0 -107 39z" />
    <glyph glyph-name="ibreve" unicode="&#x12d;" horiz-adv-x="253" 
d="M60 578h136v-578h-136v578zM22 681q-37 39 -37 107h77q1 -38 16.5 -56t50.5 -18q36 0 51.5 18.5t15.5 55.5h78q0 -68 -37 -107t-108 -39q-70 0 -107 39z" />
    <glyph glyph-name="Iogonek" unicode="&#x12e;" horiz-adv-x="275" 
d="M65 810h146v-810h-146v810zM54.5 -226q-41.5 20 -41.5 77q0 42 28.5 85t65.5 64h64q-60 -73 -60 -125q0 -54 72 -54q13 0 31 2l-17 -66q-15 -3 -35 -3q-66 0 -107.5 20z" />
    <glyph glyph-name="iogonek" unicode="&#x12f;" horiz-adv-x="248" 
d="M56 783h136v-113h-136v113zM56 578h136v-578h-136v578zM41.5 -226q-41.5 20 -41.5 77q0 42 28.5 85t65.5 64h64q-60 -73 -60 -125q0 -54 72 -54q13 0 31 2l-17 -66q-15 -3 -35 -3q-66 0 -107.5 20z" />
    <glyph glyph-name="Idotaccent" unicode="&#x130;" horiz-adv-x="275" 
d="M65 810h146v-810h-146v810zM72 1030h132v-137h-132v137z" />
    <glyph glyph-name="dotlessi" unicode="&#x131;" horiz-adv-x="253" 
d="M60 578h136v-578h-136v578z" />
    <glyph glyph-name="IJ" unicode="&#x132;" horiz-adv-x="601" 
d="M65 810h146v-810h-146v810zM285 84q45 0 67 7.5t31 29t9 64.5v625h147v-629q0 -71 -16 -114.5t-56 -65t-111 -21.5h-71v104z" />
    <glyph glyph-name="ij" unicode="&#x133;" horiz-adv-x="502" 
d="M56 783h136v-113h-136v113zM56 578h136v-578h-136v578zM314 783h137v-113h-137v113zM234 -153v97q24 -3 29 -3q52 0 52 59v578h135v-594q0 -69 -37.5 -108.5t-106.5 -39.5q-43 0 -72 11z" />
    <glyph glyph-name="Jcircumflex" unicode="&#x134;" horiz-adv-x="326" 
d="M10 84q45 0 67 7.5t31 29t9 64.5v625h147v-629q0 -71 -16 -114.5t-56 -65t-111 -21.5h-71v104zM129 1058h122l92 -184h-101l-52 120l-51 -120h-100z" />
    <glyph glyph-name="jcircumflex" unicode="&#x135;" horiz-adv-x="254" 
d="M-14 -153v97q24 -3 29 -3q52 0 52 59v578h135v-594q0 -69 -37.5 -108.5t-106.5 -39.5q-43 0 -72 11zM73 826h122l92 -184h-101l-52 120l-51 -120h-100z" />
    <glyph glyph-name="Kcommaaccent" unicode="&#x136;" horiz-adv-x="532" 
d="M61 810h147v-356l161 356h141l-155 -361l171 -449h-147l-135 368l-36 -61v-307h-147v810zM207 -270q31 4 47.5 21t16.5 51h-71v131h132v-117q-1 -67 -25 -102.5t-81 -36.5z" />
    <glyph glyph-name="kcommaaccent" unicode="&#x137;" horiz-adv-x="487" 
d="M54 811h135v-466l148 233h149l-145 -232l142 -346h-143l-105 285l-46 -64v-220h-135v810zM185 -270q31 4 47.5 21t16.5 51h-71v131h132v-117q-1 -67 -25 -102.5t-81 -36.5z" />
    <glyph glyph-name="kgreenlandic" unicode="&#x138;" horiz-adv-x="470" 
d="M54 578h136v-247l131 247h143l-125 -240l126 -338h-140l-94 275l-41 -60v-215h-136v578z" />
    <glyph glyph-name="Lacute" unicode="&#x139;" horiz-adv-x="421" 
d="M61 810h147v-709h197v-101h-344v810zM154 1066h138l-119 -200h-79z" />
    <glyph glyph-name="lacute" unicode="&#x13a;" horiz-adv-x="252" 
d="M61 810h135v-810h-135v810zM148 1066h138l-119 -200h-79z" />
    <glyph glyph-name="Lcommaaccent" unicode="&#x13b;" horiz-adv-x="421" 
d="M61 810h147v-709h197v-101h-344v810zM174 -270q31 4 47.5 21t16.5 51h-71v131h132v-117q-1 -67 -25 -102.5t-81 -36.5z" />
    <glyph glyph-name="lcommaaccent" unicode="&#x13c;" horiz-adv-x="252" 
d="M61 810h135v-810h-135v810zM70 -270q31 4 47.5 21t16.5 51h-71v131h132v-117q-1 -67 -25 -102.5t-81 -36.5z" />
    <glyph glyph-name="Lcaron" unicode="&#x13d;" horiz-adv-x="421" 
d="M61 810h147v-709h197v-101h-344v810zM294 589q29 8 47 29.5t18 56.5h-72v135h133v-123q0 -64 -28 -100t-85 -47z" />
    <glyph glyph-name="lcaron" unicode="&#x13e;" horiz-adv-x="360" 
d="M61 810h135v-810h-135v810zM252 589q29 8 47 29.5t18 56.5h-72v135h133v-123q0 -64 -28 -100t-85 -47z" />
    <glyph glyph-name="Ldot" unicode="&#x13f;" horiz-adv-x="421" 
d="M61 810h147v-709h197v-101h-344v810zM298 511h95v-131h-95v131z" />
    <glyph glyph-name="ldot" unicode="&#x140;" horiz-adv-x="325" 
d="M61 810h135v-810h-135v810zM243 505h95v-131h-95v131z" />
    <glyph glyph-name="Lslash" unicode="&#x141;" horiz-adv-x="425" 
d="M65 367l-64 -33v93l64 33v350h147v-276l102 52v-92l-102 -53v-340h197v-101h-344v367z" />
    <glyph glyph-name="lslash" unicode="&#x142;" horiz-adv-x="301" 
d="M86 415l-67 -31v88l67 30v308h136v-248l69 31v-87l-69 -31v-475h-136v415z" />
    <glyph glyph-name="Nacute" unicode="&#x143;" horiz-adv-x="545" 
d="M61 810h103l197 -462v462h122v-810h-98l-198 484v-484h-126v810zM291 1066h138l-119 -200h-79z" />
    <glyph glyph-name="nacute" unicode="&#x144;" horiz-adv-x="474" 
d="M52 578h136v-57q69 66 140 66q49 0 73.5 -36t24.5 -91v-460h-136v433q0 28 -8.5 41t-30.5 13q-24 0 -63 -28v-459h-136v578zM257 834h138l-119 -200h-79z" />
    <glyph glyph-name="Ncommaaccent" unicode="&#x145;" horiz-adv-x="545" 
d="M61 810h103l197 -462v462h122v-810h-98l-198 484v-484h-126v810zM213 -270q31 4 47.5 21t16.5 51h-71v131h132v-117q-1 -67 -25 -102.5t-81 -36.5z" />
    <glyph glyph-name="ncommaaccent" unicode="&#x146;" horiz-adv-x="474" 
d="M52 578h136v-57q69 66 140 66q49 0 73.5 -36t24.5 -91v-460h-136v433q0 28 -8.5 41t-30.5 13q-24 0 -63 -28v-459h-136v578zM179 -270q31 4 47.5 21t16.5 51h-71v131h132v-117q-1 -67 -25 -102.5t-81 -36.5z" />
    <glyph glyph-name="Ncaron" unicode="&#x147;" horiz-adv-x="545" 
d="M61 810h103l197 -462v462h122v-810h-98l-198 484v-484h-126v810zM118 1050h100l54 -113l54 113h100l-88 -180h-133z" />
    <glyph glyph-name="ncaron" unicode="&#x148;" horiz-adv-x="474" 
d="M52 578h136v-57q69 66 140 66q49 0 73.5 -36t24.5 -91v-460h-136v433q0 28 -8.5 41t-30.5 13q-24 0 -63 -28v-459h-136v578zM84 818h100l54 -113l54 113h100l-88 -180h-133z" />
    <glyph glyph-name="napostrophe" unicode="&#x149;" horiz-adv-x="544" 
d="M29 665q29 8 47 29.5t18 56.5h-72v135h133v-123q0 -64 -27.5 -100t-84.5 -47zM134 578h136v-57q69 66 140 66q49 0 73.5 -36t24.5 -91v-460h-136v433q0 28 -8.5 41t-30.5 13q-24 0 -63 -28v-459h-136v578z" />
    <glyph glyph-name="Eng" unicode="&#x14a;" horiz-adv-x="550" 
d="M256 -104q48 0 72 9t33 30.5t9 61.5v63l-185 424v-484h-122v810h103l200 -462v462h119v-810q0 -69 -14.5 -111t-52.5 -63.5t-106 -21.5h-56v92z" />
    <glyph glyph-name="eng" unicode="&#x14b;" horiz-adv-x="434" 
d="M166 -97q48 0 72.5 9t33.5 28.5t9 54.5v438q0 28 -8.5 41t-30.5 13q-26 0 -63 -28v-459h-136v578h136v-54q63 63 141 63q49 0 73 -36t24 -91v-466q0 -95 -50.5 -139.5t-154.5 -44.5h-46v93z" />
    <glyph glyph-name="Omacron" unicode="&#x14c;" horiz-adv-x="563" 
d="M102 56.5q-54 67.5 -54 197.5v304q0 129 54 195t180 66q125 0 179 -66t54 -195v-304q0 -129 -54.5 -197t-178.5 -68q-126 0 -180 67.5zM348 129q17 31 17 90v373q0 59 -16.5 89t-66.5 30t-67 -30.5t-17 -88.5v-373q0 -59 17 -90t67 -31q49 0 66 31zM164 978h236v-71h-236
v71z" />
    <glyph glyph-name="omacron" unicode="&#x14d;" horiz-adv-x="455" 
d="M88 42.5q-46 51.5 -46 149.5v194q0 98 46 149.5t139 51.5t139.5 -51.5t46.5 -149.5v-194q0 -98 -46.5 -149.5t-139.5 -51.5t-139 51.5zM269 109.5q10 24.5 10 72.5v213q0 48 -10 73t-41 25q-32 0 -42 -25t-10 -73v-213q0 -48 10 -72.5t42 -24.5q31 0 41 24.5zM109 746
h236v-71h-236v71z" />
    <glyph glyph-name="Obreve" unicode="&#x14e;" horiz-adv-x="563" 
d="M102 56.5q-54 67.5 -54 197.5v304q0 129 54 195t180 66q125 0 179 -66t54 -195v-304q0 -129 -54.5 -197t-178.5 -68q-126 0 -180 67.5zM348 129q17 31 17 90v373q0 59 -16.5 89t-66.5 30t-67 -30.5t-17 -88.5v-373q0 -59 17 -90t67 -31q49 0 66 31zM175 913
q-37 39 -37 107h77q1 -38 16.5 -56t50.5 -18q36 0 51.5 18.5t15.5 55.5h78q0 -68 -37 -107t-108 -39q-70 0 -107 39z" />
    <glyph glyph-name="obreve" unicode="&#x14f;" horiz-adv-x="455" 
d="M88 42.5q-46 51.5 -46 149.5v194q0 98 46 149.5t139 51.5t139.5 -51.5t46.5 -149.5v-194q0 -98 -46.5 -149.5t-139.5 -51.5t-139 51.5zM269 109.5q10 24.5 10 72.5v213q0 48 -10 73t-41 25q-32 0 -42 -25t-10 -73v-213q0 -48 10 -72.5t42 -24.5q31 0 41 24.5zM120 681
q-37 39 -37 107h77q1 -38 16.5 -56t50.5 -18q36 0 51.5 18.5t15.5 55.5h78q0 -68 -37 -107t-108 -39q-70 0 -107 39z" />
    <glyph glyph-name="Ohungarumlaut" unicode="&#x150;" horiz-adv-x="563" 
d="M102 56.5q-54 67.5 -54 197.5v304q0 129 54 195t180 66q125 0 179 -66t54 -195v-304q0 -129 -54.5 -197t-178.5 -68q-126 0 -180 67.5zM348 129q17 31 17 90v373q0 59 -16.5 89t-66.5 30t-67 -30.5t-17 -88.5v-373q0 -59 17 -90t67 -31q49 0 66 31zM220 1063h111
l-91 -195h-70zM384 1063h125l-116 -195h-70z" />
    <glyph glyph-name="ohungarumlaut" unicode="&#x151;" horiz-adv-x="455" 
d="M88 42.5q-46 51.5 -46 149.5v194q0 98 46 149.5t139 51.5t139.5 -51.5t46.5 -149.5v-194q0 -98 -46.5 -149.5t-139.5 -51.5t-139 51.5zM269 109.5q10 24.5 10 72.5v213q0 48 -10 73t-41 25q-32 0 -42 -25t-10 -73v-213q0 -48 10 -72.5t42 -24.5q31 0 41 24.5zM165 831
h111l-91 -195h-70zM329 831h125l-116 -195h-70z" />
    <glyph glyph-name="OE" unicode="&#x152;" horiz-adv-x="701" 
d="M104 66q-56 66 -56 197v269q0 133 55.5 204.5t183.5 71.5h386v-103h-182v-235h142v-104h-142v-265h183v-101h-382q-132 0 -188 66zM344 104v600h-52q-44 0 -64.5 -20t-26 -53.5t-5.5 -91.5v-288q0 -52 6 -82.5t27 -47.5t64 -17h51z" />
    <glyph glyph-name="oe" unicode="&#x153;" horiz-adv-x="695" 
d="M92.5 41q-43.5 51 -43.5 147v213q0 94 43 143.5t129 49.5q44 0 80 -19t51 -52q14 34 52 52.5t82 18.5q92 0 128 -56t36 -167v-87h-227v-70q0 -63 10.5 -96.5t41.5 -33.5q23 0 33.5 18t10.5 54v59h131v-58q0 -167 -160 -167q-52 0 -88 18.5t-52 52.5q-35 -71 -132 -71
q-82 0 -125.5 51zM273.5 108.5q10.5 24.5 10.5 76.5v220q0 47 -10.5 71.5t-40.5 24.5q-29 0 -39.5 -24.5t-10.5 -71.5v-219q0 -49 10 -75.5t39 -26.5q31 0 41.5 24.5zM520 355v57q0 89 -49 89q-48 0 -48 -89v-57h97z" />
    <glyph glyph-name="Racute" unicode="&#x154;" horiz-adv-x="561" 
d="M61 810h195q128 0 191 -48.5t63 -166.5q0 -77 -22.5 -125.5t-77.5 -70.5l113 -399h-148l-97 371h-70v-371h-147v810zM255 463q63 0 89.5 29t26.5 95q0 64 -23.5 93t-84.5 29h-55v-246h47zM300 1066h138l-119 -200h-79z" />
    <glyph glyph-name="racute" unicode="&#x155;" horiz-adv-x="353" 
d="M55 578h136v-89q29 51 59 73.5t67 22.5q13 0 21 -2v-141q-32 12 -56 12q-54 0 -91 -56v-398h-136v578zM210 834h138l-119 -200h-79z" />
    <glyph glyph-name="Rcommaaccent" unicode="&#x156;" horiz-adv-x="561" 
d="M61 810h195q128 0 191 -48.5t63 -166.5q0 -77 -22.5 -125.5t-77.5 -70.5l113 -399h-148l-97 371h-70v-371h-147v810zM255 463q63 0 89.5 29t26.5 95q0 64 -23.5 93t-84.5 29h-55v-246h47zM222 -270q31 4 47.5 21t16.5 51h-71v131h132v-117q-1 -67 -25 -102.5t-81 -36.5z
" />
    <glyph glyph-name="rcommaaccent" unicode="&#x157;" horiz-adv-x="353" 
d="M55 578h136v-89q29 51 59 73.5t67 22.5q13 0 21 -2v-141q-32 12 -56 12q-54 0 -91 -56v-398h-136v578zM64 -270q31 4 47.5 21t16.5 51h-71v131h132v-117q-1 -67 -25 -102.5t-81 -36.5z" />
    <glyph glyph-name="Rcaron" unicode="&#x158;" horiz-adv-x="561" 
d="M61 810h195q128 0 191 -48.5t63 -166.5q0 -77 -22.5 -125.5t-77.5 -70.5l113 -399h-148l-97 371h-70v-371h-147v810zM255 463q63 0 89.5 29t26.5 95q0 64 -23.5 93t-84.5 29h-55v-246h47zM127 1050h100l54 -113l54 113h100l-88 -180h-133z" />
    <glyph glyph-name="rcaron" unicode="&#x159;" horiz-adv-x="353" 
d="M55 578h136v-89q29 51 59 73.5t67 22.5q13 0 21 -2v-141q-32 12 -56 12q-54 0 -91 -56v-398h-136v578zM37 818h100l54 -113l54 113h100l-88 -180h-133z" />
    <glyph glyph-name="Sacute" unicode="&#x15a;" horiz-adv-x="494" 
d="M100.5 51q-54.5 62 -59.5 185l127 25q3 -77 24.5 -117.5t67.5 -40.5q34 0 50.5 20.5t16.5 55.5q0 48 -21.5 81.5t-67.5 73.5l-102 89q-47 40 -70.5 86t-23.5 110q0 95 55.5 147.5t153.5 52.5q105 0 150.5 -59.5t52.5 -160.5l-127 -22q-3 66 -18.5 99.5t-60.5 33.5
q-32 0 -50 -21.5t-18 -54.5q0 -39 15.5 -65.5t50.5 -56.5l101 -89q57 -49 89 -105t32 -130q0 -58 -25.5 -103t-71.5 -70.5t-106 -25.5q-110 0 -164.5 62zM266 1066h138l-119 -200h-79z" />
    <glyph glyph-name="sacute" unicode="&#x15b;" horiz-adv-x="400" 
d="M89 30q-47 39 -67 114l101 39q23 -97 84 -97q23 0 35.5 12t12.5 33q0 23 -14 42.5t-50 49.5l-69 60q-44 36 -65 70t-21 83q0 68 46.5 109.5t117.5 41.5q68 0 111 -40.5t56 -109.5l-89 -38q-8 40 -26.5 65.5t-47.5 25.5q-21 0 -33.5 -13t-12.5 -33q0 -16 14 -34t42 -42
l70 -64q45 -39 69.5 -74.5t24.5 -85.5q0 -73 -47.5 -113t-121.5 -40q-73 0 -120 39zM219 834h138l-119 -200h-79z" />
    <glyph glyph-name="Scircumflex" unicode="&#x15c;" horiz-adv-x="494" 
d="M100.5 51q-54.5 62 -59.5 185l127 25q3 -77 24.5 -117.5t67.5 -40.5q34 0 50.5 20.5t16.5 55.5q0 48 -21.5 81.5t-67.5 73.5l-102 89q-47 40 -70.5 86t-23.5 110q0 95 55.5 147.5t153.5 52.5q105 0 150.5 -59.5t52.5 -160.5l-127 -22q-3 66 -18.5 99.5t-60.5 33.5
q-32 0 -50 -21.5t-18 -54.5q0 -39 15.5 -65.5t50.5 -56.5l101 -89q57 -49 89 -105t32 -130q0 -58 -25.5 -103t-71.5 -70.5t-106 -25.5q-110 0 -164.5 62zM185 1058h122l92 -184h-101l-52 120l-51 -120h-100z" />
    <glyph glyph-name="scircumflex" unicode="&#x15d;" horiz-adv-x="400" 
d="M89 30q-47 39 -67 114l101 39q23 -97 84 -97q23 0 35.5 12t12.5 33q0 23 -14 42.5t-50 49.5l-69 60q-44 36 -65 70t-21 83q0 68 46.5 109.5t117.5 41.5q68 0 111 -40.5t56 -109.5l-89 -38q-8 40 -26.5 65.5t-47.5 25.5q-21 0 -33.5 -13t-12.5 -33q0 -16 14 -34t42 -42
l70 -64q45 -39 69.5 -74.5t24.5 -85.5q0 -73 -47.5 -113t-121.5 -40q-73 0 -120 39zM138 826h122l92 -184h-101l-52 120l-51 -120h-100z" />
    <glyph glyph-name="Scedilla" unicode="&#x15e;" horiz-adv-x="494" 
d="M100.5 51q-54.5 62 -59.5 185l127 25q3 -77 24.5 -117.5t67.5 -40.5q34 0 50.5 20.5t16.5 55.5q0 48 -21.5 81.5t-67.5 73.5l-102 89q-47 40 -70.5 86t-23.5 110q0 95 55.5 147.5t153.5 52.5q105 0 150.5 -59.5t52.5 -160.5l-127 -22q-3 66 -18.5 99.5t-60.5 33.5
q-32 0 -50 -21.5t-18 -54.5q0 -39 15.5 -65.5t50.5 -56.5l101 -89q57 -49 89 -105t32 -130q0 -58 -25.5 -103t-71.5 -70.5t-106 -25.5q-110 0 -164.5 62zM192 -246v63q24 -8 54 -8q61 0 61 37q0 45 -88 54v100h57v-61q57 0 90.5 -24.5t33.5 -70.5q0 -50 -38.5 -75.5
t-97.5 -25.5q-34 0 -72 11z" />
    <glyph glyph-name="scedilla" unicode="&#x15f;" horiz-adv-x="400" 
d="M89 30q-47 39 -67 114l101 39q23 -97 84 -97q23 0 35.5 12t12.5 33q0 23 -14 42.5t-50 49.5l-69 60q-44 36 -65 70t-21 83q0 68 46.5 109.5t117.5 41.5q68 0 111 -40.5t56 -109.5l-89 -38q-8 40 -26.5 65.5t-47.5 25.5q-21 0 -33.5 -13t-12.5 -33q0 -16 14 -34t42 -42
l70 -64q45 -39 69.5 -74.5t24.5 -85.5q0 -73 -47.5 -113t-121.5 -40q-73 0 -120 39zM145 -246v63q24 -8 54 -8q61 0 61 37q0 45 -88 54v100h57v-61q57 0 90.5 -24.5t33.5 -70.5q0 -50 -38.5 -75.5t-97.5 -25.5q-34 0 -72 11z" />
    <glyph glyph-name="Scaron" unicode="&#x160;" horiz-adv-x="494" 
d="M100.5 51q-54.5 62 -59.5 185l127 25q3 -77 24.5 -117.5t67.5 -40.5q34 0 50.5 20.5t16.5 55.5q0 48 -21.5 81.5t-67.5 73.5l-102 89q-47 40 -70.5 86t-23.5 110q0 95 55.5 147.5t153.5 52.5q105 0 150.5 -59.5t52.5 -160.5l-127 -22q-3 66 -18.5 99.5t-60.5 33.5
q-32 0 -50 -21.5t-18 -54.5q0 -39 15.5 -65.5t50.5 -56.5l101 -89q57 -49 89 -105t32 -130q0 -58 -25.5 -103t-71.5 -70.5t-106 -25.5q-110 0 -164.5 62zM93 1050h100l54 -113l54 113h100l-88 -180h-133z" />
    <glyph glyph-name="scaron" unicode="&#x161;" horiz-adv-x="400" 
d="M89 30q-47 39 -67 114l101 39q23 -97 84 -97q23 0 35.5 12t12.5 33q0 23 -14 42.5t-50 49.5l-69 60q-44 36 -65 70t-21 83q0 68 46.5 109.5t117.5 41.5q68 0 111 -40.5t56 -109.5l-89 -38q-8 40 -26.5 65.5t-47.5 25.5q-21 0 -33.5 -13t-12.5 -33q0 -16 14 -34t42 -42
l70 -64q45 -39 69.5 -74.5t24.5 -85.5q0 -73 -47.5 -113t-121.5 -40q-73 0 -120 39zM46 818h100l54 -113l54 113h100l-88 -180h-133z" />
    <glyph glyph-name="uni0162" unicode="&#x162;" horiz-adv-x="429" 
d="M142 701h-129v109h403v-109h-126v-701h-148v701zM159 -246v63q24 -8 54 -8q61 0 61 37q0 45 -88 54v100h57v-61q57 0 90.5 -24.5t33.5 -70.5q0 -50 -38.5 -75.5t-97.5 -25.5q-34 0 -72 11z" />
    <glyph glyph-name="uni0163" unicode="&#x163;" horiz-adv-x="332" 
d="M107.5 31q-32.5 38 -32.5 113v345h-58v89h58v173h137v-173h87v-89h-87v-333q0 -29 12.5 -42t39.5 -13q25 0 42 4v-105q-40 -7 -87 -7q-79 0 -111.5 38zM158 -246v63q24 -8 54 -8q61 0 61 37q0 45 -88 54v100h57v-61q57 0 90.5 -24.5t33.5 -70.5q0 -50 -38.5 -75.5
t-97.5 -25.5q-34 0 -72 11z" />
    <glyph glyph-name="Tcaron" unicode="&#x164;" horiz-adv-x="429" 
d="M142 701h-129v109h403v-109h-126v-701h-148v701zM60 1050h100l54 -113l54 113h100l-88 -180h-133z" />
    <glyph glyph-name="tcaron" unicode="&#x165;" horiz-adv-x="385" 
d="M107.5 31q-32.5 38 -32.5 113v345h-58v89h58v173h137v-173h87v-89h-87v-333q0 -29 12.5 -42t39.5 -13q25 0 42 4v-105q-40 -7 -87 -7q-79 0 -111.5 38zM263 672q29 8 47 29.5t18 56.5h-72v135h133v-123q0 -64 -28 -100t-85 -47z" />
    <glyph glyph-name="Tbar" unicode="&#x166;" horiz-adv-x="424" 
d="M290 701v-246h93v-75h-93v-380h-148v380h-99v75h99v246h-129v109h403v-109h-126z" />
    <glyph glyph-name="tbar" unicode="&#x167;" horiz-adv-x="292" 
d="M306 105v-105q-40 -7 -87 -7q-79 0 -111.5 38t-32.5 113v177h-56v63h56v105h-58v89h58v173h137v-173h87v-89h-87v-105h91v-63h-91v-165q0 -29 12.5 -42t39.5 -13q25 0 42 4z" />
    <glyph glyph-name="Utilde" unicode="&#x168;" horiz-adv-x="566" 
d="M145 21q-50 32 -70 91t-20 150v548h144v-565q0 -70 16.5 -108t67.5 -38q52 0 68.5 38t16.5 108v565h143v-548q0 -90 -20 -149.5t-70 -91.5t-138 -32t-138 32zM327 922.5q-16 6.5 -36 19.5q-18 10 -30.5 15.5t-25.5 5.5q-19 0 -27 -10.5t-8 -30.5h-70q0 126 85 126
q17 0 31.5 -6t35.5 -18q20 -11 32 -16.5t26 -5.5q32 0 32 40h66q0 -57 -16 -91.5t-60 -34.5q-19 0 -35 6.5z" />
    <glyph glyph-name="utilde" unicode="&#x169;" horiz-adv-x="473" 
d="M72 27q-24 36 -24 91v460h135v-435q0 -27 9 -41t31 -14q23 0 61 27v463h136v-578h-136v55q-67 -64 -139 -64q-49 0 -73 36zM279 690.5q-16 6.5 -36 19.5q-18 10 -30.5 15.5t-25.5 5.5q-19 0 -27 -10.5t-8 -30.5h-70q0 126 85 126q17 0 31.5 -6t35.5 -18q20 -11 32 -16.5
t26 -5.5q32 0 32 40h66q0 -57 -16 -91.5t-60 -34.5q-19 0 -35 6.5z" />
    <glyph glyph-name="Umacron" unicode="&#x16a;" horiz-adv-x="566" 
d="M145 21q-50 32 -70 91t-20 150v548h144v-565q0 -70 16.5 -108t67.5 -38q52 0 68.5 38t16.5 108v565h143v-548q0 -90 -20 -149.5t-70 -91.5t-138 -32t-138 32zM166 978h236v-71h-236v71z" />
    <glyph glyph-name="umacron" unicode="&#x16b;" horiz-adv-x="473" 
d="M72 27q-24 36 -24 91v460h135v-435q0 -27 9 -41t31 -14q23 0 61 27v463h136v-578h-136v55q-67 -64 -139 -64q-49 0 -73 36zM118 746h236v-71h-236v71z" />
    <glyph glyph-name="Ubreve" unicode="&#x16c;" horiz-adv-x="566" 
d="M145 21q-50 32 -70 91t-20 150v548h144v-565q0 -70 16.5 -108t67.5 -38q52 0 68.5 38t16.5 108v565h143v-548q0 -90 -20 -149.5t-70 -91.5t-138 -32t-138 32zM177 913q-37 39 -37 107h77q1 -38 16.5 -56t50.5 -18q36 0 51.5 18.5t15.5 55.5h78q0 -68 -37 -107t-108 -39
q-70 0 -107 39z" />
    <glyph glyph-name="ubreve" unicode="&#x16d;" horiz-adv-x="473" 
d="M72 27q-24 36 -24 91v460h135v-435q0 -27 9 -41t31 -14q23 0 61 27v463h136v-578h-136v55q-67 -64 -139 -64q-49 0 -73 36zM129 681q-37 39 -37 107h77q1 -38 16.5 -56t50.5 -18q36 0 51.5 18.5t15.5 55.5h78q0 -68 -37 -107t-108 -39q-70 0 -107 39z" />
    <glyph glyph-name="Uring" unicode="&#x16e;" horiz-adv-x="566" 
d="M145 21q-50 32 -70 91t-20 150v548h144v-565q0 -70 16.5 -108t67.5 -38q52 0 68.5 38t16.5 108v565h143v-548q0 -90 -20 -149.5t-70 -91.5t-138 -32t-138 32zM202 871q-32 30 -32 81t32 80.5t82 29.5t82 -29.5t32 -80.5t-32 -81t-82 -30t-82 30zM322.5 912.5
q14.5 15.5 14.5 39.5q0 25 -14 40t-39 15t-39.5 -15t-14.5 -40q0 -24 14.5 -39.5t39.5 -15.5q24 0 38.5 15.5z" />
    <glyph glyph-name="uring" unicode="&#x16f;" horiz-adv-x="473" 
d="M72 27q-24 36 -24 91v460h135v-435q0 -27 9 -41t31 -14q23 0 61 27v463h136v-578h-136v55q-67 -64 -139 -64q-49 0 -73 36zM154 639q-32 30 -32 81t32 80.5t82 29.5t82 -29.5t32 -80.5t-32 -81t-82 -30t-82 30zM274.5 680.5q14.5 15.5 14.5 39.5q0 25 -14 40t-39 15
t-39.5 -15t-14.5 -40q0 -24 14.5 -39.5t39.5 -15.5q24 0 38.5 15.5z" />
    <glyph glyph-name="Uhungarumlaut" unicode="&#x170;" horiz-adv-x="566" 
d="M145 21q-50 32 -70 91t-20 150v548h144v-565q0 -70 16.5 -108t67.5 -38q52 0 68.5 38t16.5 108v565h143v-548q0 -90 -20 -149.5t-70 -91.5t-138 -32t-138 32zM222 1063h111l-91 -195h-70zM386 1063h125l-116 -195h-70z" />
    <glyph glyph-name="uhungarumlaut" unicode="&#x171;" horiz-adv-x="473" 
d="M72 27q-24 36 -24 91v460h135v-435q0 -27 9 -41t31 -14q23 0 61 27v463h136v-578h-136v55q-67 -64 -139 -64q-49 0 -73 36zM174 831h111l-91 -195h-70zM338 831h125l-116 -195h-70z" />
    <glyph glyph-name="Uogonek" unicode="&#x172;" horiz-adv-x="566" 
d="M145 21q-50 32 -70 91t-20 150v548h144v-565q0 -70 16.5 -108t67.5 -38q52 0 68.5 38t16.5 108v565h143v-548q0 -90 -20 -149.5t-70 -91.5t-138 -32t-138 32zM232.5 -226q-41.5 20 -41.5 77q0 42 28.5 85t65.5 64h64q-60 -73 -60 -125q0 -54 72 -54q13 0 31 2l-17 -66
q-15 -3 -35 -3q-66 0 -107.5 20z" />
    <glyph glyph-name="uogonek" unicode="&#x173;" horiz-adv-x="473" 
d="M72 27q-24 36 -24 91v460h135v-435q0 -27 9 -41t31 -14q23 0 61 27v463h136v-578h-136v55q-67 -64 -139 -64q-49 0 -73 36zM268.5 -226q-41.5 20 -41.5 77q0 42 28.5 85t65.5 64h64q-60 -73 -60 -125q0 -54 72 -54q13 0 31 2l-17 -66q-15 -3 -35 -3q-66 0 -107.5 20z" />
    <glyph glyph-name="Wcircumflex" unicode="&#x174;" horiz-adv-x="713" 
d="M32 810h123l67 -525l84 523h100l87 -523l66 525h122l-113 -810h-120l-90 543l-89 -543h-123zM295 1058h122l92 -184h-101l-52 120l-51 -120h-100z" />
    <glyph glyph-name="wcircumflex" unicode="&#x175;" horiz-adv-x="593" 
d="M24 578h113l51 -376l61 376h100l57 -378l54 378h108l-91 -578h-115l-64 365l-67 -365h-118zM234 826h122l92 -184h-101l-52 120l-51 -120h-100z" />
    <glyph glyph-name="Ycircumflex" unicode="&#x176;" horiz-adv-x="487" 
d="M174 309l-164 501h138l100 -321l94 321h135l-162 -501v-309h-141v309zM182 1058h122l92 -184h-101l-52 120l-51 -120h-100z" />
    <glyph glyph-name="ycircumflex" unicode="&#x177;" horiz-adv-x="421" 
d="M56 -59q54 0 76.5 9.5t22.5 36.5q0 18 -21 102l-127 489h132l75 -382l65 382h131l-135 -601q-17 -73 -64.5 -103.5t-128.5 -30.5h-26v98zM148 826h122l92 -184h-101l-52 120l-51 -120h-100z" />
    <glyph glyph-name="Ydieresis" unicode="&#x178;" horiz-adv-x="487" 
d="M174 309l-164 501h138l100 -321l94 321h135l-162 -501v-309h-141v309zM86 1042h120v-130h-120v130zM282 1042h120v-130h-120v130z" />
    <glyph glyph-name="Zacute" unicode="&#x179;" horiz-adv-x="425" 
d="M34 95l217 613h-206v102h355v-76l-226 -633h227v-101h-367v95zM232 1066h138l-119 -200h-79z" />
    <glyph glyph-name="zacute" unicode="&#x17a;" horiz-adv-x="370" 
d="M34 89l167 389h-153v100h296v-79l-168 -398h168v-101h-310v89zM205 834h138l-119 -200h-79z" />
    <glyph glyph-name="Zdotaccent" unicode="&#x17b;" horiz-adv-x="425" 
d="M34 95l217 613h-206v102h355v-76l-226 -633h227v-101h-367v95zM147 1030h132v-137h-132v137z" />
    <glyph glyph-name="zdotaccent" unicode="&#x17c;" horiz-adv-x="370" 
d="M34 89l167 389h-153v100h296v-79l-168 -398h168v-101h-310v89zM120 798h132v-137h-132v137z" />
    <glyph glyph-name="Zcaron" unicode="&#x17d;" horiz-adv-x="425" 
d="M34 95l217 613h-206v102h355v-76l-226 -633h227v-101h-367v95zM59 1050h100l54 -113l54 113h100l-88 -180h-133z" />
    <glyph glyph-name="zcaron" unicode="&#x17e;" horiz-adv-x="370" 
d="M34 89l167 389h-153v100h296v-79l-168 -398h168v-101h-310v89zM32 818h100l54 -113l54 113h100l-88 -180h-133z" />
    <glyph glyph-name="longs" unicode="&#x17f;" horiz-adv-x="304" 
d="M80 483h-62v95h62v37q0 59 10 95t41 56t91 20q33 0 74 -6v-100q-27 5 -37 5q-24 0 -34 -15t-10 -45v-625h-135v483z" />
    <glyph glyph-name="uni018F" unicode="&#x18f;" horiz-adv-x="559" 
d="M102 55q-58 66 -58 190v176h317v175q0 60 -18 87.5t-65 27.5t-65.5 -27.5t-18.5 -87.5v-94h-150v66q0 123 58 187t177 64q115 0 173.5 -67t58.5 -189v-315q0 -123 -58.5 -191t-173.5 -68q-119 0 -177 66zM343 126.5q18 28.5 18 88.5v107h-167v-107q0 -60 18.5 -88.5
t65.5 -28.5t65 28.5z" />
    <glyph glyph-name="florin" unicode="&#x192;" horiz-adv-x="422" 
d="M11 -145l10 101q25 -5 36 -5q24 0 35.5 14.5t14.5 44.5l50 471h-62v97h72l5 40q6 57 20 93t47 55.5t93 19.5q25 0 72 -5l-10 -101q-7 1 -18.5 3t-17.5 2q-24 0 -36 -15t-15 -45l-4 -47h70v-97h-81l-49 -464q-6 -57 -20 -93t-47 -55.5t-93 -19.5q-30 0 -72 6z" />
    <glyph glyph-name="Ohorn" unicode="&#x1a0;" horiz-adv-x="563" 
d="M102 56.5q-54 67.5 -54 197.5v304q0 129 54 195t180 66q125 0 179 -66t54 -195v-304q0 -129 -54.5 -197t-178.5 -68q-126 0 -180 67.5zM348 129q17 31 17 90v373q0 59 -16.5 89t-66.5 30t-67 -30.5t-17 -88.5v-373q0 -59 17 -90t67 -31q49 0 66 31zM330 810h20
q29 0 41.5 19t12.5 61h99q0 -69 -40.5 -105t-111.5 -36h-21v61z" />
    <glyph glyph-name="ohorn" unicode="&#x1a1;" horiz-adv-x="455" 
d="M88 42.5q-46 51.5 -46 149.5v194q0 98 46 149.5t139 51.5t139.5 -51.5t46.5 -149.5v-194q0 -98 -46.5 -149.5t-139.5 -51.5t-139 51.5zM269 109.5q10 24.5 10 72.5v213q0 48 -10 73t-41 25q-32 0 -42 -25t-10 -73v-213q0 -48 10 -72.5t42 -24.5q31 0 41 24.5zM250 578h10
q29 0 41.5 19t12.5 61h99q0 -69 -40.5 -105t-111.5 -36h-11v61z" />
    <glyph glyph-name="Uhorn" unicode="&#x1af;" horiz-adv-x="566" 
d="M145 21q-50 32 -70 91t-20 150v548h144v-565q0 -70 16.5 -108t67.5 -38q52 0 68.5 38t16.5 108v565h143v-548q0 -90 -20 -149.5t-70 -91.5t-138 -32t-138 32zM419 810h10q29 0 41.5 19t12.5 61h99q0 -69 -40.5 -105t-111.5 -36h-11v61z" />
    <glyph glyph-name="uhorn" unicode="&#x1b0;" horiz-adv-x="473" 
d="M72 27q-24 36 -24 91v460h135v-435q0 -27 9 -41t31 -14q23 0 61 27v463h136v-578h-136v55q-67 -64 -139 -64q-49 0 -73 36zM317 578h10q29 0 41.5 19t12.5 61h99q0 -69 -40.5 -105t-111.5 -36h-11v61z" />
    <glyph glyph-name="uni01B7" unicode="&#x1b7;" horiz-adv-x="480" 
d="M404 428q45 -67 45 -194q0 -116 -51 -181t-160 -65q-212 0 -212 232v28h138v-24q0 -66 16.5 -97t58.5 -31q43 0 58 32.5t15 102.5q0 67 -11 106t-39.5 57.5t-81.5 18.5h-86v78l162 217h-209v102h367v-76l-177 -239h8q114 0 159 -67z" />
    <glyph glyph-name="uni01C4" unicode="&#x1c4;" horiz-adv-x="978" 
d="M61 810h191q98 0 154 -26.5t79.5 -81t23.5 -144.5v-295q0 -92 -23.5 -149t-78.5 -85.5t-149 -28.5h-197v810zM254 103q49 0 71 17t28 47.5t6 90.5v310q0 54 -7 82t-29.5 41.5t-70.5 13.5h-44v-602h46zM587 95l217 613h-206v102h355v-76l-226 -633h227v-101h-367v95z
M612 1050h100l54 -113l54 113h100l-88 -180h-133z" />
    <glyph glyph-name="uni01C5" unicode="&#x1c5;" horiz-adv-x="927" 
d="M61 810h191q98 0 154 -26.5t79.5 -81t23.5 -144.5v-295q0 -92 -23.5 -149t-78.5 -85.5t-149 -28.5h-197v810zM254 103q49 0 71 17t28 47.5t6 90.5v310q0 54 -7 82t-29.5 41.5t-70.5 13.5h-44v-602h46zM591 89l167 389h-153v100h296v-79l-168 -398h168v-101h-310v89z
M589 818h100l54 -113l54 113h100l-88 -180h-133z" />
    <glyph glyph-name="uni01C6" unicode="&#x1c6;" horiz-adv-x="844" 
d="M77.5 40.5q-34.5 49.5 -34.5 156.5v177q0 98 32.5 155.5t105.5 57.5q56 0 104 -46v269h137v-810h-137v41q-48 -50 -103 -50q-70 0 -104.5 49.5zM285 104v371q-26 19 -54 19q-52 0 -52 -91v-216q0 -49 11 -75.5t41 -26.5q26 0 54 19zM508 89l167 389h-153v100h296v-79
l-168 -398h168v-101h-310v89zM506 818h100l54 -113l54 113h100l-88 -180h-133z" />
    <glyph glyph-name="uni01C7" unicode="&#x1c7;" horiz-adv-x="747" 
d="M61 810h147v-709h197v-101h-344v810zM431 84q45 0 67 7.5t31 29t9 64.5v625h147v-629q0 -71 -16 -114.5t-56 -65t-111 -21.5h-71v104z" />
    <glyph glyph-name="uni01C8" unicode="&#x1c8;" horiz-adv-x="675" 
d="M61 810h147v-709h197v-101h-344v810zM487 783h137v-113h-137v113zM407 -153v97q24 -3 29 -3q52 0 52 59v578h135v-594q0 -69 -37.5 -108.5t-106.5 -39.5q-43 0 -72 11z" />
    <glyph glyph-name="uni01C9" unicode="&#x1c9;" horiz-adv-x="506" 
d="M61 810h135v-810h-135v810zM318 783h137v-113h-137v113zM238 -153v97q24 -3 29 -3q52 0 52 59v578h135v-594q0 -69 -37.5 -108.5t-106.5 -39.5q-43 0 -72 11z" />
    <glyph glyph-name="uni01CA" unicode="&#x1ca;" horiz-adv-x="871" 
d="M61 810h103l197 -462v462h122v-810h-98l-198 484v-484h-126v810zM555 84q45 0 67 7.5t31 29t9 64.5v625h147v-629q0 -71 -16 -114.5t-56 -65t-111 -21.5h-71v104z" />
    <glyph glyph-name="uni01CB" unicode="&#x1cb;" horiz-adv-x="799" 
d="M61 810h103l197 -462v462h122v-810h-98l-198 484v-484h-126v810zM611 783h137v-113h-137v113zM531 -153v97q24 -3 29 -3q52 0 52 59v578h135v-594q0 -69 -37.5 -108.5t-106.5 -39.5q-43 0 -72 11z" />
    <glyph glyph-name="uni01CC" unicode="&#x1cc;" horiz-adv-x="728" 
d="M52 578h136v-57q69 66 140 66q49 0 73.5 -36t24.5 -91v-460h-136v433q0 28 -8.5 41t-30.5 13q-24 0 -63 -28v-459h-136v578zM540 783h137v-113h-137v113zM460 -153v97q24 -3 29 -3q52 0 52 59v578h135v-594q0 -69 -37.5 -108.5t-106.5 -39.5q-43 0 -72 11z" />
    <glyph glyph-name="uni01CD" unicode="&#x1cd;" horiz-adv-x="522" 
d="M182 810h158l162 -810h-137l-32 187h-141l-33 -187h-139zM317 281l-55 340l-55 -340h110zM108 1050h100l54 -113l54 113h100l-88 -180h-133z" />
    <glyph glyph-name="uni01CE" unicode="&#x1ce;" horiz-adv-x="452" 
d="M98.5 11q-28.5 20 -44 51.5t-15.5 65.5q0 67 31.5 110.5t78 67.5t123.5 53v50q0 40 -9.5 58.5t-36.5 18.5q-46 0 -48 -64l-2 -35l-129 5q3 100 49.5 147.5t140.5 47.5q85 0 126 -46.5t41 -131.5v-267q0 -62 10 -142h-122q-10 54 -14 83q-12 -39 -40.5 -65.5t-73.5 -26.5
q-37 0 -65.5 20zM246.5 104q15.5 12 25.5 26v162q-53 -31 -79 -59.5t-26 -71.5q0 -32 12.5 -50.5t34.5 -18.5q17 0 32.5 12zM83 818h100l54 -113l54 113h100l-88 -180h-133z" />
    <glyph glyph-name="uni01D3" unicode="&#x1d3;" horiz-adv-x="566" 
d="M145 21q-50 32 -70 91t-20 150v548h144v-565q0 -70 16.5 -108t67.5 -38q52 0 68.5 38t16.5 108v565h143v-548q0 -90 -20 -149.5t-70 -91.5t-138 -32t-138 32zM130 1050h100l54 -113l54 113h100l-88 -180h-133z" />
    <glyph glyph-name="uni01D4" unicode="&#x1d4;" horiz-adv-x="473" 
d="M72 27q-24 36 -24 91v460h135v-435q0 -27 9 -41t31 -14q23 0 61 27v463h136v-578h-136v55q-67 -64 -139 -64q-49 0 -73 36zM82 818h100l54 -113l54 113h100l-88 -180h-133z" />
    <glyph glyph-name="uni01E4" unicode="&#x1e4;" horiz-adv-x="559" 
d="M562 198h-55v-198h-96l-10 79q-38 -90 -137 -90q-115 0 -165.5 71.5t-50.5 206.5v272q0 139 52 209.5t179 70.5q120 0 172 -59.5t52 -176.5v-42h-141v46q0 44 -5.5 70t-23 40t-52.5 14q-37 0 -55 -18t-23.5 -46t-5.5 -73v-339q0 -69 18.5 -103t69.5 -34q42 0 62 25.5
t25 74.5h-54v77h56v43h-87v93h220v-136h55v-77z" />
    <glyph glyph-name="uni01E5" unicode="&#x1e5;" horiz-adv-x="469" 
d="M406 83.5q34 -31.5 40 -90.5h36v-51h-37q-8 -66 -62.5 -99t-160.5 -33q-93 0 -146.5 29t-53.5 90q0 9 1 13h-35v51h55q21 31 65 51q-32 10 -49.5 28.5t-17.5 41.5q0 32 15.5 56t48.5 53q-31 25 -46.5 63.5t-15.5 97.5q0 99 47.5 151t138.5 52q88 0 128 -54q9 14 29 31
t45 29l19 8l32 -73q-18 -5 -49 -17.5t-45 -21.5q9 -20 15 -50t6 -57q0 -95 -44 -147.5t-136 -52.5q-40 0 -78 12q-17 -21 -17 -36q0 -10 11.5 -15.5t40.5 -8.5l121 -12q65 -7 99 -38.5zM183 474.5q-12 -26.5 -12 -90.5q0 -60 12 -88t46 -28t45 26t11 90q0 63 -11 90t-45 27
t-46 -26.5zM133 -7h211q-7 13 -25 19.5t-53 10.5l-99 9q-25 -22 -34 -39zM308 -84q26 8 35 26h-212q8 -17 33 -25.5t73 -8.5q45 0 71 8z" />
    <glyph glyph-name="Gcaron" unicode="&#x1e6;" horiz-adv-x="559" 
d="M98.5 60.5q-50.5 71.5 -50.5 206.5v272q0 139 52 209.5t179 70.5q120 0 172 -59.5t52 -176.5v-42h-141v46q0 44 -5.5 70t-23 40t-52.5 14q-37 0 -55 -18t-23.5 -46t-5.5 -73v-339q0 -69 18.5 -103t69.5 -34q50 0 69.5 36t19.5 108v76h-87v93h220v-411h-96l-10 79
q-38 -90 -137 -90q-115 0 -165.5 71.5zM126 1050h100l54 -113l54 113h100l-88 -180h-133z" />
    <glyph glyph-name="gcaron" unicode="&#x1e7;" horiz-adv-x="469" 
d="M76 -161.5q-54 28.5 -54 85.5q0 38 24 66.5t63 46.5q-33 10 -50.5 29.5t-17.5 47.5q0 32 15.5 56t48.5 53q-31 25 -46.5 63.5t-15.5 97.5q0 99 47.5 151t138.5 52q88 0 128 -54q9 14 29 31t45 29l19 8l32 -73q-18 -5 -49 -17.5t-45 -21.5q9 -20 15 -50t6 -57
q0 -95 -44 -147.5t-136 -52.5q-40 0 -78 12q-17 -25 -17 -40q0 -12 12 -18.5t40 -9.5l121 -12q140 -15 140 -146q0 -79 -54.5 -118.5t-170.5 -39.5q-92 0 -146 28.5zM274 294q11 26 11 90q0 63 -11 90t-45 27t-46 -26.5t-12 -90.5q0 -60 12 -88t46 -28t45 26zM321.5 -76.5
q27.5 11.5 27.5 39.5q0 24 -17.5 35.5t-65.5 16.5l-99 9q-19 -16 -29 -30.5t-10 -32.5q0 -25 25 -37t84 -12q57 0 84.5 11.5zM81 818h100l54 -113l54 113h100l-88 -180h-133z" />
    <glyph glyph-name="uni01E8" unicode="&#x1e8;" horiz-adv-x="532" 
d="M61 810h147v-356l161 356h141l-155 -361l171 -449h-147l-135 368l-36 -61v-307h-147v810zM119 1050h100l54 -113l54 113h100l-88 -180h-133z" />
    <glyph glyph-name="uni01E9" unicode="&#x1e9;" horiz-adv-x="487" 
d="M54 811h135v-466l148 233h149l-145 -232l142 -346h-143l-105 285l-46 -64v-220h-135v810zM164 995h100l54 -113l54 113h100l-88 -180h-133z" />
    <glyph glyph-name="uni01EA" unicode="&#x1ea;" horiz-adv-x="563" 
d="M102 56.5q-54 67.5 -54 197.5v304q0 129 54 195t180 66q125 0 179 -66t54 -195v-304q0 -129 -54.5 -197t-178.5 -68q-126 0 -180 67.5zM348 129q17 31 17 90v373q0 59 -16.5 89t-66.5 30t-67 -30.5t-17 -88.5v-373q0 -59 17 -90t67 -31q49 0 66 31zM230.5 -226
q-41.5 20 -41.5 77q0 42 28.5 85t65.5 64h64q-60 -73 -60 -125q0 -54 72 -54q13 0 31 2l-17 -66q-15 -3 -35 -3q-66 0 -107.5 20z" />
    <glyph glyph-name="uni01EB" unicode="&#x1eb;" horiz-adv-x="455" 
d="M88 42.5q-46 51.5 -46 149.5v194q0 98 46 149.5t139 51.5t139.5 -51.5t46.5 -149.5v-194q0 -98 -46.5 -149.5t-139.5 -51.5t-139 51.5zM269 109.5q10 24.5 10 72.5v213q0 48 -10 73t-41 25q-32 0 -42 -25t-10 -73v-213q0 -48 10 -72.5t42 -24.5q31 0 41 24.5zM186.5 -221
q-41.5 20 -41.5 77q0 42 28.5 85t65.5 64h64q-60 -73 -60 -125q0 -54 72 -54q13 0 31 2l-17 -66q-15 -3 -35 -3q-66 0 -107.5 20z" />
    <glyph glyph-name="uni01EE" unicode="&#x1ee;" horiz-adv-x="480" 
d="M404 428q45 -67 45 -194q0 -116 -51 -181t-160 -65q-212 0 -212 232v28h138v-24q0 -66 16.5 -97t58.5 -31q43 0 58 32.5t15 102.5q0 67 -11 106t-39.5 57.5t-81.5 18.5h-86v78l162 217h-209v102h367v-76l-177 -239h8q114 0 159 -67zM86 1050h100l54 -113l54 113h100
l-88 -180h-133z" />
    <glyph glyph-name="uni01EF" unicode="&#x1ef;" horiz-adv-x="472" 
d="M398.5 227.5q45.5 -63.5 45.5 -181.5q0 -116 -50.5 -181t-160.5 -65q-106 0 -156.5 61t-50.5 171v27h134v-23q0 -70 16 -102.5t58 -32.5q43 0 58 34t15 108q0 63 -9.5 99.5t-34.5 54.5t-72 18h-82v82l141 181h-190v100h339v-79l-156 -205q110 -3 155.5 -66.5zM82 818h100
l54 -113l54 113h100l-88 -180h-133z" />
    <glyph glyph-name="uni01F1" unicode="&#x1f1;" horiz-adv-x="978" 
d="M61 810h191q98 0 154 -26.5t79.5 -81t23.5 -144.5v-295q0 -92 -23.5 -149t-78.5 -85.5t-149 -28.5h-197v810zM254 103q49 0 71 17t28 47.5t6 90.5v310q0 54 -7 82t-29.5 41.5t-70.5 13.5h-44v-602h46zM587 95l217 613h-206v102h355v-76l-226 -633h227v-101h-367v95z" />
    <glyph glyph-name="uni01F2" unicode="&#x1f2;" horiz-adv-x="927" 
d="M61 810h191q98 0 154 -26.5t79.5 -81t23.5 -144.5v-295q0 -92 -23.5 -149t-78.5 -85.5t-149 -28.5h-197v810zM254 103q49 0 71 17t28 47.5t6 90.5v310q0 54 -7 82t-29.5 41.5t-70.5 13.5h-44v-602h46zM591 89l167 389h-153v100h296v-79l-168 -398h168v-101h-310v89z" />
    <glyph glyph-name="uni01F3" unicode="&#x1f3;" horiz-adv-x="844" 
d="M77.5 40.5q-34.5 49.5 -34.5 156.5v177q0 98 32.5 155.5t105.5 57.5q56 0 104 -46v269h137v-810h-137v41q-48 -50 -103 -50q-70 0 -104.5 49.5zM285 104v371q-26 19 -54 19q-52 0 -52 -91v-216q0 -49 11 -75.5t41 -26.5q26 0 54 19zM508 89l167 389h-153v100h296v-79
l-168 -398h168v-101h-310v89z" />
    <glyph glyph-name="uni01F4" unicode="&#x1f4;" horiz-adv-x="559" 
d="M98.5 60.5q-50.5 71.5 -50.5 206.5v272q0 139 52 209.5t179 70.5q120 0 172 -59.5t52 -176.5v-42h-141v46q0 44 -5.5 70t-23 40t-52.5 14q-37 0 -55 -18t-23.5 -46t-5.5 -73v-339q0 -69 18.5 -103t69.5 -34q50 0 69.5 36t19.5 108v76h-87v93h220v-411h-96l-10 79
q-38 -90 -137 -90q-115 0 -165.5 71.5zM299 1066h138l-119 -200h-79z" />
    <glyph glyph-name="uni01F5" unicode="&#x1f5;" horiz-adv-x="469" 
d="M76 -161.5q-54 28.5 -54 85.5q0 38 24 66.5t63 46.5q-33 10 -50.5 29.5t-17.5 47.5q0 32 15.5 56t48.5 53q-31 25 -46.5 63.5t-15.5 97.5q0 99 47.5 151t138.5 52q88 0 128 -54q9 14 29 31t45 29l19 8l32 -73q-18 -5 -49 -17.5t-45 -21.5q9 -20 15 -50t6 -57
q0 -95 -44 -147.5t-136 -52.5q-40 0 -78 12q-17 -25 -17 -40q0 -12 12 -18.5t40 -9.5l121 -12q140 -15 140 -146q0 -79 -54.5 -118.5t-170.5 -39.5q-92 0 -146 28.5zM274 294q11 26 11 90q0 63 -11 90t-45 27t-46 -26.5t-12 -90.5q0 -60 12 -88t46 -28t45 26zM321.5 -76.5
q27.5 11.5 27.5 39.5q0 24 -17.5 35.5t-65.5 16.5l-99 9q-19 -16 -29 -30.5t-10 -32.5q0 -25 25 -37t84 -12q57 0 84.5 11.5zM254 834h138l-119 -200h-79z" />
    <glyph glyph-name="Aringacute" unicode="&#x1fa;" horiz-adv-x="522" 
d="M182 810h158l162 -810h-137l-32 187h-141l-33 -187h-139zM317 281l-55 340l-55 -340h110zM180 871q-32 30 -32 81t32 80.5t82 29.5t82 -29.5t32 -80.5t-32 -81t-82 -30t-82 30zM300.5 912.5q14.5 15.5 14.5 39.5q0 25 -14 40t-39 15t-39.5 -15t-14.5 -40
q0 -24 14.5 -39.5t39.5 -15.5q24 0 38.5 15.5zM281 1308h138l-119 -200h-79z" />
    <glyph glyph-name="aringacute" unicode="&#x1fb;" horiz-adv-x="452" 
d="M98.5 11q-28.5 20 -44 51.5t-15.5 65.5q0 67 31.5 110.5t78 67.5t123.5 53v50q0 40 -9.5 58.5t-36.5 18.5q-46 0 -48 -64l-2 -35l-129 5q3 100 49.5 147.5t140.5 47.5q85 0 126 -46.5t41 -131.5v-267q0 -62 10 -142h-122q-10 54 -14 83q-12 -39 -40.5 -65.5t-73.5 -26.5
q-37 0 -65.5 20zM246.5 104q15.5 12 25.5 26v162q-53 -31 -79 -59.5t-26 -71.5q0 -32 12.5 -50.5t34.5 -18.5q17 0 32.5 12zM155 639q-32 30 -32 81t32 80.5t82 29.5t82 -29.5t32 -80.5t-32 -81t-82 -30t-82 30zM275.5 680.5q14.5 15.5 14.5 39.5q0 25 -14 40t-39 15
t-39.5 -15t-14.5 -40q0 -24 14.5 -39.5t39.5 -15.5q24 0 38.5 15.5zM256 1076h138l-119 -200h-79z" />
    <glyph glyph-name="AEacute" unicode="&#x1fc;" horiz-adv-x="673" 
d="M316 804h332v-103h-187v-230h134v-104h-134v-265h187v-102h-318v187h-139l-78 -187h-144zM330 284v284l-106 -284h106zM415 1066h138l-119 -200h-79z" />
    <glyph glyph-name="aeacute" unicode="&#x1fd;" horiz-adv-x="665" 
d="M493 201h129v-35q0 -85 -40 -130.5t-119 -45.5q-56 0 -92.5 28t-45.5 78q-15 -50 -52 -78t-88 -28q-69 0 -107.5 38t-38.5 102q0 77 43.5 119t120.5 61l69 18v78q0 40 -11 59.5t-37 19.5q-27 0 -38.5 -21.5t-11.5 -68.5l-133 3q0 90 44.5 139.5t130.5 49.5q45 0 76 -18
t44 -49q15 30 52 48.5t84 18.5q74 0 112 -36.5t38 -99.5q0 -71 -39 -104t-111 -50l-69 -15v-120q0 -35 9.5 -53t35.5 -18t35.5 20t9.5 59v31zM403 348l35 8q35 8 51 25t16 49q0 24 -12 39t-37 15q-29 0 -41 -20t-12 -58v-58zM272 261l-39 -14q-35 -14 -51.5 -36.5
t-16.5 -56.5q0 -31 13 -49t38 -18q56 0 56 78v96zM352 834h138l-119 -200h-79z" />
    <glyph glyph-name="Oslashacute" unicode="&#x1fe;" horiz-adv-x="556" 
d="M492.5 700q22.5 -57 22.5 -142v-304q0 -129 -54.5 -197t-178.5 -68q-66 0 -114 20l-29 -91l-39 14l31 97q-44 32 -63.5 88.5t-19.5 136.5v304q0 129 54 195t180 66q56 0 100 -14l25 77l40 -12l-27 -83q50 -30 72.5 -87zM198 235l146 452q-21 24 -62 24q-50 0 -67 -30.5
t-17 -88.5v-357zM365 592q0 16 -1 23l-154 -477q19 -40 72 -40q49 0 66 31t17 90v373zM297 1066h138l-119 -200h-79z" />
    <glyph glyph-name="oslashacute" unicode="&#x1ff;" horiz-adv-x="452" 
d="M413 386v-194q0 -98 -46.5 -149.5t-139.5 -51.5q-49 0 -89 16l-38 -99l-34 14l39 104q-63 51 -63 166v194q0 98 46 149.5t139 51.5q49 0 85 -15l37 98l38 -14l-40 -103q66 -50 66 -167zM176 213l95 251q-11 29 -43 29t-42 -25t-10 -73v-182zM269 109.5q10 24.5 10 72.5
v193l-97 -254q10 -36 46 -36q31 0 41 24.5zM245 834h138l-119 -200h-79z" />
    <glyph glyph-name="uni0200" unicode="&#x200;" horiz-adv-x="522" 
d="M182 810h158l162 -810h-137l-32 187h-141l-33 -187h-139zM317 281l-55 340l-55 -340h110zM51 1060h117l61 -189h-72zM227 1060h103l50 -189h-71z" />
    <glyph glyph-name="uni0201" unicode="&#x201;" horiz-adv-x="452" 
d="M98.5 11q-28.5 20 -44 51.5t-15.5 65.5q0 67 31.5 110.5t78 67.5t123.5 53v50q0 40 -9.5 58.5t-36.5 18.5q-46 0 -48 -64l-2 -35l-129 5q3 100 49.5 147.5t140.5 47.5q85 0 126 -46.5t41 -131.5v-267q0 -62 10 -142h-122q-10 54 -14 83q-12 -39 -40.5 -65.5t-73.5 -26.5
q-37 0 -65.5 20zM246.5 104q15.5 12 25.5 26v162q-53 -31 -79 -59.5t-26 -71.5q0 -32 12.5 -50.5t34.5 -18.5q17 0 32.5 12zM26 828h117l61 -189h-72zM202 828h103l50 -189h-71z" />
    <glyph glyph-name="uni0202" unicode="&#x202;" horiz-adv-x="522" 
d="M182 810h158l162 -810h-137l-32 187h-141l-33 -187h-139zM317 281l-55 340l-55 -340h110zM262 1041q74 0 109.5 -40.5t35.5 -113.5h-78q0 44 -15.5 63t-51.5 19t-51 -19t-16 -63h-78q2 154 145 154z" />
    <glyph glyph-name="uni0203" unicode="&#x203;" horiz-adv-x="452" 
d="M98.5 11q-28.5 20 -44 51.5t-15.5 65.5q0 67 31.5 110.5t78 67.5t123.5 53v50q0 40 -9.5 58.5t-36.5 18.5q-46 0 -48 -64l-2 -35l-129 5q3 100 49.5 147.5t140.5 47.5q85 0 126 -46.5t41 -131.5v-267q0 -62 10 -142h-122q-10 54 -14 83q-12 -39 -40.5 -65.5t-73.5 -26.5
q-37 0 -65.5 20zM246.5 104q15.5 12 25.5 26v162q-53 -31 -79 -59.5t-26 -71.5q0 -32 12.5 -50.5t34.5 -18.5q17 0 32.5 12zM237 809q74 0 109.5 -40.5t35.5 -113.5h-78q0 44 -15.5 63t-51.5 19t-51 -19t-16 -63h-78q2 154 145 154z" />
    <glyph glyph-name="uni0204" unicode="&#x204;" horiz-adv-x="428" 
d="M61 810h340v-104h-193v-233h152v-103h-152v-269h195v-101h-342v810zM23 1060h117l61 -189h-72zM199 1060h103l50 -189h-71z" />
    <glyph glyph-name="uni0205" unicode="&#x205;" horiz-adv-x="446" 
d="M86 44.5q-45 53.5 -45 158.5v172q0 106 45.5 159t140.5 53q98 0 138.5 -55t40.5 -166v-83h-230v-114q0 -42 12.5 -61t39.5 -19q26 0 37.5 18.5t11.5 56.5v49h128v-40q0 -89 -45 -135.5t-133 -46.5q-96 0 -141 53.5zM277 350v55q0 45 -11 64.5t-39 19.5q-29 0 -40 -21
t-11 -78v-40h101zM14 828h117l61 -189h-72zM190 828h103l50 -189h-71z" />
    <glyph glyph-name="uni0206" unicode="&#x206;" horiz-adv-x="428" 
d="M61 810h340v-104h-193v-233h152v-103h-152v-269h195v-101h-342v810zM234 1041q74 0 109.5 -40.5t35.5 -113.5h-78q0 44 -15.5 63t-51.5 19t-51 -19t-16 -63h-78q2 154 145 154z" />
    <glyph glyph-name="uni0207" unicode="&#x207;" horiz-adv-x="446" 
d="M86 44.5q-45 53.5 -45 158.5v172q0 106 45.5 159t140.5 53q98 0 138.5 -55t40.5 -166v-83h-230v-114q0 -42 12.5 -61t39.5 -19q26 0 37.5 18.5t11.5 56.5v49h128v-40q0 -89 -45 -135.5t-133 -46.5q-96 0 -141 53.5zM277 350v55q0 45 -11 64.5t-39 19.5q-29 0 -40 -21
t-11 -78v-40h101zM225 809q74 0 109.5 -40.5t35.5 -113.5h-78q0 44 -15.5 63t-51.5 19t-51 -19t-16 -63h-78q2 154 145 154z" />
    <glyph glyph-name="uni0208" unicode="&#x208;" horiz-adv-x="275" 
d="M65 810h146v-810h-146v810zM-73 1060h117l61 -189h-72zM103 1060h103l50 -189h-71z" />
    <glyph glyph-name="uni0209" unicode="&#x209;" horiz-adv-x="253" 
d="M60 578h136v-578h-136v578zM-82 828h117l61 -189h-72zM94 828h103l50 -189h-71z" />
    <glyph glyph-name="uni020A" unicode="&#x20a;" horiz-adv-x="275" 
d="M65 810h146v-810h-146v810zM138 1041q74 0 109.5 -40.5t35.5 -113.5h-78q0 44 -15.5 63t-51.5 19t-51 -19t-16 -63h-78q2 154 145 154z" />
    <glyph glyph-name="uni020B" unicode="&#x20b;" horiz-adv-x="253" 
d="M60 578h136v-578h-136v578zM129 809q74 0 109.5 -40.5t35.5 -113.5h-78q0 44 -15.5 63t-51.5 19t-51 -19t-16 -63h-78q2 154 145 154z" />
    <glyph glyph-name="uni020C" unicode="&#x20c;" horiz-adv-x="563" 
d="M102 56.5q-54 67.5 -54 197.5v304q0 129 54 195t180 66q125 0 179 -66t54 -195v-304q0 -129 -54.5 -197t-178.5 -68q-126 0 -180 67.5zM348 129q17 31 17 90v373q0 59 -16.5 89t-66.5 30t-67 -30.5t-17 -88.5v-373q0 -59 17 -90t67 -31q49 0 66 31zM71 1060h117l61 -189
h-72zM247 1060h103l50 -189h-71z" />
    <glyph glyph-name="uni020D" unicode="&#x20d;" horiz-adv-x="455" 
d="M88 42.5q-46 51.5 -46 149.5v194q0 98 46 149.5t139 51.5t139.5 -51.5t46.5 -149.5v-194q0 -98 -46.5 -149.5t-139.5 -51.5t-139 51.5zM269 109.5q10 24.5 10 72.5v213q0 48 -10 73t-41 25q-32 0 -42 -25t-10 -73v-213q0 -48 10 -72.5t42 -24.5q31 0 41 24.5zM16 828h117
l61 -189h-72zM192 828h103l50 -189h-71z" />
    <glyph glyph-name="uni020E" unicode="&#x20e;" horiz-adv-x="563" 
d="M102 56.5q-54 67.5 -54 197.5v304q0 129 54 195t180 66q125 0 179 -66t54 -195v-304q0 -129 -54.5 -197t-178.5 -68q-126 0 -180 67.5zM348 129q17 31 17 90v373q0 59 -16.5 89t-66.5 30t-67 -30.5t-17 -88.5v-373q0 -59 17 -90t67 -31q49 0 66 31zM282 1041
q74 0 109.5 -40.5t35.5 -113.5h-78q0 44 -15.5 63t-51.5 19t-51 -19t-16 -63h-78q2 154 145 154z" />
    <glyph glyph-name="uni020F" unicode="&#x20f;" horiz-adv-x="455" 
d="M88 42.5q-46 51.5 -46 149.5v194q0 98 46 149.5t139 51.5t139.5 -51.5t46.5 -149.5v-194q0 -98 -46.5 -149.5t-139.5 -51.5t-139 51.5zM269 109.5q10 24.5 10 72.5v213q0 48 -10 73t-41 25q-32 0 -42 -25t-10 -73v-213q0 -48 10 -72.5t42 -24.5q31 0 41 24.5zM227 809
q74 0 109.5 -40.5t35.5 -113.5h-78q0 44 -15.5 63t-51.5 19t-51 -19t-16 -63h-78q2 154 145 154z" />
    <glyph glyph-name="uni0210" unicode="&#x210;" horiz-adv-x="561" 
d="M61 810h195q128 0 191 -48.5t63 -166.5q0 -77 -22.5 -125.5t-77.5 -70.5l113 -399h-148l-97 371h-70v-371h-147v810zM255 463q63 0 89.5 29t26.5 95q0 64 -23.5 93t-84.5 29h-55v-246h47zM70 1060h117l61 -189h-72zM246 1060h103l50 -189h-71z" />
    <glyph glyph-name="uni0211" unicode="&#x211;" horiz-adv-x="353" 
d="M55 578h136v-89q29 51 59 73.5t67 22.5q13 0 21 -2v-141q-32 12 -56 12q-54 0 -91 -56v-398h-136v578zM-20 828h117l61 -189h-72zM156 828h103l50 -189h-71z" />
    <glyph glyph-name="uni0212" unicode="&#x212;" horiz-adv-x="561" 
d="M61 810h195q128 0 191 -48.5t63 -166.5q0 -77 -22.5 -125.5t-77.5 -70.5l113 -399h-148l-97 371h-70v-371h-147v810zM255 463q63 0 89.5 29t26.5 95q0 64 -23.5 93t-84.5 29h-55v-246h47zM281 1041q74 0 109.5 -40.5t35.5 -113.5h-78q0 44 -15.5 63t-51.5 19t-51 -19
t-16 -63h-78q2 154 145 154z" />
    <glyph glyph-name="uni0213" unicode="&#x213;" horiz-adv-x="353" 
d="M55 578h136v-89q29 51 59 73.5t67 22.5q13 0 21 -2v-141q-32 12 -56 12q-54 0 -91 -56v-398h-136v578zM191 809q74 0 109.5 -40.5t35.5 -113.5h-78q0 44 -15.5 63t-51.5 19t-51 -19t-16 -63h-78q2 154 145 154z" />
    <glyph glyph-name="uni0214" unicode="&#x214;" horiz-adv-x="566" 
d="M145 21q-50 32 -70 91t-20 150v548h144v-565q0 -70 16.5 -108t67.5 -38q52 0 68.5 38t16.5 108v565h143v-548q0 -90 -20 -149.5t-70 -91.5t-138 -32t-138 32zM73 1060h117l61 -189h-72zM249 1060h103l50 -189h-71z" />
    <glyph glyph-name="uni0215" unicode="&#x215;" horiz-adv-x="473" 
d="M72 27q-24 36 -24 91v460h135v-435q0 -27 9 -41t31 -14q23 0 61 27v463h136v-578h-136v55q-67 -64 -139 -64q-49 0 -73 36zM25 828h117l61 -189h-72zM201 828h103l50 -189h-71z" />
    <glyph glyph-name="uni0216" unicode="&#x216;" horiz-adv-x="566" 
d="M145 21q-50 32 -70 91t-20 150v548h144v-565q0 -70 16.5 -108t67.5 -38q52 0 68.5 38t16.5 108v565h143v-548q0 -90 -20 -149.5t-70 -91.5t-138 -32t-138 32zM284 1041q74 0 109.5 -40.5t35.5 -113.5h-78q0 44 -15.5 63t-51.5 19t-51 -19t-16 -63h-78q2 154 145 154z" />
    <glyph glyph-name="uni0217" unicode="&#x217;" horiz-adv-x="473" 
d="M72 27q-24 36 -24 91v460h135v-435q0 -27 9 -41t31 -14q23 0 61 27v463h136v-578h-136v55q-67 -64 -139 -64q-49 0 -73 36zM236 809q74 0 109.5 -40.5t35.5 -113.5h-78q0 44 -15.5 63t-51.5 19t-51 -19t-16 -63h-78q2 154 145 154z" />
    <glyph glyph-name="Scommaaccent" unicode="&#x218;" horiz-adv-x="494" 
d="M100.5 51q-54.5 62 -59.5 185l127 25q3 -77 24.5 -117.5t67.5 -40.5q34 0 50.5 20.5t16.5 55.5q0 48 -21.5 81.5t-67.5 73.5l-102 89q-47 40 -70.5 86t-23.5 110q0 95 55.5 147.5t153.5 52.5q105 0 150.5 -59.5t52.5 -160.5l-127 -22q-3 66 -18.5 99.5t-60.5 33.5
q-32 0 -50 -21.5t-18 -54.5q0 -39 15.5 -65.5t50.5 -56.5l101 -89q57 -49 89 -105t32 -130q0 -58 -25.5 -103t-71.5 -70.5t-106 -25.5q-110 0 -164.5 62zM188 -270q31 4 47.5 21t16.5 51h-71v131h132v-117q-1 -67 -25 -102.5t-81 -36.5z" />
    <glyph glyph-name="scommaaccent" unicode="&#x219;" horiz-adv-x="400" 
d="M89 30q-47 39 -67 114l101 39q23 -97 84 -97q23 0 35.5 12t12.5 33q0 23 -14 42.5t-50 49.5l-69 60q-44 36 -65 70t-21 83q0 68 46.5 109.5t117.5 41.5q68 0 111 -40.5t56 -109.5l-89 -38q-8 40 -26.5 65.5t-47.5 25.5q-21 0 -33.5 -13t-12.5 -33q0 -16 14 -34t42 -42
l70 -64q45 -39 69.5 -74.5t24.5 -85.5q0 -73 -47.5 -113t-121.5 -40q-73 0 -120 39zM141 -270q31 4 47.5 21t16.5 51h-71v131h132v-117q-1 -67 -25 -102.5t-81 -36.5z" />
    <glyph glyph-name="uni021A" unicode="&#x21a;" horiz-adv-x="429" 
d="M142 701h-129v109h403v-109h-126v-701h-148v701zM155 -270q31 4 47.5 21t16.5 51h-71v131h132v-117q-1 -67 -25 -102.5t-81 -36.5z" />
    <glyph glyph-name="uni021B" unicode="&#x21b;" horiz-adv-x="332" 
d="M107.5 31q-32.5 38 -32.5 113v345h-58v89h58v173h137v-173h87v-89h-87v-333q0 -29 12.5 -42t39.5 -13q25 0 42 4v-105q-40 -7 -87 -7q-79 0 -111.5 38zM154 -270q31 4 47.5 21t16.5 51h-71v131h132v-117q-1 -67 -25 -102.5t-81 -36.5z" />
    <glyph glyph-name="uni021E" unicode="&#x21e;" horiz-adv-x="586" 
d="M63 810h147v-338h165v338h148v-810h-148v366h-165v-366h-147v810zM139 1050h100l54 -113l54 113h100l-88 -180h-133z" />
    <glyph glyph-name="uni021F" unicode="&#x21f;" horiz-adv-x="478" 
d="M54 810h136v-288q65 65 143 65q49 0 72.5 -36t23.5 -91v-460h-135v433q0 28 -8.5 41t-30.5 13q-27 0 -65 -29v-458h-136v810zM160 1003h100l54 -113l54 113h100l-88 -180h-133z" />
    <glyph glyph-name="uni022A" unicode="&#x22a;" horiz-adv-x="563" 
d="M102 56.5q-54 67.5 -54 197.5v304q0 129 54 195t180 66q125 0 179 -66t54 -195v-304q0 -129 -54.5 -197t-178.5 -68q-126 0 -180 67.5zM348 129q17 31 17 90v373q0 59 -16.5 89t-66.5 30t-67 -30.5t-17 -88.5v-373q0 -59 17 -90t67 -31q49 0 66 31zM124 1042h120v-130
h-120v130zM320 1042h120v-130h-120v130zM164 1210h236v-71h-236v71z" />
    <glyph glyph-name="uni022B" unicode="&#x22b;" horiz-adv-x="455" 
d="M88 42.5q-46 51.5 -46 149.5v194q0 98 46 149.5t139 51.5t139.5 -51.5t46.5 -149.5v-194q0 -98 -46.5 -149.5t-139.5 -51.5t-139 51.5zM269 109.5q10 24.5 10 72.5v213q0 48 -10 73t-41 25q-32 0 -42 -25t-10 -73v-213q0 -48 10 -72.5t42 -24.5q31 0 41 24.5zM69 810h120
v-130h-120v130zM265 810h120v-130h-120v130zM109 978h236v-71h-236v71z" />
    <glyph glyph-name="uni022C" unicode="&#x22c;" horiz-adv-x="563" 
d="M102 56.5q-54 67.5 -54 197.5v304q0 129 54 195t180 66q125 0 179 -66t54 -195v-304q0 -129 -54.5 -197t-178.5 -68q-126 0 -180 67.5zM348 129q17 31 17 90v373q0 59 -16.5 89t-66.5 30t-67 -30.5t-17 -88.5v-373q0 -59 17 -90t67 -31q49 0 66 31zM325 922.5
q-16 6.5 -36 19.5q-18 10 -30.5 15.5t-25.5 5.5q-19 0 -27 -10.5t-8 -30.5h-70q0 126 85 126q17 0 31.5 -6t35.5 -18q20 -11 32 -16.5t26 -5.5q32 0 32 40h66q0 -57 -16 -91.5t-60 -34.5q-19 0 -35 6.5zM164 1216h236v-71h-236v71z" />
    <glyph glyph-name="uni022D" unicode="&#x22d;" horiz-adv-x="455" 
d="M88 42.5q-46 51.5 -46 149.5v194q0 98 46 149.5t139 51.5t139.5 -51.5t46.5 -149.5v-194q0 -98 -46.5 -149.5t-139.5 -51.5t-139 51.5zM269 109.5q10 24.5 10 72.5v213q0 48 -10 73t-41 25q-32 0 -42 -25t-10 -73v-213q0 -48 10 -72.5t42 -24.5q31 0 41 24.5zM270 690.5
q-16 6.5 -36 19.5q-18 10 -30.5 15.5t-25.5 5.5q-19 0 -27 -10.5t-8 -30.5h-70q0 126 85 126q17 0 31.5 -6t35.5 -18q20 -11 32 -16.5t26 -5.5q32 0 32 40h66q0 -57 -16 -91.5t-60 -34.5q-19 0 -35 6.5zM109 984h236v-71h-236v71z" />
    <glyph glyph-name="uni0230" unicode="&#x230;" horiz-adv-x="563" 
d="M102 56.5q-54 67.5 -54 197.5v304q0 129 54 195t180 66q125 0 179 -66t54 -195v-304q0 -129 -54.5 -197t-178.5 -68q-126 0 -180 67.5zM348 129q17 31 17 90v373q0 59 -16.5 89t-66.5 30t-67 -30.5t-17 -88.5v-373q0 -59 17 -90t67 -31q49 0 66 31zM216 1030h132v-137
h-132v137zM164 1198h236v-71h-236v71z" />
    <glyph glyph-name="uni0231" unicode="&#x231;" horiz-adv-x="455" 
d="M88 42.5q-46 51.5 -46 149.5v194q0 98 46 149.5t139 51.5t139.5 -51.5t46.5 -149.5v-194q0 -98 -46.5 -149.5t-139.5 -51.5t-139 51.5zM269 109.5q10 24.5 10 72.5v213q0 48 -10 73t-41 25q-32 0 -42 -25t-10 -73v-213q0 -48 10 -72.5t42 -24.5q31 0 41 24.5zM161 798
h132v-137h-132v137zM109 966h236v-71h-236v71z" />
    <glyph glyph-name="uni0232" unicode="&#x232;" horiz-adv-x="487" 
d="M174 309l-164 501h138l100 -321l94 321h135l-162 -501v-309h-141v309zM126 978h236v-71h-236v71z" />
    <glyph glyph-name="uni0233" unicode="&#x233;" horiz-adv-x="421" 
d="M56 -59q54 0 76.5 9.5t22.5 36.5q0 18 -21 102l-127 489h132l75 -382l65 382h131l-135 -601q-17 -73 -64.5 -103.5t-128.5 -30.5h-26v98zM92 746h236v-71h-236v71z" />
    <glyph glyph-name="uni0237" unicode="&#x237;" horiz-adv-x="254" 
d="M-14 -153v97q24 -3 29 -3q52 0 52 59v578h135v-594q0 -69 -37.5 -108.5t-106.5 -39.5q-43 0 -72 11z" />
    <glyph glyph-name="uni0259" unicode="&#x259;" horiz-adv-x="446" 
d="M80.5 44q-40.5 55 -40.5 167v83h230v112q0 41 -11 62t-39 21q-27 0 -39 -18t-12 -56v-49h-128v40q0 88 45 134.5t133 46.5q96 0 141 -53.5t45 -157.5v-175q0 -105 -45.5 -158.5t-140.5 -53.5q-98 0 -138.5 55zM259 109q11 21 11 77v40h-101v-54q0 -45 11 -64.5t40 -19.5
q28 0 39 21z" />
    <glyph glyph-name="uni0292" unicode="&#x292;" horiz-adv-x="472" 
d="M398.5 227.5q45.5 -63.5 45.5 -181.5q0 -116 -50.5 -181t-160.5 -65q-106 0 -156.5 61t-50.5 171v27h134v-23q0 -70 16 -102.5t58 -32.5q43 0 58 34t15 108q0 63 -9.5 99.5t-34.5 54.5t-72 18h-82v82l141 181h-190v100h339v-79l-156 -205q110 -3 155.5 -66.5z" />
    <glyph glyph-name="uni02BC" unicode="&#x2bc;" horiz-adv-x="374" 
d="M67 810h116l-47 -275h-69v275z" />
    <glyph glyph-name="circumflex" unicode="&#x2c6;" horiz-adv-x="375" 
d="M129 810h121l93 -192h-101l-53 128l-51 -128h-100z" />
    <glyph glyph-name="caron" unicode="&#x2c7;" horiz-adv-x="371" 
d="M32 810h99l54 -113l54 113h99l-88 -180h-131z" />
    <glyph glyph-name="uni02C9" unicode="&#x2c9;" horiz-adv-x="327" 
d="M52 810h224v-71h-224v71z" />
    <glyph glyph-name="breve" unicode="&#x2d8;" horiz-adv-x="336" 
d="M66.5 710q-31.5 36 -31.5 100h66q1 -39 15 -55.5t48 -16.5t48.5 16.5t14.5 55.5h67q0 -136 -130 -136q-66 0 -97.5 36z" />
    <glyph glyph-name="dotaccent" unicode="&#x2d9;" horiz-adv-x="216" 
d="M47 782h132v-133h-132v133z" />
    <glyph glyph-name="ring" unicode="&#x2da;" horiz-adv-x="308" 
d="M72 629q-32 30 -32 81t32 80.5t82 29.5t82 -29.5t32 -80.5t-32 -81t-82 -30t-82 30zM192.5 670.5q14.5 15.5 14.5 39.5q0 25 -14 40t-39 15t-39.5 -15t-14.5 -40q0 -24 14.5 -39.5t39.5 -15.5q24 0 38.5 15.5z" />
    <glyph glyph-name="ogonek" unicode="&#x2db;" horiz-adv-x="377" 
d="M129.5 -226q-41.5 20 -41.5 77q0 42 28.5 85t65.5 64h64q-60 -73 -60 -125q0 -54 72 -54q13 0 31 2l-17 -66q-15 -3 -35 -3q-66 0 -107.5 20z" />
    <glyph glyph-name="tilde" unicode="&#x2dc;" horiz-adv-x="424" 
d="M255 691q-18 7 -44 20q-3 2 -16 8t-22.5 9t-16.5 3q-26 1 -26 -41h-70q0 60 19.5 93t67.5 33q22 0 41.5 -7.5t49.5 -22.5q28 -15 37 -16q14 -1 20 9t6 31h66q0 -57 -16.5 -91.5t-60.5 -34.5q-17 0 -35 7z" />
    <glyph glyph-name="hungarumlaut" unicode="&#x2dd;" horiz-adv-x="446" 
d="M104 831h111l-91 -195h-70zM268 831h125l-116 -195h-70z" />
    <glyph glyph-name="gravecomb" unicode="&#x300;" 
d="M-156 834h138l59 -200h-78z" />
    <glyph glyph-name="acutecomb" unicode="&#x301;" 
d="M19 834h138l-119 -200h-79z" />
    <glyph glyph-name="uni0302" unicode="&#x302;" 
d="M-62 826h122l92 -184h-101l-52 120l-51 -120h-100z" />
    <glyph glyph-name="tildecomb" unicode="&#x303;" 
d="M43 690.5q-16 6.5 -36 19.5q-18 10 -30.5 15.5t-25.5 5.5q-19 0 -27 -10.5t-8 -30.5h-70q0 126 85 126q17 0 31.5 -6t35.5 -18q20 -11 32 -16.5t26 -5.5q32 0 32 40h66q0 -57 -16 -91.5t-60 -34.5q-19 0 -35 6.5z" />
    <glyph glyph-name="uni0304" unicode="&#x304;" 
d="M-118 746h236v-71h-236v71z" />
    <glyph glyph-name="uni0306" unicode="&#x306;" 
d="M-108 681q-37 39 -37 107h77q1 -38 16.5 -56t50.5 -18q36 0 51.5 18.5t15.5 55.5h78q0 -68 -37 -107t-108 -39q-70 0 -107 39z" />
    <glyph glyph-name="uni0307" unicode="&#x307;" 
d="M-66 798h132v-137h-132v137z" />
    <glyph glyph-name="uni0308" unicode="&#x308;" 
d="M-158 810h120v-130h-120v130zM38 810h120v-130h-120v130z" />
    <glyph glyph-name="hookabovecomb" unicode="&#x309;" 
d="M-44 678q35 15 51.5 28t16.5 32q0 38 -59 38q-30 0 -56 -8v62q45 12 92 12q50 0 83 -23.5t33 -70.5q0 -44 -30 -70.5t-86 -46.5z" />
    <glyph glyph-name="uni030A" unicode="&#x30a;" 
d="M-82 639q-32 30 -32 81t32 80.5t82 29.5t82 -29.5t32 -80.5t-32 -81t-82 -30t-82 30zM38.5 680.5q14.5 15.5 14.5 39.5q0 25 -14 40t-39 15t-39.5 -15t-14.5 -40q0 -24 14.5 -39.5t39.5 -15.5q24 0 38.5 15.5z" />
    <glyph glyph-name="uni030B" unicode="&#x30b;" 
d="M-62 831h111l-91 -195h-70zM102 831h125l-116 -195h-70z" />
    <glyph glyph-name="uni030C" unicode="&#x30c;" 
d="M-154 818h100l54 -113l54 113h100l-88 -180h-133z" />
    <glyph glyph-name="uni030F" unicode="&#x30f;" 
d="M-211 828h117l61 -189h-72zM-35 828h103l50 -189h-71z" />
    <glyph glyph-name="uni0311" unicode="&#x311;" 
d="M0 809q74 0 109.5 -40.5t35.5 -113.5h-78q0 44 -15.5 63t-51.5 19t-51 -19t-16 -63h-78q2 154 145 154z" />
    <glyph glyph-name="uni0312" unicode="&#x312;" 
d="M59 846q-31 -4 -47.5 -21t-16.5 -51h71v-131h-132v117q1 67 25 102.5t81 36.5z" />
    <glyph glyph-name="uni031B" unicode="&#x31b;" 
d="M-10 578h10q29 0 41.5 19t12.5 61h99q0 -69 -40.5 -105t-111.5 -36h-11v61z" />
    <glyph glyph-name="dotbelowcomb" unicode="&#x323;" 
d="M-62 -67h124v-125h-124v125z" />
    <glyph glyph-name="uni0324" unicode="&#x324;" 
d="M-158 -67h120v-130h-120v130zM38 -67h120v-130h-120v130z" />
    <glyph glyph-name="uni0326" unicode="&#x326;" 
d="M-59 -270q31 4 47.5 21t16.5 51h-71v131h132v-117q-1 -67 -25 -102.5t-81 -36.5z" />
    <glyph glyph-name="uni0327" unicode="&#x327;" 
d="M-55 -246v63q24 -8 54 -8q61 0 61 37q0 45 -88 54v100h57v-61q57 0 90.5 -24.5t33.5 -70.5q0 -50 -38.5 -75.5t-97.5 -25.5q-34 0 -72 11z" />
    <glyph glyph-name="uni0328" unicode="&#x328;" 
d="M-83.5 -226q-41.5 20 -41.5 77q0 42 28.5 85t65.5 64h64q-60 -73 -60 -125q0 -54 72 -54q13 0 31 2l-17 -66q-15 -3 -35 -3q-66 0 -107.5 20z" />
    <glyph glyph-name="uni032E" unicode="&#x32e;" 
d="M-108 -198q-37 39 -37 107h77q1 -38 16.5 -56t50.5 -18q36 0 51.5 18.5t15.5 55.5h78q0 -68 -37 -107t-108 -39q-70 0 -107 39z" />
    <glyph glyph-name="uni0331" unicode="&#x331;" 
d="M-118 -132h236v-71h-236v71z" />
    <glyph glyph-name="uni0335" unicode="&#x335;" 
d="M-112 398h224v-71h-224v71z" />
    <glyph glyph-name="Pi" unicode="&#x3a0;" horiz-adv-x="585" 
d="M57 810h471v-810h-134v704h-204v-704h-133v810z" />
    <glyph glyph-name="pi" unicode="&#x3c0;" horiz-adv-x="559" 
d="M392 7q-43 16 -60 48.5t-17 85.5v343h-98v-484h-135v484h-64v94h506v-94h-73v-292q0 -45 5 -66t18.5 -28.5t44.5 -7.5l-7 -99q-77 0 -120 16z" />
    <glyph glyph-name="uni0400" unicode="&#x400;" horiz-adv-x="428" 
d="M61 810h340v-104h-193v-233h152v-103h-152v-269h195v-101h-342v810zM78 1066h138l59 -200h-78z" />
    <glyph glyph-name="uni0401" unicode="&#x401;" horiz-adv-x="428" 
d="M61 810h340v-104h-193v-233h152v-103h-152v-269h195v-101h-342v810zM76 1042h120v-130h-120v130zM272 1042h120v-130h-120v130z" />
    <glyph glyph-name="uni0402" unicode="&#x402;" horiz-adv-x="589" 
d="M116 705h-115v105h395v-105h-135v-262q25 19 56 29t63 10q44 0 82 -17.5t62 -52.5t24 -84v-123q0 -109 -47.5 -157t-154.5 -48h-28v92q51 0 72.5 29t21.5 84v112q0 30 -18.5 53t-54.5 23q-33 0 -78 -26v-367h-145v705z" />
    <glyph glyph-name="uni0403" unicode="&#x403;" horiz-adv-x="426" 
d="M63 810h342v-109h-195v-701h-147v810zM232 1066h138l-119 -200h-79z" />
    <glyph glyph-name="uni0404" unicode="&#x404;" horiz-adv-x="529" 
d="M100.5 59.5q-52.5 70.5 -52.5 199.5v289q0 133 52 202t179 69q119 0 169 -60t50 -173v-39h-142v41q0 43 -4 67.5t-20.5 40t-51.5 15.5q-36 0 -54 -16.5t-23.5 -44t-5.5 -71.5v-121h164v-88h-164v-142q0 -69 18 -99.5t65 -30.5q34 0 50.5 16t21 42.5t4.5 70.5v45h142v-37
q0 -117 -49 -181.5t-170 -64.5q-126 0 -178.5 70.5z" />
    <glyph glyph-name="uni0405" unicode="&#x405;" horiz-adv-x="494" 
d="M100.5 51q-54.5 62 -59.5 185l127 25q3 -77 24.5 -117.5t67.5 -40.5q34 0 50.5 20.5t16.5 55.5q0 48 -21.5 81.5t-67.5 73.5l-102 89q-47 40 -70.5 86t-23.5 110q0 95 55.5 147.5t153.5 52.5q105 0 150.5 -59.5t52.5 -160.5l-127 -22q-3 66 -18.5 99.5t-60.5 33.5
q-32 0 -50 -21.5t-18 -54.5q0 -39 15.5 -65.5t50.5 -56.5l101 -89q57 -49 89 -105t32 -130q0 -58 -25.5 -103t-71.5 -70.5t-106 -25.5q-110 0 -164.5 62z" />
    <glyph glyph-name="uni0406" unicode="&#x406;" horiz-adv-x="263" 
d="M61 810h146v-810h-146v810z" />
    <glyph glyph-name="uni0407" unicode="&#x407;" horiz-adv-x="263" 
d="M61 810h146v-810h-146v810zM-26 1042h120v-130h-120v130zM170 1042h120v-130h-120v130z" />
    <glyph glyph-name="uni0408" unicode="&#x408;" horiz-adv-x="313" 
d="M5 84q45 -1 67.5 7t31.5 29.5t9 64.5v625h146v-629q-1 -71 -17 -114.5t-55.5 -65t-109.5 -21.5h-72v104z" />
    <glyph glyph-name="uni0409" unicode="&#x409;" horiz-adv-x="863" 
d="M12 0v106q44 -2 68 14.5t37 63t20 138.5l31 488h394v-340h25q127 0 188 -54t61 -181q0 -130 -64 -182.5t-191 -52.5h-165v699h-116l-24 -378q-7 -121 -30 -191t-68.5 -101.5t-121.5 -29.5zM582 100q63 0 90 28t27 102q0 71 -25.5 104t-93.5 33h-18v-267h20z" />
    <glyph glyph-name="uni040A" unicode="&#x40a;" horiz-adv-x="809" 
d="M63 811h147v-336h150v336h148v-341h23q127 0 188 -54t61 -181q0 -130 -64 -182.5t-191 -52.5h-165v366h-150v-366h-147v811zM525 100q43 0 68.5 12t37.5 41.5t12 81.5q0 71 -26 101.5t-93 30.5h-16v-267h17z" />
    <glyph glyph-name="uni040B" unicode="&#x40b;" horiz-adv-x="602" 
d="M118 701h-113v109h381v-109h-120v-244q60 11 100 11q93 0 141.5 -48.5t48.5 -143.5v-276h-147v276q0 51 -16 75t-59 24q-33 0 -68 -7v-368h-148v701z" />
    <glyph glyph-name="uni040C" unicode="&#x40c;" horiz-adv-x="541" 
d="M63 810h147v-340h30l131 340h147l-154 -383l166 -427h-149l-141 373h-30v-373h-147v810zM290 1066h138l-119 -200h-79z" />
    <glyph glyph-name="uni040D" unicode="&#x40d;" horiz-adv-x="568" 
d="M63 810h121v-511l222 511h99v-810h-123v520l-222 -520h-97v810zM139 1066h138l59 -200h-78z" />
    <glyph glyph-name="uni040E" unicode="&#x40e;" horiz-adv-x="504" 
d="M53 -39q13 -1 36 -1q58 0 83 18.5t25 61.5q0 18 -5 46l-171 724h137l69 -339l37 -236l30 236l60 339h139l-157 -739q-19 -90 -39.5 -132.5t-65.5 -62t-135 -19.5q-28 0 -43 1v103zM145 913q-37 39 -37 107h77q1 -38 16.5 -56t50.5 -18q36 0 51.5 18.5t15.5 55.5h78
q0 -68 -37 -107t-108 -39q-70 0 -107 39z" />
    <glyph glyph-name="uni040F" unicode="&#x40f;" horiz-adv-x="574" 
d="M228 0h-167v810h147v-701h157v701h147v-810h-162l-7 -161h-108z" />
    <glyph glyph-name="uni0410" unicode="&#x410;" horiz-adv-x="522" 
d="M182 810h158l162 -810h-137l-32 187h-141l-33 -187h-139zM317 281l-55 340l-55 -340h110z" />
    <glyph glyph-name="uni0411" unicode="&#x411;" horiz-adv-x="525" 
d="M63 810h376v-110h-229v-230h32q127 0 188 -54t61 -181q0 -130 -64 -182.5t-190 -52.5h-174v810zM238 100q63 0 89.5 28.5t26.5 104.5q0 69 -26 101.5t-93 32.5h-25v-267h28z" />
    <glyph glyph-name="uni0412" unicode="&#x412;" horiz-adv-x="557" 
d="M61 810h200q115 0 176 -47t61 -161q0 -74 -30 -115.5t-87 -50.5q140 -27 140 -200q0 -117 -57 -176.5t-169 -59.5h-234v810zM259 479q64 0 87.5 28.5t23.5 92.5q0 62 -30.5 84.5t-101.5 22.5h-30v-228h51zM265 104q65 0 90 31t25 102q0 73 -27.5 106.5t-92.5 33.5h-52
v-273h57z" />
    <glyph glyph-name="uni0413" unicode="&#x413;" horiz-adv-x="426" 
d="M63 810h342v-109h-195v-701h-147v810z" />
    <glyph glyph-name="uni0414" unicode="&#x414;" horiz-adv-x="661" 
d="M15 105h29q37 20 63 63.5t45 134.5t28 245l18 262h358v-705h85v-266h-103l-9 161h-399l-10 -161h-105v266zM416 105v599h-102l-9 -179q-7 -151 -24.5 -234t-39.5 -118t-59 -68h234z" />
    <glyph glyph-name="uni0415" unicode="&#x415;" horiz-adv-x="428" 
d="M61 810h340v-104h-193v-233h152v-103h-152v-269h195v-101h-342v810z" />
    <glyph glyph-name="uni0416" unicode="&#x416;" horiz-adv-x="737" 
d="M184 410l-168 400h139l147 -385h7v385h119v-385h8l146 385h140l-168 -400l179 -410h-137l-159 399h-9v-399h-119v399h-8l-160 -399h-136z" />
    <glyph glyph-name="uni0417" unicode="&#x417;" horiz-adv-x="504" 
d="M42 220v28h138q0 -20 1 -30q1 -60 16.5 -87t57.5 -27q43 0 58 30.5t15 96.5t-24.5 100t-88.5 38h-38v98q25 0 36 1q65 3 90 34.5t25 97.5q0 53 -18.5 81t-60.5 28q-41 0 -60 -28.5t-21 -80.5v-35h-138v38q0 103 57.5 160t159.5 57q103 0 160.5 -56.5t57.5 -158.5
q0 -70 -29.5 -118t-77.5 -61q107 -39 107 -193q0 -116 -50.5 -180.5t-160.5 -64.5q-212 0 -212 232z" />
    <glyph glyph-name="uni0418" unicode="&#x418;" horiz-adv-x="568" 
d="M63 810h121v-511l222 511h99v-810h-123v520l-222 -520h-97v810z" />
    <glyph glyph-name="uni0419" unicode="&#x419;" horiz-adv-x="568" 
d="M63 810h121v-511l222 511h99v-810h-123v520l-222 -520h-97v810zM188 913q-37 39 -37 107h77q1 -38 16.5 -56t50.5 -18q36 0 51.5 18.5t15.5 55.5h78q0 -68 -37 -107t-108 -39q-70 0 -107 39z" />
    <glyph glyph-name="uni041A" unicode="&#x41a;" horiz-adv-x="541" 
d="M63 810h147v-340h30l131 340h147l-154 -383l166 -427h-149l-141 373h-30v-373h-147v810z" />
    <glyph glyph-name="uni041B" unicode="&#x41b;" horiz-adv-x="620" 
d="M5 106q51 -1 73.5 16.5t34.5 79.5t23 213l26 395h394v-810h-147v699h-117l-17 -302q-10 -162 -27 -240.5t-63.5 -118t-143.5 -39.5q-23 0 -36 1v106z" />
    <glyph glyph-name="uni041C" unicode="&#x41c;" horiz-adv-x="683" 
d="M73 810h153l115 -561l119 561h149l15 -810h-110l-12 563l-115 -563h-89l-117 565l-11 -565h-111z" />
    <glyph glyph-name="uni041D" unicode="&#x41d;" horiz-adv-x="586" 
d="M63 810h147v-338h165v338h148v-810h-148v366h-165v-366h-147v810z" />
    <glyph glyph-name="uni041E" unicode="&#x41e;" horiz-adv-x="563" 
d="M102 56.5q-54 67.5 -54 197.5v304q0 129 54 195t180 66q125 0 179 -66t54 -195v-304q0 -129 -54.5 -197t-178.5 -68q-126 0 -180 67.5zM348 129q17 31 17 90v373q0 59 -16.5 89t-66.5 30t-67 -30.5t-17 -88.5v-373q0 -59 17 -90t67 -31q49 0 66 31z" />
    <glyph glyph-name="uni041F" unicode="&#x41f;" horiz-adv-x="589" 
d="M61 810h467v-810h-146v705h-175v-705h-146v810z" />
    <glyph glyph-name="uni0420" unicode="&#x420;" horiz-adv-x="527" 
d="M61 810h238q207 0 207 -230q0 -220 -217 -220h-81v-360h-147v810zM265 464q60 0 81 25.5t21 91.5q0 48 -7 73.5t-28.5 38.5t-66.5 13h-57v-242h57z" />
    <glyph glyph-name="uni0421" unicode="&#x421;" horiz-adv-x="540" 
d="M100.5 59.5q-52.5 70.5 -52.5 199.5v289q0 133 52 202t179 69q119 0 169 -60t50 -173v-68h-142v70q0 43 -4 67.5t-20.5 40t-51.5 15.5q-36 0 -54 -16.5t-23.5 -44t-5.5 -71.5v-351q0 -69 18 -99.5t65 -30.5q34 0 50.5 16t21 42.5t4.5 70.5v73h142v-65q0 -117 -49 -181.5
t-170 -64.5q-126 0 -178.5 70.5z" />
    <glyph glyph-name="uni0422" unicode="&#x422;" horiz-adv-x="429" 
d="M142 701h-129v109h403v-109h-126v-701h-148v701z" />
    <glyph glyph-name="uni0423" unicode="&#x423;" horiz-adv-x="504" 
d="M53 -39q13 -1 36 -1q58 0 83 18.5t25 61.5q0 18 -5 46l-171 724h137l69 -339l37 -236l30 236l60 339h139l-157 -739q-19 -90 -39.5 -132.5t-65.5 -62t-135 -19.5q-28 0 -43 1v103z" />
    <glyph glyph-name="uni0424" unicode="&#x424;" horiz-adv-x="712" 
d="M291 96q-42 -3 -49 -3q-92 0 -143.5 50.5t-51.5 155.5v224q0 101 52.5 154t144.5 53q23 0 47 -2v142h129v-142q24 2 45 2q94 0 146.5 -53t52.5 -154v-224q0 -104 -49 -155t-129 -51q-33 0 -66 3v-128h-129v128zM291 185v455q-18 2 -29 2q-44 0 -63.5 -27.5t-19.5 -90.5
v-226q0 -64 18 -89.5t70 -25.5q12 0 24 2zM514.5 208.5q18.5 25.5 18.5 88.5v227q0 65 -18 91.5t-64 26.5q-13 0 -31 -2v-455q14 -2 28 -2q48 0 66.5 25.5z" />
    <glyph glyph-name="uni0425" unicode="&#x425;" horiz-adv-x="499" 
d="M173 430l-158 380h138l105 -252l92 252h127l-155 -408l167 -402h-137l-115 273l-100 -273h-127z" />
    <glyph glyph-name="uni0426" unicode="&#x426;" horiz-adv-x="655" 
d="M507 0h-444v810h147v-709h182v709h147v-709h94v-262h-110z" />
    <glyph glyph-name="uni0427" unicode="&#x427;" horiz-adv-x="580" 
d="M370 353q-63 -11 -108 -11q-98 0 -157 49.5t-59 142.5v276h148v-276q0 -51 22 -75t82 -24q34 0 72 7v368h147v-810h-147v353z" />
    <glyph glyph-name="uni0428" unicode="&#x428;" horiz-adv-x="789" 
d="M63 810h142v-704h121v704h142v-704h116v704h142v-810h-663v810z" />
    <glyph glyph-name="uni0429" unicode="&#x429;" horiz-adv-x="855" 
d="M696 0h-633v810h142v-709h121v709h142v-709h116v709h143v-709h94v-262h-110z" />
    <glyph glyph-name="uni042A" unicode="&#x42a;" horiz-adv-x="601" 
d="M135 705h-139v105h286v-340h39q127 0 188.5 -54t61.5 -181q0 -130 -64.5 -182.5t-191.5 -52.5h-180v705zM316 100q64 0 91 30t27 108q-1 66 -27.5 97.5t-92.5 31.5h-32v-267h34z" />
    <glyph glyph-name="uni042B" unicode="&#x42b;" horiz-adv-x="781" 
d="M63 810h147v-340h36q127 0 188 -54t61 -181q0 -130 -64 -182.5t-191 -52.5h-177v810zM571 810h147v-810h-147v810zM241 100q63 0 90 29t27 105q0 68 -26 100.5t-93 32.5h-29v-267h31z" />
    <glyph glyph-name="uni042C" unicode="&#x42c;" horiz-adv-x="526" 
d="M63 810h147v-340h36q126 0 187.5 -54t61.5 -181q0 -130 -64 -182.5t-191 -52.5h-177v810zM240 100q64 0 91 29t27 105q0 68 -26 100.5t-94 32.5h-28v-267h30z" />
    <glyph glyph-name="uni042D" unicode="&#x42d;" horiz-adv-x="548" 
d="M99.5 56q-50.5 60 -50.5 173v42h143v-43q0 -43 4 -67.5t20.5 -40.5t52.5 -16t53.5 16.5t22.5 44t5 72.5v136h-138v82h138v133q0 69 -17.5 99.5t-63.5 30.5q-34 0 -51 -16.5t-21.5 -42.5t-4.5 -70v-46h-143v38q0 117 49.5 181t170.5 64q127 0 178.5 -70t51.5 -200v-288
q0 -134 -51.5 -203t-178.5 -69q-119 0 -169.5 60z" />
    <glyph glyph-name="uni042E" unicode="&#x42e;" horiz-adv-x="774" 
d="M344 59q-49 70 -49 202v96h-89v-357h-143v810h143v-343h89v85q0 131 49 199t166 68t166 -68.5t49 -198.5v-291q0 -131 -49 -201.5t-166 -70.5t-166 70zM573.5 129.5q16.5 31.5 16.5 89.5v373q0 59 -16 89t-64 30t-64 -30t-16 -89v-373q0 -58 16.5 -89.5t63.5 -31.5
t63.5 31.5z" />
    <glyph glyph-name="uni042F" unicode="&#x42f;" horiz-adv-x="577" 
d="M173 362q-52 26 -81.5 81.5t-29.5 133.5q0 119 64.5 176t199.5 57h187v-810h-147v328h-47h-18l-129 -328h-161zM366 432v275h-36q-66 0 -98.5 -32t-32.5 -98q0 -72 31 -108.5t103 -36.5h33z" />
    <glyph glyph-name="uni0430" unicode="&#x430;" horiz-adv-x="452" 
d="M98.5 11q-28.5 20 -44 51.5t-15.5 65.5q0 67 31.5 110.5t78 67.5t123.5 53v50q0 40 -9.5 58.5t-36.5 18.5q-46 0 -48 -64l-2 -35l-129 5q3 100 49.5 147.5t140.5 47.5q85 0 126 -46.5t41 -131.5v-267q0 -62 10 -142h-122q-10 54 -14 83q-12 -39 -40.5 -65.5t-73.5 -26.5
q-37 0 -65.5 20zM246.5 104q15.5 12 25.5 26v162q-53 -31 -79 -59.5t-26 -71.5q0 -32 12.5 -50.5t34.5 -18.5q17 0 32.5 12z" />
    <glyph glyph-name="uni0431" unicode="&#x431;" horiz-adv-x="461" 
d="M91 44.5q-43 53.5 -43 162.5v331q0 112 29.5 165.5t93.5 77.5q28 11 90 26q43 10 70 18.5t53 25.5l14 -111q-24 -13 -50.5 -20.5t-63.5 -14.5q-58 -12 -84 -23q-27 -13 -40.5 -41t-13.5 -76v-68q20 21 56 35t76 14q70 0 105.5 -48.5t35.5 -161.5v-126q0 -86 -23 -134
t-63.5 -66.5t-100.5 -18.5q-98 0 -141 53.5zM268 93.5q11 10.5 15.5 36t4.5 73.5v164q0 52 -10 73.5t-36 21.5q-36 0 -61 -50v-204q0 -50 4.5 -76t16.5 -37.5t34 -11.5q21 0 32 10.5z" />
    <glyph glyph-name="uni0432" unicode="&#x432;" horiz-adv-x="461" 
d="M52 578h184q104 0 143 -38t39 -107q0 -48 -20 -77t-63 -42q54 -12 75.5 -49.5t21.5 -96.5q0 -85 -44 -126.5t-153 -41.5h-183v578zM233 348q30 0 44.5 18t14.5 57q0 38 -16.5 56t-53.5 18h-35v-149h46zM219 86q40 0 60 16.5t20 69.5q0 42 -9.5 62t-25 25.5t-42.5 5.5h-35
v-179h32z" />
    <glyph glyph-name="uni0433" unicode="&#x433;" horiz-adv-x="322" 
d="M52 578h262v-94h-126v-484h-136v578z" />
    <glyph glyph-name="uni0434" unicode="&#x434;" horiz-adv-x="553" 
d="M18 85q66 41 100.5 122.5t38.5 236.5l10 134h291v-490h77v-240h-98l-10 152h-301l-10 -152h-98v237zM331 88v403h-61l-8 -77q-3 -147 -29.5 -219t-73.5 -107h172z" />
    <glyph glyph-name="uni0435" unicode="&#x435;" horiz-adv-x="446" 
d="M86 44.5q-45 53.5 -45 158.5v172q0 106 45.5 159t140.5 53q98 0 138.5 -55t40.5 -166v-83h-230v-114q0 -42 12.5 -61t39.5 -19q26 0 37.5 18.5t11.5 56.5v49h128v-40q0 -89 -45 -135.5t-133 -46.5q-96 0 -141 53.5zM277 350v55q0 45 -11 64.5t-39 19.5q-29 0 -40 -21
t-11 -78v-40h101z" />
    <glyph glyph-name="uni0436" unicode="&#x436;" horiz-adv-x="621" 
d="M135 293l-122 285h123l107 -276h10v276h113v-276h9l110 276h123l-125 -285l132 -293h-117l-123 282h-9v-282h-113v282h-11l-119 -282h-117z" />
    <glyph glyph-name="uni0437" unicode="&#x437;" horiz-adv-x="414" 
d="M74.5 40q-37.5 50 -37.5 145h111q0 -53 15 -77t47 -24q34 0 45.5 23.5t11.5 68.5q0 33 -10.5 50.5t-34.5 24.5t-68 7v81q43 0 66 8t32 25t9 47q0 72 -57 72q-32 0 -46.5 -19t-14.5 -68h-110q0 91 42 137t135 46q86 0 129 -44.5t43 -113.5q0 -60 -26 -90.5t-65 -38.5
q29 -9 48.5 -21.5t32 -41.5t12.5 -79q0 -80 -44 -124t-133 -44q-95 0 -132.5 50z" />
    <glyph glyph-name="uni0438" unicode="&#x438;" horiz-adv-x="483" 
d="M52 578h110v-348l163 348h106v-578h-111v348l-159 -348h-109v578z" />
    <glyph glyph-name="uni0439" unicode="&#x439;" horiz-adv-x="483" 
d="M52 578h110v-348l163 348h106v-578h-111v348l-159 -348h-109v578zM137 681q-37 39 -37 107h77q1 -38 16.5 -56t50.5 -18q36 0 51.5 18.5t15.5 55.5h78q0 -68 -37 -107t-108 -39q-70 0 -107 39z" />
    <glyph glyph-name="uni043A" unicode="&#x43a;" horiz-adv-x="466" 
d="M52 578h136v-236h27l98 236h144l-118 -276l121 -302h-144l-101 263h-27v-263h-136v578z" />
    <glyph glyph-name="uni043B" unicode="&#x43b;" horiz-adv-x="527" 
d="M15 93q42 0 62.5 20t29.5 67t16 148l16 250h336v-578h-136v482h-83l-12 -171q-8 -132 -27 -197.5t-60 -92t-122 -26.5h-20v98z" />
    <glyph glyph-name="uni043C" unicode="&#x43c;" horiz-adv-x="556" 
d="M54 578h101l123 -315l123 315h101l4 -578h-110v324l-97 -250h-41l-98 249v-323h-109z" />
    <glyph glyph-name="uni043D" unicode="&#x43d;" horiz-adv-x="493" 
d="M52 578h136v-233h117v233h136v-578h-136v249h-117v-249h-136v578z" />
    <glyph glyph-name="uni043E" unicode="&#x43e;" horiz-adv-x="455" 
d="M88 42.5q-46 51.5 -46 149.5v194q0 98 46 149.5t139 51.5t139.5 -51.5t46.5 -149.5v-194q0 -98 -46.5 -149.5t-139.5 -51.5t-139 51.5zM269 109.5q10 24.5 10 72.5v213q0 48 -10 73t-41 25q-32 0 -42 -25t-10 -73v-213q0 -48 10 -72.5t42 -24.5q31 0 41 24.5z" />
    <glyph glyph-name="uni043F" unicode="&#x43f;" horiz-adv-x="479" 
d="M52 578h374v-578h-135v481h-103v-481h-136v578z" />
    <glyph glyph-name="uni0440" unicode="&#x440;" horiz-adv-x="476" 
d="M52 578h136v-44q55 53 118 53q70 0 99 -58t29 -135v-196q0 -93 -32.5 -150t-102.5 -57q-56 0 -111 52v-233h-136v768zM287.5 114q10.5 28 10.5 79v208q0 45 -11 70t-40 25q-30 0 -59 -25v-365q28 -20 60 -20q29 0 39.5 28z" />
    <glyph glyph-name="uni0441" unicode="&#x441;" horiz-adv-x="441" 
d="M85 45.5q-44 54.5 -44 156.5v174q0 103 44 157t141 54q92 0 134.5 -44t42.5 -134v-48h-128v51q0 45 -10.5 62t-37.5 17q-29 0 -39.5 -21t-10.5 -77v-212q0 -54 11.5 -74t38.5 -20q28 0 38 18.5t10 59.5v62h128v-55q0 -89 -43 -135t-134 -46q-97 0 -141 54.5z" />
    <glyph glyph-name="uni0442" unicode="&#x442;" horiz-adv-x="376" 
d="M120 482h-106v96h349v-96h-107v-482h-136v482z" />
    <glyph glyph-name="uni0443" unicode="&#x443;" horiz-adv-x="421" 
d="M56 -59q54 0 76.5 9.5t22.5 36.5q0 18 -21 102l-127 489h132l75 -382l65 382h131l-135 -601q-17 -73 -64.5 -103.5t-128.5 -30.5h-26v98z" />
    <glyph glyph-name="uni0444" unicode="&#x444;" horiz-adv-x="653" 
d="M265 20h-13q-83 0 -146.5 48t-63.5 165v134q0 69 29 115t76.5 68t102.5 22h15v238h121v-238h19q55 0 101.5 -22t75.5 -68t29 -115v-134q0 -117 -63 -165t-145 -48h-17v-201h-121v201zM265 106v385h-12q-85 0 -85 -109v-155q0 -64 22 -92.5t65 -28.5h10zM395 106
q90 0 90 121v155q0 109 -88 109h-11v-385h9z" />
    <glyph glyph-name="uni0445" unicode="&#x445;" horiz-adv-x="417" 
d="M136 311l-121 267h133l74 -160l64 160h116l-123 -286l132 -292h-134l-81 177l-68 -177h-118z" />
    <glyph glyph-name="uni0446" unicode="&#x446;" horiz-adv-x="527" 
d="M405 0h-353v578h136v-490h112v490h136v-490h77v-240h-98z" />
    <glyph glyph-name="uni0447" unicode="&#x447;" horiz-adv-x="465" 
d="M277 231q-44 -4 -65 -4q-90 0 -132 34t-42 110v207h136v-202q0 -34 14 -49t53 -16q17 0 36 3v264h135v-578h-135v231z" />
    <glyph glyph-name="uni0448" unicode="&#x448;" horiz-adv-x="670" 
d="M52 578h128v-484h89v484h129v-484h89v484h128v-578h-563v578z" />
    <glyph glyph-name="uni0449" unicode="&#x449;" horiz-adv-x="722" 
d="M583 0h-532v578h128v-490h89v490h128v-490h90v490h128v-490h77v-240h-98z" />
    <glyph glyph-name="uni044A" unicode="&#x44a;" horiz-adv-x="520" 
d="M116 483h-115v95h250v-235h12q83 -1 133 -16t74.5 -52.5t24.5 -104.5q0 -63 -23.5 -100t-75 -53.5t-138.5 -16.5h-142v483zM257 79q44 0 68.5 8t35 27t10.5 55q0 53 -24 72.5t-88 20.5h-8v-183h6z" />
    <glyph glyph-name="uni044B" unicode="&#x44b;" horiz-adv-x="683" 
d="M52 578h136v-235h11q83 -1 133 -16t74.5 -52t24.5 -103q0 -63 -23.5 -100.5t-75 -54.5t-138.5 -17h-142v578zM495 578h136v-578h-136v578zM193 79q65 0 90 19.5t25 72.5q0 35 -10 54.5t-34 27.5t-68 9h-8v-183h5z" />
    <glyph glyph-name="uni044C" unicode="&#x44c;" horiz-adv-x="455" 
d="M52 578h136v-235h11q84 -1 133.5 -16t74 -51.5t24.5 -102.5q0 -64 -23.5 -101.5t-75 -54.5t-138.5 -17h-142v578zM193 79q65 0 90 19.5t25 72.5q0 35 -10 54.5t-34 27.5t-68 9h-8v-183h5z" />
    <glyph glyph-name="uni044D" unicode="&#x44d;" horiz-adv-x="445" 
d="M84.5 34.5q-42.5 43.5 -42.5 132.5v24h128v-24q0 -44 11 -61.5t38 -17.5q28 0 38.5 21.5t10.5 76.5v69h-135v64h135v75q0 55 -11 74.5t-38 19.5q-28 0 -38.5 -18.5t-10.5 -57.5v-35h-128v30q0 180 178 180q97 0 140.5 -54.5t43.5 -157.5v-173q0 -104 -44 -157.5
t-141 -53.5q-92 0 -134.5 43.5z" />
    <glyph glyph-name="uni044E" unicode="&#x44e;" horiz-adv-x="639" 
d="M297.5 42.5q-42.5 51.5 -42.5 149.5v51h-75v-243h-128v578h128v-241h75v49q0 98 42.5 149.5t128.5 51.5t128.5 -51.5t42.5 -149.5v-194q0 -98 -42.5 -149.5t-128.5 -51.5t-128.5 51.5zM464 113q9 24 9 73v205q0 49 -9 73.5t-38 24.5t-38 -24.5t-9 -73.5v-205
q0 -48 9 -72.5t38 -24.5t38 24z" />
    <glyph glyph-name="uni044F" unicode="&#x44f;" horiz-adv-x="476" 
d="M113 242q-38 18 -56.5 58.5t-18.5 99.5q0 89 51 133.5t168 44.5h166v-578h-136v217q-35 0 -49 1l-80 -218h-144zM287 296v205h-8q-63 -1 -90.5 -24.5t-27.5 -75.5q0 -53 27.5 -78.5t89.5 -26.5h9z" />
    <glyph glyph-name="uni0450" unicode="&#x450;" horiz-adv-x="446" 
d="M86 44.5q-45 53.5 -45 158.5v172q0 106 45.5 159t140.5 53q98 0 138.5 -55t40.5 -166v-83h-230v-114q0 -42 12.5 -61t39.5 -19q26 0 37.5 18.5t11.5 56.5v49h128v-40q0 -89 -45 -135.5t-133 -46.5q-96 0 -141 53.5zM277 350v55q0 45 -11 64.5t-39 19.5q-29 0 -40 -21
t-11 -78v-40h101zM69 834h138l59 -200h-78z" />
    <glyph glyph-name="uni0451" unicode="&#x451;" horiz-adv-x="446" 
d="M86 44.5q-45 53.5 -45 158.5v172q0 106 45.5 159t140.5 53q98 0 138.5 -55t40.5 -166v-83h-230v-114q0 -42 12.5 -61t39.5 -19q26 0 37.5 18.5t11.5 56.5v49h128v-40q0 -89 -45 -135.5t-133 -46.5q-96 0 -141 53.5zM277 350v55q0 45 -11 64.5t-39 19.5q-29 0 -40 -21
t-11 -78v-40h101zM67 810h120v-130h-120v130zM263 810h120v-130h-120v130z" />
    <glyph glyph-name="uni0452" unicode="&#x452;" horiz-adv-x="485" 
d="M412.5 447.5q27.5 -39.5 27.5 -99.5v-246q0 -107 -18.5 -161t-64.5 -74.5t-138 -20.5h-28v76h15q43 0 63.5 14.5t27.5 49t7 103.5v250q0 29 -9.5 43.5t-32.5 14.5q-17 0 -36.5 -7t-30.5 -13v-377h-136v604h-68v73h68v133h136v-133h134v-73h-134v-152q4 2 25.5 11.5
t48 16.5t51.5 7q65 0 92.5 -39.5z" />
    <glyph glyph-name="uni0453" unicode="&#x453;" horiz-adv-x="322" 
d="M52 578h262v-94h-126v-484h-136v578zM210 834h138l-119 -200h-79z" />
    <glyph glyph-name="uni0454" unicode="&#x454;" horiz-adv-x="430" 
d="M86 45.5q-44 54.5 -44 156.5v174q0 103 44 157t140 54q93 0 135.5 -43.5t42.5 -133.5v-29h-128v29q0 45 -11 62t-38 17q-28 0 -38.5 -21t-10.5 -77v-62h137v-70h-137v-76q0 -55 11 -74.5t39 -19.5q27 0 37.5 19t10.5 59v40h128v-35q0 -90 -43.5 -135.5t-133.5 -45.5
q-97 0 -141 54.5z" />
    <glyph glyph-name="uni0455" unicode="&#x455;" horiz-adv-x="400" 
d="M89 30q-47 39 -67 114l101 39q23 -97 84 -97q23 0 35.5 12t12.5 33q0 23 -14 42.5t-50 49.5l-69 60q-44 36 -65 70t-21 83q0 68 46.5 109.5t117.5 41.5q68 0 111 -40.5t56 -109.5l-89 -38q-8 40 -26.5 65.5t-47.5 25.5q-21 0 -33.5 -13t-12.5 -33q0 -16 14 -34t42 -42
l70 -64q45 -39 69.5 -74.5t24.5 -85.5q0 -73 -47.5 -113t-121.5 -40q-73 0 -120 39z" />
    <glyph glyph-name="uni0456" unicode="&#x456;" horiz-adv-x="248" 
d="M56 783h136v-113h-136v113zM56 578h136v-578h-136v578z" />
    <glyph glyph-name="uni0457" unicode="&#x457;" horiz-adv-x="253" 
d="M60 578h136v-578h-136v578zM-29 810h120v-130h-120v130zM167 810h120v-130h-120v130z" />
    <glyph glyph-name="uni0458" unicode="&#x458;" horiz-adv-x="254" 
d="M66 783h137v-113h-137v113zM-14 -153v97q24 -3 29 -3q52 0 52 59v578h135v-594q0 -69 -37.5 -108.5t-106.5 -39.5q-43 0 -72 11z" />
    <glyph glyph-name="uni0459" unicode="&#x459;" horiz-adv-x="737" 
d="M20 93q42 0 62.5 20.5t30 67.5t15.5 144l17 253h335v-238h11q78 0 125.5 -15.5t71 -52t23.5 -100.5q0 -62 -22.5 -99.5t-71.5 -54.5t-131 -18h-141v482h-84l-12 -183q-9 -131 -29.5 -195t-61.5 -86.5t-118 -22.5h-20v98zM485 79q59 0 81 19.5t22 71.5q0 50 -22 69.5
t-81 19.5h-5v-180h5z" />
    <glyph glyph-name="uni045A" unicode="&#x45a;" horiz-adv-x="679" 
d="M52 578h136v-235h103v235h135v-238h13q78 -1 125 -16.5t69.5 -52.5t22.5 -102q0 -62 -22.5 -98t-71.5 -53t-132 -18h-139v239h-103v-239h-136v578zM434 79q56 2 77.5 21t21.5 69t-20.5 69.5t-77.5 21.5h-9v-181h8z" />
    <glyph glyph-name="uni045B" unicode="&#x45b;" horiz-adv-x="489" 
d="M412.5 447.5q27.5 -39.5 27.5 -99.5v-348h-136v339q0 29 -9.5 43.5t-32.5 14.5q-13 0 -35.5 -7.5t-31.5 -12.5v-377h-136v604h-68v73h68v133h136v-133h134v-73h-134v-152q4 2 25.5 11.5t48 16.5t51.5 7q65 0 92.5 -39.5z" />
    <glyph glyph-name="uni045C" unicode="&#x45c;" horiz-adv-x="466" 
d="M52 578h136v-236h27l98 236h144l-118 -276l121 -302h-144l-101 263h-27v-263h-136v578zM272 834h138l-119 -200h-79z" />
    <glyph glyph-name="uni045D" unicode="&#x45d;" horiz-adv-x="483" 
d="M52 578h110v-348l163 348h106v-578h-111v348l-159 -348h-109v578zM88 834h138l59 -200h-78z" />
    <glyph glyph-name="uni045E" unicode="&#x45e;" horiz-adv-x="421" 
d="M56 -59q54 0 76.5 9.5t22.5 36.5q0 18 -21 102l-127 489h132l75 -382l65 382h131l-135 -601q-17 -73 -64.5 -103.5t-128.5 -30.5h-26v98zM110 681q-37 39 -37 107h77q1 -38 16.5 -56t50.5 -18q36 0 51.5 18.5t15.5 55.5h78q0 -68 -37 -107t-108 -39q-70 0 -107 39z" />
    <glyph glyph-name="uni045F" unicode="&#x45f;" horiz-adv-x="483" 
d="M189 0h-137v578h136v-490h107v490h135v-578h-130l-8 -152h-94z" />
    <glyph glyph-name="uni0462" unicode="&#x462;" horiz-adv-x="576" 
d="M483 416q61 -54 61 -181q0 -130 -64 -182.5t-191 -52.5h-176v579h-109v105h109v126h147v-126h168v-105h-168v-109h36q126 0 187 -54zM380 128q27 28 27 102q0 71 -25 104t-94 33h-28v-267h30q63 0 90 28z" />
    <glyph glyph-name="uni0463" unicode="&#x463;" horiz-adv-x="482" 
d="M359.5 326.5q49.5 -15.5 74 -52.5t24.5 -104q0 -63 -23.5 -100t-75 -53.5t-138.5 -16.5h-141v483h-86v95h86v232h135v-232h141v-95h-141v-140h11q84 -1 133.5 -16.5zM311 98q25 19 25 71q0 53 -24 72.5t-88 20.5h-9v-183h5q66 0 91 19z" />
    <glyph glyph-name="uni046A" unicode="&#x46a;" horiz-adv-x="709" 
d="M704 0h-135l-147 389h-8v-389h-119v389h-7l-148 -389h-135l221 510l-172 300h596l-169 -301zM467 706h-230l119 -206z" />
    <glyph glyph-name="uni046B" unicode="&#x46b;" horiz-adv-x="572" 
d="M566 0h-117l-103 251h-6v-251h-108v251h-6l-103 -251h-117l162 346l-138 232h508l-134 -230zM371 489h-174l89 -153z" />
    <glyph glyph-name="uni0490" unicode="&#x490;" horiz-adv-x="420" 
d="M63 810h254v120h89v-229h-196v-701h-147v810z" />
    <glyph glyph-name="uni0491" unicode="&#x491;" horiz-adv-x="326" 
d="M53 578h192v108h72v-202h-128v-484h-136v578z" />
    <glyph glyph-name="uni0492" unicode="&#x492;" horiz-adv-x="443" 
d="M238 708v-234h133v-107h-133v-367h-147v367h-86v107h86v336h333v-102h-186z" />
    <glyph glyph-name="uni0493" unicode="&#x493;" horiz-adv-x="390" 
d="M212 477v-129h123v-95h-123v-253h-135v253h-77v95h77v230h302v-101h-167z" />
    <glyph glyph-name="uni0496" unicode="&#x496;" horiz-adv-x="771" 
d="M773 -25l-51 -136l-56 129l11 32h-81l-159 399h-9v-399h-119v399h-8l-160 -399h-136l179 410l-168 400h139l147 -385h7v385h119v-385h8l146 385h140l-168 -400l148 -340l13 35z" />
    <glyph glyph-name="uni0497" unicode="&#x497;" horiz-adv-x="648" 
d="M652 88v-240h-98l-10 152h-46l-123 282h-9v-282h-113v282h-11l-119 -282h-117l129 293l-122 285h123l107 -276h10v276h113v-276h9l110 276h123l-125 -285l92 -205h77z" />
    <glyph glyph-name="uni049A" unicode="&#x49a;" horiz-adv-x="564" 
d="M566 -25l-51 -136l-55 129l11 32h-92l-135 368l-36 -61v-307h-147v810h147v-356l161 356h141l-155 -361l143 -375l11 31z" />
    <glyph glyph-name="uni049B" unicode="&#x49b;" horiz-adv-x="496" 
d="M499 88v-240h-98l-10 152h-75l-101 263h-27v-263h-136v578h136v-236h27l98 236h144l-118 -276l86 -214h74z" />
    <glyph glyph-name="uni04A2" unicode="&#x4a2;" horiz-adv-x="600" 
d="M598 -25l-51 -136l-56 129l11 32h-127v366h-165v-366h-147v810h147v-338h165v338h148v-753l17 48z" />
    <glyph glyph-name="uni04A3" unicode="&#x4a3;" horiz-adv-x="521" 
d="M515 88v-240h-98l-10 152h-102v249h-117v-249h-136v578h136v-233h117v233h136v-490h74z" />
    <glyph glyph-name="uni04AE" unicode="&#x4ae;" horiz-adv-x="487" 
d="M174 309l-164 501h138l100 -321l94 321h135l-162 -501v-309h-141v309z" />
    <glyph glyph-name="uni04AF" unicode="&#x4af;" horiz-adv-x="418" 
d="M152 58l-145 520h128l78 -340l70 340h127l-138 -517v-234h-120v231z" />
    <glyph glyph-name="uni04B0" unicode="&#x4b0;" horiz-adv-x="490" 
d="M335 360h126v-94h-142v-266h-141v266h-143v94h126l-147 450h138l100 -321l94 321h135z" />
    <glyph glyph-name="uni04B1" unicode="&#x4b1;" horiz-adv-x="421" 
d="M275 74h105v-82h-108v-165h-120v165h-111v82h107l-141 504h128l78 -340l70 340h127z" />
    <glyph glyph-name="uni04BA" unicode="&#x4ba;" horiz-adv-x="579" 
d="M209 457q63 11 104 11q107 0 163.5 -48.5t56.5 -143.5v-276h-148v276q0 51 -22 75t-82 24q-36 0 -72 -7v-368h-148v810h148v-353z" />
    <glyph glyph-name="uni04BB" unicode="&#x4bb;" horiz-adv-x="478" 
d="M54 810h136v-288q65 65 143 65q49 0 72.5 -36t23.5 -91v-460h-135v433q0 28 -8.5 41t-30.5 13q-27 0 -65 -29v-458h-136v810z" />
    <glyph glyph-name="uni04C9" unicode="&#x4c9;" horiz-adv-x="600" 
d="M578 -25l-81 -136l-36 129l18 32h-104v366h-165v-366h-147v810h147v-338h165v338h148v-734l17 29z" />
    <glyph glyph-name="uni04CA" unicode="&#x4ca;" horiz-adv-x="521" 
d="M515 88l-56 -240h-98l25 152h-81v249h-117v-249h-136v578h136v-233h117v233h136v-490h74z" />
    <glyph glyph-name="uni04D8" unicode="&#x4d8;" horiz-adv-x="559" 
d="M102 55q-58 66 -58 190v176h317v175q0 60 -18 87.5t-65 27.5t-65.5 -27.5t-18.5 -87.5v-94h-150v66q0 123 58 187t177 64q115 0 173.5 -67t58.5 -189v-315q0 -123 -58.5 -191t-173.5 -68q-119 0 -177 66zM343 126.5q18 28.5 18 88.5v107h-167v-107q0 -60 18.5 -88.5
t65.5 -28.5t65 28.5z" />
    <glyph glyph-name="uni04D9" unicode="&#x4d9;" horiz-adv-x="446" 
d="M80.5 44q-40.5 55 -40.5 167v83h230v112q0 41 -11 62t-39 21q-27 0 -39 -18t-12 -56v-49h-128v40q0 88 45 134.5t133 46.5q96 0 141 -53.5t45 -157.5v-175q0 -105 -45.5 -158.5t-140.5 -53.5q-98 0 -138.5 55zM259 109q11 21 11 77v40h-101v-54q0 -45 11 -64.5t40 -19.5
q28 0 39 21z" />
    <glyph glyph-name="uni04E8" unicode="&#x4e8;" horiz-adv-x="564" 
d="M461 753q54 -66 54 -195v-304q0 -129 -54.5 -197t-178.5 -68q-126 0 -180 67.5t-54 197.5v304q0 129 54 195t180 66q125 0 179 -66zM215 680.5q-17 -30.5 -17 -88.5v-131h167v131q0 59 -16.5 89t-66.5 30t-67 -30.5zM348 129q17 31 17 90v148h-167v-148q0 -59 17 -90
t67 -31q49 0 66 31z" />
    <glyph glyph-name="uni04E9" unicode="&#x4e9;" horiz-adv-x="454" 
d="M366.5 535.5q46.5 -51.5 46.5 -149.5v-194q0 -98 -46.5 -149.5t-139.5 -51.5t-139 51.5t-46 149.5v194q0 98 46 149.5t139 51.5t139.5 -51.5zM186 468q-10 -25 -10 -73v-62h103v62q0 48 -10 73t-41 25q-32 0 -42 -25zM269 109.5q10 24.5 10 72.5v78h-103v-78
q0 -48 10 -72.5t42 -24.5q31 0 41 24.5z" />
    <glyph glyph-name="uni1E02" unicode="&#x1e02;" horiz-adv-x="557" 
d="M61 810h200q115 0 176 -47t61 -161q0 -74 -30 -115.5t-87 -50.5q140 -27 140 -200q0 -117 -57 -176.5t-169 -59.5h-234v810zM259 479q64 0 87.5 28.5t23.5 92.5q0 62 -30.5 84.5t-101.5 22.5h-30v-228h51zM265 104q65 0 90 31t25 102q0 73 -27.5 106.5t-92.5 33.5h-52
v-273h57zM213 1030h132v-137h-132v137z" />
    <glyph glyph-name="uni1E03" unicode="&#x1e03;" horiz-adv-x="477" 
d="M189 43v-43h-135v810h135v-276q55 53 118 53q70 0 99 -58t29 -135v-196q0 -93 -32.5 -150t-101.5 -57q-57 0 -112 52zM289 114q10 28 10 79v208q0 44 -11 69.5t-39 25.5q-29 0 -60 -24v-366q28 -20 60 -20q30 0 40 28zM56 1030h132v-137h-132v137z" />
    <glyph glyph-name="uni1E0A" unicode="&#x1e0a;" horiz-adv-x="557" 
d="M61 810h191q98 0 154 -26.5t79.5 -81t23.5 -144.5v-295q0 -92 -23.5 -149t-78.5 -85.5t-149 -28.5h-197v810zM254 103q49 0 71 17t28 47.5t6 90.5v310q0 54 -7 82t-29.5 41.5t-70.5 13.5h-44v-602h46zM213 1030h132v-137h-132v137z" />
    <glyph glyph-name="uni1E0B" unicode="&#x1e0b;" horiz-adv-x="474" 
d="M77.5 40.5q-34.5 49.5 -34.5 156.5v177q0 98 32.5 155.5t105.5 57.5q56 0 104 -46v269h137v-810h-137v41q-48 -50 -103 -50q-70 0 -104.5 49.5zM285 104v371q-26 19 -54 19q-52 0 -52 -91v-216q0 -49 11 -75.5t41 -26.5q26 0 54 19zM288 1030h132v-137h-132v137z" />
    <glyph glyph-name="uni1E1E" unicode="&#x1e1e;" horiz-adv-x="413" 
d="M61 810h333v-102h-186v-236h152v-103h-152v-369h-147v810zM141 1030h132v-137h-132v137z" />
    <glyph glyph-name="uni1E1F" unicode="&#x1e1f;" horiz-adv-x="304" 
d="M80 483h-62v95h62v37q0 59 10 95t41 56t91 20q33 0 74 -6v-100q-27 5 -37 5q-24 0 -34 -15t-10 -45v-47h81v-95h-81v-483h-135v483zM130 1001h132v-137h-132v137z" />
    <glyph glyph-name="uni1E40" unicode="&#x1e40;" horiz-adv-x="683" 
d="M73 810h153l115 -561l119 561h149l15 -810h-110l-12 563l-115 -563h-89l-117 565l-11 -565h-111zM276 1030h132v-137h-132v137z" />
    <glyph glyph-name="uni1E41" unicode="&#x1e41;" horiz-adv-x="718" 
d="M52 578h131v-51q58 61 136 61q35 0 60 -17.5t37 -52.5q60 70 146 70q48 0 77.5 -35t29.5 -101v-452h-130v439q0 32 -10.5 45t-31.5 13q-16 0 -35.5 -9t-35.5 -25v-11v-452h-129v439q0 32 -11 45t-32 13q-16 0 -35 -9t-36 -25v-463h-131v578zM293 798h132v-137h-132v137z
" />
    <glyph glyph-name="uni1E56" unicode="&#x1e56;" horiz-adv-x="527" 
d="M61 810h238q207 0 207 -230q0 -220 -217 -220h-81v-360h-147v810zM265 464q60 0 81 25.5t21 91.5q0 48 -7 73.5t-28.5 38.5t-66.5 13h-57v-242h57zM198 1030h132v-137h-132v137z" />
    <glyph glyph-name="uni1E57" unicode="&#x1e57;" horiz-adv-x="476" 
d="M52 578h136v-44q55 53 118 53q70 0 99 -58t29 -135v-196q0 -93 -32.5 -150t-102.5 -57q-56 0 -111 52v-233h-136v768zM287.5 114q10.5 28 10.5 79v208q0 45 -11 70t-40 25q-30 0 -59 -25v-365q28 -20 60 -20q29 0 39.5 28zM172 798h132v-137h-132v137z" />
    <glyph glyph-name="uni1E60" unicode="&#x1e60;" horiz-adv-x="494" 
d="M100.5 51q-54.5 62 -59.5 185l127 25q3 -77 24.5 -117.5t67.5 -40.5q34 0 50.5 20.5t16.5 55.5q0 48 -21.5 81.5t-67.5 73.5l-102 89q-47 40 -70.5 86t-23.5 110q0 95 55.5 147.5t153.5 52.5q105 0 150.5 -59.5t52.5 -160.5l-127 -22q-3 66 -18.5 99.5t-60.5 33.5
q-32 0 -50 -21.5t-18 -54.5q0 -39 15.5 -65.5t50.5 -56.5l101 -89q57 -49 89 -105t32 -130q0 -58 -25.5 -103t-71.5 -70.5t-106 -25.5q-110 0 -164.5 62zM181 1030h132v-137h-132v137z" />
    <glyph glyph-name="uni1E61" unicode="&#x1e61;" horiz-adv-x="400" 
d="M89 30q-47 39 -67 114l101 39q23 -97 84 -97q23 0 35.5 12t12.5 33q0 23 -14 42.5t-50 49.5l-69 60q-44 36 -65 70t-21 83q0 68 46.5 109.5t117.5 41.5q68 0 111 -40.5t56 -109.5l-89 -38q-8 40 -26.5 65.5t-47.5 25.5q-21 0 -33.5 -13t-12.5 -33q0 -16 14 -34t42 -42
l70 -64q45 -39 69.5 -74.5t24.5 -85.5q0 -73 -47.5 -113t-121.5 -40q-73 0 -120 39zM134 798h132v-137h-132v137z" />
    <glyph glyph-name="uni1E6A" unicode="&#x1e6a;" horiz-adv-x="429" 
d="M142 701h-129v109h403v-109h-126v-701h-148v701zM148 1030h132v-137h-132v137z" />
    <glyph glyph-name="uni1E6B" unicode="&#x1e6b;" horiz-adv-x="332" 
d="M107.5 31q-32.5 38 -32.5 113v345h-58v89h58v173h137v-173h87v-89h-87v-333q0 -29 12.5 -42t39.5 -13q25 0 42 4v-105q-40 -7 -87 -7q-79 0 -111.5 38zM78 971h132v-137h-132v137z" />
    <glyph glyph-name="Wgrave" unicode="&#x1e80;" horiz-adv-x="713" 
d="M32 810h123l67 -525l84 523h100l87 -523l66 525h122l-113 -810h-120l-90 543l-89 -543h-123zM201 1066h138l59 -200h-78z" />
    <glyph glyph-name="wgrave" unicode="&#x1e81;" horiz-adv-x="593" 
d="M24 578h113l51 -376l61 376h100l57 -378l54 378h108l-91 -578h-115l-64 365l-67 -365h-118zM140 834h138l59 -200h-78z" />
    <glyph glyph-name="Wacute" unicode="&#x1e82;" horiz-adv-x="713" 
d="M32 810h123l67 -525l84 523h100l87 -523l66 525h122l-113 -810h-120l-90 543l-89 -543h-123zM376 1066h138l-119 -200h-79z" />
    <glyph glyph-name="wacute" unicode="&#x1e83;" horiz-adv-x="593" 
d="M24 578h113l51 -376l61 376h100l57 -378l54 378h108l-91 -578h-115l-64 365l-67 -365h-118zM315 834h138l-119 -200h-79z" />
    <glyph glyph-name="Wdieresis" unicode="&#x1e84;" horiz-adv-x="713" 
d="M32 810h123l67 -525l84 523h100l87 -523l66 525h122l-113 -810h-120l-90 543l-89 -543h-123zM199 1042h120v-130h-120v130zM395 1042h120v-130h-120v130z" />
    <glyph glyph-name="wdieresis" unicode="&#x1e85;" horiz-adv-x="593" 
d="M24 578h113l51 -376l61 376h100l57 -378l54 378h108l-91 -578h-115l-64 365l-67 -365h-118zM138 810h120v-130h-120v130zM334 810h120v-130h-120v130z" />
    <glyph glyph-name="uni1E9E" unicode="&#x1e9e;" horiz-adv-x="582" 
d="M512.5 379.5q37.5 -54.5 37.5 -146.5q0 -126 -58 -185t-172 -59h-42v103h26q53 0 79 33t26 104q0 73 -25.5 107t-79.5 34h-16v102l121 226q-34 13 -80 13q-126 0 -126 -149v-562h-148v557q0 121 65.5 191.5t197.5 70.5q106 0 199 -48v-104l-117 -218q75 -15 112.5 -69.5z
" />
    <glyph glyph-name="uni1EA0" unicode="&#x1ea0;" horiz-adv-x="522" 
d="M182 810h158l162 -810h-137l-32 187h-141l-33 -187h-139zM317 281l-55 340l-55 -340h110zM199 -67h124v-125h-124v125z" />
    <glyph glyph-name="uni1EA1" unicode="&#x1ea1;" horiz-adv-x="452" 
d="M98.5 11q-28.5 20 -44 51.5t-15.5 65.5q0 67 31.5 110.5t78 67.5t123.5 53v50q0 40 -9.5 58.5t-36.5 18.5q-46 0 -48 -64l-2 -35l-129 5q3 100 49.5 147.5t140.5 47.5q85 0 126 -46.5t41 -131.5v-267q0 -62 10 -142h-122q-10 54 -14 83q-12 -39 -40.5 -65.5t-73.5 -26.5
q-37 0 -65.5 20zM246.5 104q15.5 12 25.5 26v162q-53 -31 -79 -59.5t-26 -71.5q0 -32 12.5 -50.5t34.5 -18.5q17 0 32.5 12zM164 -67h124v-125h-124v125z" />
    <glyph glyph-name="uni1EA2" unicode="&#x1ea2;" horiz-adv-x="522" 
d="M182 810h158l162 -810h-137l-32 187h-141l-33 -187h-139zM317 281l-55 340l-55 -340h110zM218 910q35 15 51.5 28t16.5 32q0 38 -59 38q-30 0 -56 -8v62q45 12 92 12q50 0 83 -23.5t33 -70.5q0 -44 -30 -70.5t-86 -46.5z" />
    <glyph glyph-name="uni1EA3" unicode="&#x1ea3;" horiz-adv-x="452" 
d="M98.5 11q-28.5 20 -44 51.5t-15.5 65.5q0 67 31.5 110.5t78 67.5t123.5 53v50q0 40 -9.5 58.5t-36.5 18.5q-46 0 -48 -64l-2 -35l-129 5q3 100 49.5 147.5t140.5 47.5q85 0 126 -46.5t41 -131.5v-267q0 -62 10 -142h-122q-10 54 -14 83q-12 -39 -40.5 -65.5t-73.5 -26.5
q-37 0 -65.5 20zM246.5 104q15.5 12 25.5 26v162q-53 -31 -79 -59.5t-26 -71.5q0 -32 12.5 -50.5t34.5 -18.5q17 0 32.5 12zM193 678q35 15 51.5 28t16.5 32q0 38 -59 38q-30 0 -56 -8v62q45 12 92 12q50 0 83 -23.5t33 -70.5q0 -44 -30 -70.5t-86 -46.5z" />
    <glyph glyph-name="uni1EA4" unicode="&#x1ea4;" horiz-adv-x="522" 
d="M182 810h158l162 -810h-137l-32 187h-141l-33 -187h-139zM317 281l-55 340l-55 -340h110zM446 1104h108l-85 -119h-76zM200 1035h122l92 -161h-99l-54 101l-53 -101h-98z" />
    <glyph glyph-name="uni1EA5" unicode="&#x1ea5;" horiz-adv-x="452" 
d="M98.5 11q-28.5 20 -44 51.5t-15.5 65.5q0 67 31.5 110.5t78 67.5t123.5 53v50q0 40 -9.5 58.5t-36.5 18.5q-46 0 -48 -64l-2 -35l-129 5q3 100 49.5 147.5t140.5 47.5q85 0 126 -46.5t41 -131.5v-267q0 -62 10 -142h-122q-10 54 -14 83q-12 -39 -40.5 -65.5t-73.5 -26.5
q-37 0 -65.5 20zM246.5 104q15.5 12 25.5 26v162q-53 -31 -79 -59.5t-26 -71.5q0 -32 12.5 -50.5t34.5 -18.5q17 0 32.5 12zM421 872h108l-85 -119h-76zM175 803h122l92 -161h-99l-54 101l-53 -101h-98z" />
    <glyph glyph-name="uni1EA6" unicode="&#x1ea6;" horiz-adv-x="522" 
d="M182 810h158l162 -810h-137l-32 187h-141l-33 -187h-139zM317 281l-55 340l-55 -340h110zM336 1104h108l53 -119h-77zM200 1035h122l92 -161h-99l-54 101l-53 -101h-98z" />
    <glyph glyph-name="uni1EA7" unicode="&#x1ea7;" horiz-adv-x="452" 
d="M98.5 11q-28.5 20 -44 51.5t-15.5 65.5q0 67 31.5 110.5t78 67.5t123.5 53v50q0 40 -9.5 58.5t-36.5 18.5q-46 0 -48 -64l-2 -35l-129 5q3 100 49.5 147.5t140.5 47.5q85 0 126 -46.5t41 -131.5v-267q0 -62 10 -142h-122q-10 54 -14 83q-12 -39 -40.5 -65.5t-73.5 -26.5
q-37 0 -65.5 20zM246.5 104q15.5 12 25.5 26v162q-53 -31 -79 -59.5t-26 -71.5q0 -32 12.5 -50.5t34.5 -18.5q17 0 32.5 12zM311 872h108l53 -119h-77zM175 803h122l92 -161h-99l-54 101l-53 -101h-98z" />
    <glyph glyph-name="uni1EA8" unicode="&#x1ea8;" horiz-adv-x="522" 
d="M182 810h158l162 -810h-137l-32 187h-141l-33 -187h-139zM317 281l-55 340l-55 -340h110zM386 1006q21 15 31.5 28.5t10.5 30.5q0 19 -13 29t-35 10q-26 0 -48 -8v61q36 13 78 13q49 0 79 -24t30 -69q0 -42 -24.5 -68.5t-68.5 -47.5zM200 1035h122l92 -161h-99l-54 101
l-53 -101h-98z" />
    <glyph glyph-name="uni1EA9" unicode="&#x1ea9;" horiz-adv-x="452" 
d="M98.5 11q-28.5 20 -44 51.5t-15.5 65.5q0 67 31.5 110.5t78 67.5t123.5 53v50q0 40 -9.5 58.5t-36.5 18.5q-46 0 -48 -64l-2 -35l-129 5q3 100 49.5 147.5t140.5 47.5q85 0 126 -46.5t41 -131.5v-267q0 -62 10 -142h-122q-10 54 -14 83q-12 -39 -40.5 -65.5t-73.5 -26.5
q-37 0 -65.5 20zM246.5 104q15.5 12 25.5 26v162q-53 -31 -79 -59.5t-26 -71.5q0 -32 12.5 -50.5t34.5 -18.5q17 0 32.5 12zM361 774q21 15 31.5 28.5t10.5 30.5q0 19 -13 29t-35 10q-26 0 -48 -8v61q36 13 78 13q49 0 79 -24t30 -69q0 -42 -24.5 -68.5t-68.5 -47.5z
M175 803h122l92 -161h-99l-54 101l-53 -101h-98z" />
    <glyph glyph-name="uni1EAA" unicode="&#x1eaa;" horiz-adv-x="522" 
d="M182 810h158l162 -810h-137l-32 187h-141l-33 -187h-139zM317 281l-55 340l-55 -340h110zM200 1035h122l92 -161h-99l-54 101l-53 -101h-98zM305 1090.5q-16 6.5 -36 19.5q-18 10 -30.5 15.5t-25.5 5.5q-19 0 -27 -10.5t-8 -30.5h-70q0 126 85 126q17 0 31.5 -6t35.5 -18
q20 -11 32 -16.5t26 -5.5q32 0 32 40h66q0 -57 -16 -91.5t-60 -34.5q-19 0 -35 6.5z" />
    <glyph glyph-name="uni1EAB" unicode="&#x1eab;" horiz-adv-x="452" 
d="M98.5 11q-28.5 20 -44 51.5t-15.5 65.5q0 67 31.5 110.5t78 67.5t123.5 53v50q0 40 -9.5 58.5t-36.5 18.5q-46 0 -48 -64l-2 -35l-129 5q3 100 49.5 147.5t140.5 47.5q85 0 126 -46.5t41 -131.5v-267q0 -62 10 -142h-122q-10 54 -14 83q-12 -39 -40.5 -65.5t-73.5 -26.5
q-37 0 -65.5 20zM246.5 104q15.5 12 25.5 26v162q-53 -31 -79 -59.5t-26 -71.5q0 -32 12.5 -50.5t34.5 -18.5q17 0 32.5 12zM175 803h122l92 -161h-99l-54 101l-53 -101h-98zM280 858.5q-16 6.5 -36 19.5q-18 10 -30.5 15.5t-25.5 5.5q-19 0 -27 -10.5t-8 -30.5h-70
q0 126 85 126q17 0 31.5 -6t35.5 -18q20 -11 32 -16.5t26 -5.5q32 0 32 40h66q0 -57 -16 -91.5t-60 -34.5q-19 0 -35 6.5z" />
    <glyph glyph-name="uni1EAC" unicode="&#x1eac;" horiz-adv-x="522" 
d="M182 810h158l162 -810h-137l-32 187h-141l-33 -187h-139zM317 281l-55 340l-55 -340h110zM200 1035h122l92 -161h-99l-54 101l-53 -101h-98zM199 -67h124v-125h-124v125z" />
    <glyph glyph-name="uni1EAD" unicode="&#x1ead;" horiz-adv-x="452" 
d="M98.5 11q-28.5 20 -44 51.5t-15.5 65.5q0 67 31.5 110.5t78 67.5t123.5 53v50q0 40 -9.5 58.5t-36.5 18.5q-46 0 -48 -64l-2 -35l-129 5q3 100 49.5 147.5t140.5 47.5q85 0 126 -46.5t41 -131.5v-267q0 -62 10 -142h-122q-10 54 -14 83q-12 -39 -40.5 -65.5t-73.5 -26.5
q-37 0 -65.5 20zM246.5 104q15.5 12 25.5 26v162q-53 -31 -79 -59.5t-26 -71.5q0 -32 12.5 -50.5t34.5 -18.5q17 0 32.5 12zM164 -67h124v-125h-124v125zM175 803h122l92 -161h-99l-54 101l-53 -101h-98z" />
    <glyph glyph-name="uni1EAE" unicode="&#x1eae;" horiz-adv-x="522" 
d="M182 810h158l162 -810h-137l-32 187h-141l-33 -187h-139zM317 281l-55 340l-55 -340h110zM271 1169h120l-108 -116h-80zM155 902q-37 39 -37 107h77q1 -38 16.5 -56t50.5 -18q36 0 51.5 18.5t15.5 55.5h78q0 -68 -37 -107t-108 -39q-70 0 -107 39z" />
    <glyph glyph-name="uni1EAF" unicode="&#x1eaf;" horiz-adv-x="452" 
d="M98.5 11q-28.5 20 -44 51.5t-15.5 65.5q0 67 31.5 110.5t78 67.5t123.5 53v50q0 40 -9.5 58.5t-36.5 18.5q-46 0 -48 -64l-2 -35l-129 5q3 100 49.5 147.5t140.5 47.5q85 0 126 -46.5t41 -131.5v-267q0 -62 10 -142h-122q-10 54 -14 83q-12 -39 -40.5 -65.5t-73.5 -26.5
q-37 0 -65.5 20zM246.5 104q15.5 12 25.5 26v162q-53 -31 -79 -59.5t-26 -71.5q0 -32 12.5 -50.5t34.5 -18.5q17 0 32.5 12zM246 937h120l-108 -116h-80zM130 670q-37 39 -37 107h77q1 -38 16.5 -56t50.5 -18q36 0 51.5 18.5t15.5 55.5h78q0 -68 -37 -107t-108 -39
q-70 0 -107 39z" />
    <glyph glyph-name="uni1EB0" unicode="&#x1eb0;" horiz-adv-x="522" 
d="M182 810h158l162 -810h-137l-32 187h-141l-33 -187h-139zM317 281l-55 340l-55 -340h110zM132 1169h120l67 -116h-79zM155 902q-37 39 -37 107h77q1 -38 16.5 -56t50.5 -18q36 0 51.5 18.5t15.5 55.5h78q0 -68 -37 -107t-108 -39q-70 0 -107 39z" />
    <glyph glyph-name="uni1EB1" unicode="&#x1eb1;" horiz-adv-x="452" 
d="M98.5 11q-28.5 20 -44 51.5t-15.5 65.5q0 67 31.5 110.5t78 67.5t123.5 53v50q0 40 -9.5 58.5t-36.5 18.5q-46 0 -48 -64l-2 -35l-129 5q3 100 49.5 147.5t140.5 47.5q85 0 126 -46.5t41 -131.5v-267q0 -62 10 -142h-122q-10 54 -14 83q-12 -39 -40.5 -65.5t-73.5 -26.5
q-37 0 -65.5 20zM246.5 104q15.5 12 25.5 26v162q-53 -31 -79 -59.5t-26 -71.5q0 -32 12.5 -50.5t34.5 -18.5q17 0 32.5 12zM107 937h120l67 -116h-79zM130 670q-37 39 -37 107h77q1 -38 16.5 -56t50.5 -18q36 0 51.5 18.5t15.5 55.5h78q0 -68 -37 -107t-108 -39
q-70 0 -107 39z" />
    <glyph glyph-name="uni1EB2" unicode="&#x1eb2;" horiz-adv-x="522" 
d="M182 810h158l162 -810h-137l-32 187h-141l-33 -187h-139zM317 281l-55 340l-55 -340h110zM231 1067q21 15 31.5 28t10.5 31q0 19 -12.5 29t-34.5 10q-25 0 -49 -8v61q38 13 78 13q49 0 79 -24t30 -69q0 -40 -25 -68t-68 -48zM155 913q-37 39 -37 107h77q1 -38 16.5 -56
t50.5 -18q36 0 51.5 18.5t15.5 55.5h78q0 -68 -37 -107t-108 -39q-70 0 -107 39z" />
    <glyph glyph-name="uni1EB3" unicode="&#x1eb3;" horiz-adv-x="452" 
d="M98.5 11q-28.5 20 -44 51.5t-15.5 65.5q0 67 31.5 110.5t78 67.5t123.5 53v50q0 40 -9.5 58.5t-36.5 18.5q-46 0 -48 -64l-2 -35l-129 5q3 100 49.5 147.5t140.5 47.5q85 0 126 -46.5t41 -131.5v-267q0 -62 10 -142h-122q-10 54 -14 83q-12 -39 -40.5 -65.5t-73.5 -26.5
q-37 0 -65.5 20zM246.5 104q15.5 12 25.5 26v162q-53 -31 -79 -59.5t-26 -71.5q0 -32 12.5 -50.5t34.5 -18.5q17 0 32.5 12zM206 835q21 15 31.5 28t10.5 31q0 19 -12.5 29t-34.5 10q-25 0 -49 -8v61q38 13 78 13q49 0 79 -24t30 -69q0 -40 -25 -68t-68 -48zM130 681
q-37 39 -37 107h77q1 -38 16.5 -56t50.5 -18q36 0 51.5 18.5t15.5 55.5h78q0 -68 -37 -107t-108 -39q-70 0 -107 39z" />
    <glyph glyph-name="uni1EB4" unicode="&#x1eb4;" horiz-adv-x="522" 
d="M182 810h158l162 -810h-137l-32 187h-141l-33 -187h-139zM317 281l-55 340l-55 -340h110zM154 913q-37 39 -37 107h77q1 -38 16.5 -56t50.5 -18q36 0 51.5 18.5t15.5 55.5h78q0 -68 -37 -107t-108 -39q-70 0 -107 39zM305 1078.5q-16 6.5 -36 19.5q-18 10 -30.5 15.5
t-25.5 5.5q-19 0 -27 -10.5t-8 -30.5h-70q0 126 85 126q17 0 31.5 -6t35.5 -18q20 -11 32 -16.5t26 -5.5q32 0 32 40h66q0 -57 -16 -91.5t-60 -34.5q-19 0 -35 6.5z" />
    <glyph glyph-name="uni1EB5" unicode="&#x1eb5;" horiz-adv-x="452" 
d="M98.5 11q-28.5 20 -44 51.5t-15.5 65.5q0 67 31.5 110.5t78 67.5t123.5 53v50q0 40 -9.5 58.5t-36.5 18.5q-46 0 -48 -64l-2 -35l-129 5q3 100 49.5 147.5t140.5 47.5q85 0 126 -46.5t41 -131.5v-267q0 -62 10 -142h-122q-10 54 -14 83q-12 -39 -40.5 -65.5t-73.5 -26.5
q-37 0 -65.5 20zM246.5 104q15.5 12 25.5 26v162q-53 -31 -79 -59.5t-26 -71.5q0 -32 12.5 -50.5t34.5 -18.5q17 0 32.5 12zM129 681q-37 39 -37 107h77q1 -38 16.5 -56t50.5 -18q36 0 51.5 18.5t15.5 55.5h78q0 -68 -37 -107t-108 -39q-70 0 -107 39zM280 846.5
q-16 6.5 -36 19.5q-18 10 -30.5 15.5t-25.5 5.5q-19 0 -27 -10.5t-8 -30.5h-70q0 126 85 126q17 0 31.5 -6t35.5 -18q20 -11 32 -16.5t26 -5.5q32 0 32 40h66q0 -57 -16 -91.5t-60 -34.5q-19 0 -35 6.5z" />
    <glyph glyph-name="uni1EB6" unicode="&#x1eb6;" horiz-adv-x="522" 
d="M182 810h158l162 -810h-137l-32 187h-141l-33 -187h-139zM317 281l-55 340l-55 -340h110zM199 -67h124v-125h-124v125zM155 913q-37 39 -37 107h77q1 -38 16.5 -56t50.5 -18q36 0 51.5 18.5t15.5 55.5h78q0 -68 -37 -107t-108 -39q-70 0 -107 39z" />
    <glyph glyph-name="uni1EB7" unicode="&#x1eb7;" horiz-adv-x="452" 
d="M98.5 11q-28.5 20 -44 51.5t-15.5 65.5q0 67 31.5 110.5t78 67.5t123.5 53v50q0 40 -9.5 58.5t-36.5 18.5q-46 0 -48 -64l-2 -35l-129 5q3 100 49.5 147.5t140.5 47.5q85 0 126 -46.5t41 -131.5v-267q0 -62 10 -142h-122q-10 54 -14 83q-12 -39 -40.5 -65.5t-73.5 -26.5
q-37 0 -65.5 20zM246.5 104q15.5 12 25.5 26v162q-53 -31 -79 -59.5t-26 -71.5q0 -32 12.5 -50.5t34.5 -18.5q17 0 32.5 12zM164 -67h124v-125h-124v125zM130 681q-37 39 -37 107h77q1 -38 16.5 -56t50.5 -18q36 0 51.5 18.5t15.5 55.5h78q0 -68 -37 -107t-108 -39
q-70 0 -107 39z" />
    <glyph glyph-name="uni1EB8" unicode="&#x1eb8;" horiz-adv-x="428" 
d="M61 810h340v-104h-193v-233h152v-103h-152v-269h195v-101h-342v810zM152 -67h124v-125h-124v125z" />
    <glyph glyph-name="uni1EB9" unicode="&#x1eb9;" horiz-adv-x="446" 
d="M86 44.5q-45 53.5 -45 158.5v172q0 106 45.5 159t140.5 53q98 0 138.5 -55t40.5 -166v-83h-230v-114q0 -42 12.5 -61t39.5 -19q26 0 37.5 18.5t11.5 56.5v49h128v-40q0 -89 -45 -135.5t-133 -46.5q-96 0 -141 53.5zM277 350v55q0 45 -11 64.5t-39 19.5q-29 0 -40 -21
t-11 -78v-40h101zM161 -67h124v-125h-124v125z" />
    <glyph glyph-name="uni1EBA" unicode="&#x1eba;" horiz-adv-x="428" 
d="M61 810h340v-104h-193v-233h152v-103h-152v-269h195v-101h-342v810zM190 910q35 15 51.5 28t16.5 32q0 38 -59 38q-30 0 -56 -8v62q45 12 92 12q50 0 83 -23.5t33 -70.5q0 -44 -30 -70.5t-86 -46.5z" />
    <glyph glyph-name="uni1EBB" unicode="&#x1ebb;" horiz-adv-x="446" 
d="M86 44.5q-45 53.5 -45 158.5v172q0 106 45.5 159t140.5 53q98 0 138.5 -55t40.5 -166v-83h-230v-114q0 -42 12.5 -61t39.5 -19q26 0 37.5 18.5t11.5 56.5v49h128v-40q0 -89 -45 -135.5t-133 -46.5q-96 0 -141 53.5zM277 350v55q0 45 -11 64.5t-39 19.5q-29 0 -40 -21
t-11 -78v-40h101zM181 678q35 15 51.5 28t16.5 32q0 38 -59 38q-30 0 -56 -8v62q45 12 92 12q50 0 83 -23.5t33 -70.5q0 -44 -30 -70.5t-86 -46.5z" />
    <glyph glyph-name="uni1EBC" unicode="&#x1ebc;" horiz-adv-x="428" 
d="M61 810h340v-104h-193v-233h152v-103h-152v-269h195v-101h-342v810zM277 922.5q-16 6.5 -36 19.5q-18 10 -30.5 15.5t-25.5 5.5q-19 0 -27 -10.5t-8 -30.5h-70q0 126 85 126q17 0 31.5 -6t35.5 -18q20 -11 32 -16.5t26 -5.5q32 0 32 40h66q0 -57 -16 -91.5t-60 -34.5
q-19 0 -35 6.5z" />
    <glyph glyph-name="uni1EBD" unicode="&#x1ebd;" horiz-adv-x="446" 
d="M86 44.5q-45 53.5 -45 158.5v172q0 106 45.5 159t140.5 53q98 0 138.5 -55t40.5 -166v-83h-230v-114q0 -42 12.5 -61t39.5 -19q26 0 37.5 18.5t11.5 56.5v49h128v-40q0 -89 -45 -135.5t-133 -46.5q-96 0 -141 53.5zM277 350v55q0 45 -11 64.5t-39 19.5q-29 0 -40 -21
t-11 -78v-40h101zM268 690.5q-16 6.5 -36 19.5q-18 10 -30.5 15.5t-25.5 5.5q-19 0 -27 -10.5t-8 -30.5h-70q0 126 85 126q17 0 31.5 -6t35.5 -18q20 -11 32 -16.5t26 -5.5q32 0 32 40h66q0 -57 -16 -91.5t-60 -34.5q-19 0 -35 6.5z" />
    <glyph glyph-name="uni1EBE" unicode="&#x1ebe;" horiz-adv-x="428" 
d="M61 810h340v-104h-193v-233h152v-103h-152v-269h195v-101h-342v810zM418 1104h108l-85 -119h-76zM172 1035h122l92 -161h-99l-54 101l-53 -101h-98z" />
    <glyph glyph-name="uni1EBF" unicode="&#x1ebf;" horiz-adv-x="446" 
d="M86 44.5q-45 53.5 -45 158.5v172q0 106 45.5 159t140.5 53q98 0 138.5 -55t40.5 -166v-83h-230v-114q0 -42 12.5 -61t39.5 -19q26 0 37.5 18.5t11.5 56.5v49h128v-40q0 -89 -45 -135.5t-133 -46.5q-96 0 -141 53.5zM277 350v55q0 45 -11 64.5t-39 19.5q-29 0 -40 -21
t-11 -78v-40h101zM409 872h108l-85 -119h-76zM163 803h122l92 -161h-99l-54 101l-53 -101h-98z" />
    <glyph glyph-name="uni1EC0" unicode="&#x1ec0;" horiz-adv-x="428" 
d="M61 810h340v-104h-193v-233h152v-103h-152v-269h195v-101h-342v810zM308 1104h108l53 -119h-77zM172 1035h122l92 -161h-99l-54 101l-53 -101h-98z" />
    <glyph glyph-name="uni1EC1" unicode="&#x1ec1;" horiz-adv-x="446" 
d="M86 44.5q-45 53.5 -45 158.5v172q0 106 45.5 159t140.5 53q98 0 138.5 -55t40.5 -166v-83h-230v-114q0 -42 12.5 -61t39.5 -19q26 0 37.5 18.5t11.5 56.5v49h128v-40q0 -89 -45 -135.5t-133 -46.5q-96 0 -141 53.5zM277 350v55q0 45 -11 64.5t-39 19.5q-29 0 -40 -21
t-11 -78v-40h101zM299 872h108l53 -119h-77zM163 803h122l92 -161h-99l-54 101l-53 -101h-98z" />
    <glyph glyph-name="uni1EC2" unicode="&#x1ec2;" horiz-adv-x="428" 
d="M61 810h340v-104h-193v-233h152v-103h-152v-269h195v-101h-342v810zM358 1006q21 15 31.5 28.5t10.5 30.5q0 19 -13 29t-35 10q-26 0 -48 -8v61q36 13 78 13q49 0 79 -24t30 -69q0 -42 -24.5 -68.5t-68.5 -47.5zM172 1035h122l92 -161h-99l-54 101l-53 -101h-98z" />
    <glyph glyph-name="uni1EC3" unicode="&#x1ec3;" horiz-adv-x="446" 
d="M86 44.5q-45 53.5 -45 158.5v172q0 106 45.5 159t140.5 53q98 0 138.5 -55t40.5 -166v-83h-230v-114q0 -42 12.5 -61t39.5 -19q26 0 37.5 18.5t11.5 56.5v49h128v-40q0 -89 -45 -135.5t-133 -46.5q-96 0 -141 53.5zM277 350v55q0 45 -11 64.5t-39 19.5q-29 0 -40 -21
t-11 -78v-40h101zM349 774q21 15 31.5 28.5t10.5 30.5q0 19 -13 29t-35 10q-26 0 -48 -8v61q36 13 78 13q49 0 79 -24t30 -69q0 -42 -24.5 -68.5t-68.5 -47.5zM163 803h122l92 -161h-99l-54 101l-53 -101h-98z" />
    <glyph glyph-name="uni1EC4" unicode="&#x1ec4;" horiz-adv-x="428" 
d="M61 810h340v-104h-193v-233h152v-103h-152v-269h195v-101h-342v810zM172 1035h122l92 -161h-99l-54 101l-53 -101h-98zM277 1090.5q-16 6.5 -36 19.5q-18 10 -30.5 15.5t-25.5 5.5q-19 0 -27 -10.5t-8 -30.5h-70q0 126 85 126q17 0 31.5 -6t35.5 -18q20 -11 32 -16.5
t26 -5.5q32 0 32 40h66q0 -57 -16 -91.5t-60 -34.5q-19 0 -35 6.5z" />
    <glyph glyph-name="uni1EC5" unicode="&#x1ec5;" horiz-adv-x="446" 
d="M86 44.5q-45 53.5 -45 158.5v172q0 106 45.5 159t140.5 53q98 0 138.5 -55t40.5 -166v-83h-230v-114q0 -42 12.5 -61t39.5 -19q26 0 37.5 18.5t11.5 56.5v49h128v-40q0 -89 -45 -135.5t-133 -46.5q-96 0 -141 53.5zM277 350v55q0 45 -11 64.5t-39 19.5q-29 0 -40 -21
t-11 -78v-40h101zM163 803h122l92 -161h-99l-54 101l-53 -101h-98zM268 858.5q-16 6.5 -36 19.5q-18 10 -30.5 15.5t-25.5 5.5q-19 0 -27 -10.5t-8 -30.5h-70q0 126 85 126q17 0 31.5 -6t35.5 -18q20 -11 32 -16.5t26 -5.5q32 0 32 40h66q0 -57 -16 -91.5t-60 -34.5
q-19 0 -35 6.5z" />
    <glyph glyph-name="uni1EC6" unicode="&#x1ec6;" horiz-adv-x="428" 
d="M61 810h340v-104h-193v-233h152v-103h-152v-269h195v-101h-342v810zM172 1035h122l92 -161h-99l-54 101l-53 -101h-98zM152 -67h124v-125h-124v125z" />
    <glyph glyph-name="uni1EC7" unicode="&#x1ec7;" horiz-adv-x="446" 
d="M86 44.5q-45 53.5 -45 158.5v172q0 106 45.5 159t140.5 53q98 0 138.5 -55t40.5 -166v-83h-230v-114q0 -42 12.5 -61t39.5 -19q26 0 37.5 18.5t11.5 56.5v49h128v-40q0 -89 -45 -135.5t-133 -46.5q-96 0 -141 53.5zM277 350v55q0 45 -11 64.5t-39 19.5q-29 0 -40 -21
t-11 -78v-40h101zM161 -67h124v-125h-124v125zM163 803h122l92 -161h-99l-54 101l-53 -101h-98z" />
    <glyph glyph-name="uni1EC8" unicode="&#x1ec8;" horiz-adv-x="275" 
d="M65 810h146v-810h-146v810zM94 910q35 15 51.5 28t16.5 32q0 38 -59 38q-30 0 -56 -8v62q45 12 92 12q50 0 83 -23.5t33 -70.5q0 -44 -30 -70.5t-86 -46.5z" />
    <glyph glyph-name="uni1EC9" unicode="&#x1ec9;" horiz-adv-x="253" 
d="M60 578h136v-578h-136v578zM85 678q35 15 51.5 28t16.5 32q0 38 -59 38q-30 0 -56 -8v62q45 12 92 12q50 0 83 -23.5t33 -70.5q0 -44 -30 -70.5t-86 -46.5z" />
    <glyph glyph-name="uni1ECA" unicode="&#x1eca;" horiz-adv-x="275" 
d="M65 810h146v-810h-146v810zM76 -67h124v-125h-124v125z" />
    <glyph glyph-name="uni1ECB" unicode="&#x1ecb;" horiz-adv-x="248" 
d="M56 783h136v-113h-136v113zM56 578h136v-578h-136v578zM62 -67h124v-125h-124v125z" />
    <glyph glyph-name="uni1ECC" unicode="&#x1ecc;" horiz-adv-x="563" 
d="M102 56.5q-54 67.5 -54 197.5v304q0 129 54 195t180 66q125 0 179 -66t54 -195v-304q0 -129 -54.5 -197t-178.5 -68q-126 0 -180 67.5zM348 129q17 31 17 90v373q0 59 -16.5 89t-66.5 30t-67 -30.5t-17 -88.5v-373q0 -59 17 -90t67 -31q49 0 66 31zM220 -67h124v-125
h-124v125z" />
    <glyph glyph-name="uni1ECD" unicode="&#x1ecd;" horiz-adv-x="455" 
d="M88 42.5q-46 51.5 -46 149.5v194q0 98 46 149.5t139 51.5t139.5 -51.5t46.5 -149.5v-194q0 -98 -46.5 -149.5t-139.5 -51.5t-139 51.5zM269 109.5q10 24.5 10 72.5v213q0 48 -10 73t-41 25q-32 0 -42 -25t-10 -73v-213q0 -48 10 -72.5t42 -24.5q31 0 41 24.5zM166 -67
h124v-125h-124v125z" />
    <glyph glyph-name="uni1ECE" unicode="&#x1ece;" horiz-adv-x="563" 
d="M102 56.5q-54 67.5 -54 197.5v304q0 129 54 195t180 66q125 0 179 -66t54 -195v-304q0 -129 -54.5 -197t-178.5 -68q-126 0 -180 67.5zM348 129q17 31 17 90v373q0 59 -16.5 89t-66.5 30t-67 -30.5t-17 -88.5v-373q0 -59 17 -90t67 -31q49 0 66 31zM238 910
q35 15 51.5 28t16.5 32q0 38 -59 38q-30 0 -56 -8v62q45 12 92 12q50 0 83 -23.5t33 -70.5q0 -44 -30 -70.5t-86 -46.5z" />
    <glyph glyph-name="uni1ECF" unicode="&#x1ecf;" horiz-adv-x="455" 
d="M88 42.5q-46 51.5 -46 149.5v194q0 98 46 149.5t139 51.5t139.5 -51.5t46.5 -149.5v-194q0 -98 -46.5 -149.5t-139.5 -51.5t-139 51.5zM269 109.5q10 24.5 10 72.5v213q0 48 -10 73t-41 25q-32 0 -42 -25t-10 -73v-213q0 -48 10 -72.5t42 -24.5q31 0 41 24.5zM183 678
q35 15 51.5 28t16.5 32q0 38 -59 38q-30 0 -56 -8v62q45 12 92 12q50 0 83 -23.5t33 -70.5q0 -44 -30 -70.5t-86 -46.5z" />
    <glyph glyph-name="uni1ED0" unicode="&#x1ed0;" horiz-adv-x="563" 
d="M102 56.5q-54 67.5 -54 197.5v304q0 129 54 195t180 66q125 0 179 -66t54 -195v-304q0 -129 -54.5 -197t-178.5 -68q-126 0 -180 67.5zM348 129q17 31 17 90v373q0 59 -16.5 89t-66.5 30t-67 -30.5t-17 -88.5v-373q0 -59 17 -90t67 -31q49 0 66 31zM466 1104h108
l-85 -119h-76zM220 1035h122l92 -161h-99l-54 101l-53 -101h-98z" />
    <glyph glyph-name="uni1ED1" unicode="&#x1ed1;" horiz-adv-x="455" 
d="M88 42.5q-46 51.5 -46 149.5v194q0 98 46 149.5t139 51.5t139.5 -51.5t46.5 -149.5v-194q0 -98 -46.5 -149.5t-139.5 -51.5t-139 51.5zM269 109.5q10 24.5 10 72.5v213q0 48 -10 73t-41 25q-32 0 -42 -25t-10 -73v-213q0 -48 10 -72.5t42 -24.5q31 0 41 24.5zM411 872
h108l-85 -119h-76zM165 803h122l92 -161h-99l-54 101l-53 -101h-98z" />
    <glyph glyph-name="uni1ED2" unicode="&#x1ed2;" horiz-adv-x="563" 
d="M102 56.5q-54 67.5 -54 197.5v304q0 129 54 195t180 66q125 0 179 -66t54 -195v-304q0 -129 -54.5 -197t-178.5 -68q-126 0 -180 67.5zM348 129q17 31 17 90v373q0 59 -16.5 89t-66.5 30t-67 -30.5t-17 -88.5v-373q0 -59 17 -90t67 -31q49 0 66 31zM356 1104h108l53 -119
h-77zM220 1035h122l92 -161h-99l-54 101l-53 -101h-98z" />
    <glyph glyph-name="uni1ED3" unicode="&#x1ed3;" horiz-adv-x="455" 
d="M88 42.5q-46 51.5 -46 149.5v194q0 98 46 149.5t139 51.5t139.5 -51.5t46.5 -149.5v-194q0 -98 -46.5 -149.5t-139.5 -51.5t-139 51.5zM269 109.5q10 24.5 10 72.5v213q0 48 -10 73t-41 25q-32 0 -42 -25t-10 -73v-213q0 -48 10 -72.5t42 -24.5q31 0 41 24.5zM301 872
h108l53 -119h-77zM165 803h122l92 -161h-99l-54 101l-53 -101h-98z" />
    <glyph glyph-name="uni1ED4" unicode="&#x1ed4;" horiz-adv-x="563" 
d="M102 56.5q-54 67.5 -54 197.5v304q0 129 54 195t180 66q125 0 179 -66t54 -195v-304q0 -129 -54.5 -197t-178.5 -68q-126 0 -180 67.5zM348 129q17 31 17 90v373q0 59 -16.5 89t-66.5 30t-67 -30.5t-17 -88.5v-373q0 -59 17 -90t67 -31q49 0 66 31zM406 1006
q21 15 31.5 28.5t10.5 30.5q0 19 -13 29t-35 10q-26 0 -48 -8v61q36 13 78 13q49 0 79 -24t30 -69q0 -42 -24.5 -68.5t-68.5 -47.5zM220 1035h122l92 -161h-99l-54 101l-53 -101h-98z" />
    <glyph glyph-name="uni1ED5" unicode="&#x1ed5;" horiz-adv-x="455" 
d="M88 42.5q-46 51.5 -46 149.5v194q0 98 46 149.5t139 51.5t139.5 -51.5t46.5 -149.5v-194q0 -98 -46.5 -149.5t-139.5 -51.5t-139 51.5zM269 109.5q10 24.5 10 72.5v213q0 48 -10 73t-41 25q-32 0 -42 -25t-10 -73v-213q0 -48 10 -72.5t42 -24.5q31 0 41 24.5zM351 774
q21 15 31.5 28.5t10.5 30.5q0 19 -13 29t-35 10q-26 0 -48 -8v61q36 13 78 13q49 0 79 -24t30 -69q0 -42 -24.5 -68.5t-68.5 -47.5zM165 803h122l92 -161h-99l-54 101l-53 -101h-98z" />
    <glyph glyph-name="uni1ED6" unicode="&#x1ed6;" horiz-adv-x="563" 
d="M102 56.5q-54 67.5 -54 197.5v304q0 129 54 195t180 66q125 0 179 -66t54 -195v-304q0 -129 -54.5 -197t-178.5 -68q-126 0 -180 67.5zM348 129q17 31 17 90v373q0 59 -16.5 89t-66.5 30t-67 -30.5t-17 -88.5v-373q0 -59 17 -90t67 -31q49 0 66 31zM220 1035h122l92 -161
h-99l-54 101l-53 -101h-98zM325 1090.5q-16 6.5 -36 19.5q-18 10 -30.5 15.5t-25.5 5.5q-19 0 -27 -10.5t-8 -30.5h-70q0 126 85 126q17 0 31.5 -6t35.5 -18q20 -11 32 -16.5t26 -5.5q32 0 32 40h66q0 -57 -16 -91.5t-60 -34.5q-19 0 -35 6.5z" />
    <glyph glyph-name="uni1ED7" unicode="&#x1ed7;" horiz-adv-x="455" 
d="M88 42.5q-46 51.5 -46 149.5v194q0 98 46 149.5t139 51.5t139.5 -51.5t46.5 -149.5v-194q0 -98 -46.5 -149.5t-139.5 -51.5t-139 51.5zM269 109.5q10 24.5 10 72.5v213q0 48 -10 73t-41 25q-32 0 -42 -25t-10 -73v-213q0 -48 10 -72.5t42 -24.5q31 0 41 24.5zM165 803
h122l92 -161h-99l-54 101l-53 -101h-98zM270 858.5q-16 6.5 -36 19.5q-18 10 -30.5 15.5t-25.5 5.5q-19 0 -27 -10.5t-8 -30.5h-70q0 126 85 126q17 0 31.5 -6t35.5 -18q20 -11 32 -16.5t26 -5.5q32 0 32 40h66q0 -57 -16 -91.5t-60 -34.5q-19 0 -35 6.5z" />
    <glyph glyph-name="uni1ED8" unicode="&#x1ed8;" horiz-adv-x="563" 
d="M102 56.5q-54 67.5 -54 197.5v304q0 129 54 195t180 66q125 0 179 -66t54 -195v-304q0 -129 -54.5 -197t-178.5 -68q-126 0 -180 67.5zM348 129q17 31 17 90v373q0 59 -16.5 89t-66.5 30t-67 -30.5t-17 -88.5v-373q0 -59 17 -90t67 -31q49 0 66 31zM220 1035h122l92 -161
h-99l-54 101l-53 -101h-98zM220 -67h124v-125h-124v125z" />
    <glyph glyph-name="uni1ED9" unicode="&#x1ed9;" horiz-adv-x="455" 
d="M88 42.5q-46 51.5 -46 149.5v194q0 98 46 149.5t139 51.5t139.5 -51.5t46.5 -149.5v-194q0 -98 -46.5 -149.5t-139.5 -51.5t-139 51.5zM269 109.5q10 24.5 10 72.5v213q0 48 -10 73t-41 25q-32 0 -42 -25t-10 -73v-213q0 -48 10 -72.5t42 -24.5q31 0 41 24.5zM166 -67
h124v-125h-124v125zM165 803h122l92 -161h-99l-54 101l-53 -101h-98z" />
    <glyph glyph-name="uni1EDA" unicode="&#x1eda;" horiz-adv-x="563" 
d="M102 56.5q-54 67.5 -54 197.5v304q0 129 54 195t180 66q125 0 179 -66t54 -195v-304q0 -129 -54.5 -197t-178.5 -68q-126 0 -180 67.5zM348 129q17 31 17 90v373q0 59 -16.5 89t-66.5 30t-67 -30.5t-17 -88.5v-373q0 -59 17 -90t67 -31q49 0 66 31zM330 810h20
q29 0 41.5 19t12.5 61h99q0 -69 -40.5 -105t-111.5 -36h-21v61zM301 1066h138l-119 -200h-79z" />
    <glyph glyph-name="uni1EDB" unicode="&#x1edb;" horiz-adv-x="455" 
d="M88 42.5q-46 51.5 -46 149.5v194q0 98 46 149.5t139 51.5t139.5 -51.5t46.5 -149.5v-194q0 -98 -46.5 -149.5t-139.5 -51.5t-139 51.5zM269 109.5q10 24.5 10 72.5v213q0 48 -10 73t-41 25q-32 0 -42 -25t-10 -73v-213q0 -48 10 -72.5t42 -24.5q31 0 41 24.5zM250 578h10
q29 0 41.5 19t12.5 61h99q0 -69 -40.5 -105t-111.5 -36h-11v61zM246 850h138l-119 -200h-79z" />
    <glyph glyph-name="uni1EDC" unicode="&#x1edc;" horiz-adv-x="563" 
d="M102 56.5q-54 67.5 -54 197.5v304q0 129 54 195t180 66q125 0 179 -66t54 -195v-304q0 -129 -54.5 -197t-178.5 -68q-126 0 -180 67.5zM348 129q17 31 17 90v373q0 59 -16.5 89t-66.5 30t-67 -30.5t-17 -88.5v-373q0 -59 17 -90t67 -31q49 0 66 31zM330 810h20
q29 0 41.5 19t12.5 61h99q0 -69 -40.5 -105t-111.5 -36h-21v61zM126 1066h138l59 -200h-78z" />
    <glyph glyph-name="uni1EDD" unicode="&#x1edd;" horiz-adv-x="455" 
d="M88 42.5q-46 51.5 -46 149.5v194q0 98 46 149.5t139 51.5t139.5 -51.5t46.5 -149.5v-194q0 -98 -46.5 -149.5t-139.5 -51.5t-139 51.5zM269 109.5q10 24.5 10 72.5v213q0 48 -10 73t-41 25q-32 0 -42 -25t-10 -73v-213q0 -48 10 -72.5t42 -24.5q31 0 41 24.5zM250 578h10
q29 0 41.5 19t12.5 61h99q0 -69 -40.5 -105t-111.5 -36h-11v61zM71 850h138l59 -200h-78z" />
    <glyph glyph-name="uni1EDE" unicode="&#x1ede;" horiz-adv-x="563" 
d="M102 56.5q-54 67.5 -54 197.5v304q0 129 54 195t180 66q125 0 179 -66t54 -195v-304q0 -129 -54.5 -197t-178.5 -68q-126 0 -180 67.5zM348 129q17 31 17 90v373q0 59 -16.5 89t-66.5 30t-67 -30.5t-17 -88.5v-373q0 -59 17 -90t67 -31q49 0 66 31zM330 810h20
q29 0 41.5 19t12.5 61h99q0 -69 -40.5 -105t-111.5 -36h-21v61zM238 910q35 15 51.5 28t16.5 32q0 38 -59 38q-30 0 -56 -8v62q45 12 92 12q50 0 83 -23.5t33 -70.5q0 -44 -30 -70.5t-86 -46.5z" />
    <glyph glyph-name="uni1EDF" unicode="&#x1edf;" horiz-adv-x="455" 
d="M88 42.5q-46 51.5 -46 149.5v194q0 98 46 149.5t139 51.5t139.5 -51.5t46.5 -149.5v-194q0 -98 -46.5 -149.5t-139.5 -51.5t-139 51.5zM269 109.5q10 24.5 10 72.5v213q0 48 -10 73t-41 25q-32 0 -42 -25t-10 -73v-213q0 -48 10 -72.5t42 -24.5q31 0 41 24.5zM250 578h10
q29 0 41.5 19t12.5 61h99q0 -69 -40.5 -105t-111.5 -36h-11v61zM183 694q35 15 51.5 28t16.5 32q0 38 -59 38q-30 0 -56 -8v62q45 12 92 12q50 0 83 -23.5t33 -70.5q0 -44 -30 -70.5t-86 -46.5z" />
    <glyph glyph-name="uni1EE0" unicode="&#x1ee0;" horiz-adv-x="563" 
d="M102 56.5q-54 67.5 -54 197.5v304q0 129 54 195t180 66q125 0 179 -66t54 -195v-304q0 -129 -54.5 -197t-178.5 -68q-126 0 -180 67.5zM348 129q17 31 17 90v373q0 59 -16.5 89t-66.5 30t-67 -30.5t-17 -88.5v-373q0 -59 17 -90t67 -31q49 0 66 31zM330 810h20
q29 0 41.5 19t12.5 61h99q0 -69 -40.5 -105t-111.5 -36h-21v61zM325 922.5q-16 6.5 -36 19.5q-18 10 -30.5 15.5t-25.5 5.5q-19 0 -27 -10.5t-8 -30.5h-70q0 126 85 126q17 0 31.5 -6t35.5 -18q20 -11 32 -16.5t26 -5.5q32 0 32 40h66q0 -57 -16 -91.5t-60 -34.5
q-19 0 -35 6.5z" />
    <glyph glyph-name="uni1EE1" unicode="&#x1ee1;" horiz-adv-x="455" 
d="M88 42.5q-46 51.5 -46 149.5v194q0 98 46 149.5t139 51.5t139.5 -51.5t46.5 -149.5v-194q0 -98 -46.5 -149.5t-139.5 -51.5t-139 51.5zM269 109.5q10 24.5 10 72.5v213q0 48 -10 73t-41 25q-32 0 -42 -25t-10 -73v-213q0 -48 10 -72.5t42 -24.5q31 0 41 24.5zM250 578h10
q29 0 41.5 19t12.5 61h99q0 -69 -40.5 -105t-111.5 -36h-11v61zM270 706.5q-16 6.5 -36 19.5q-18 10 -30.5 15.5t-25.5 5.5q-19 0 -27 -10.5t-8 -30.5h-70q0 126 85 126q17 0 31.5 -6t35.5 -18q20 -11 32 -16.5t26 -5.5q32 0 32 40h66q0 -57 -16 -91.5t-60 -34.5
q-19 0 -35 6.5z" />
    <glyph glyph-name="uni1EE2" unicode="&#x1ee2;" horiz-adv-x="563" 
d="M102 56.5q-54 67.5 -54 197.5v304q0 129 54 195t180 66q125 0 179 -66t54 -195v-304q0 -129 -54.5 -197t-178.5 -68q-126 0 -180 67.5zM348 129q17 31 17 90v373q0 59 -16.5 89t-66.5 30t-67 -30.5t-17 -88.5v-373q0 -59 17 -90t67 -31q49 0 66 31zM330 810h20
q29 0 41.5 19t12.5 61h99q0 -69 -40.5 -105t-111.5 -36h-21v61zM220 -67h124v-125h-124v125z" />
    <glyph glyph-name="uni1EE3" unicode="&#x1ee3;" horiz-adv-x="455" 
d="M88 42.5q-46 51.5 -46 149.5v194q0 98 46 149.5t139 51.5t139.5 -51.5t46.5 -149.5v-194q0 -98 -46.5 -149.5t-139.5 -51.5t-139 51.5zM269 109.5q10 24.5 10 72.5v213q0 48 -10 73t-41 25q-32 0 -42 -25t-10 -73v-213q0 -48 10 -72.5t42 -24.5q31 0 41 24.5zM250 578h10
q29 0 41.5 19t12.5 61h99q0 -69 -40.5 -105t-111.5 -36h-11v61zM165 -67h124v-125h-124v125z" />
    <glyph glyph-name="uni1EE4" unicode="&#x1ee4;" horiz-adv-x="566" 
d="M145 21q-50 32 -70 91t-20 150v548h144v-565q0 -70 16.5 -108t67.5 -38q52 0 68.5 38t16.5 108v565h143v-548q0 -90 -20 -149.5t-70 -91.5t-138 -32t-138 32zM222 -67h124v-125h-124v125z" />
    <glyph glyph-name="uni1EE5" unicode="&#x1ee5;" horiz-adv-x="473" 
d="M72 27q-24 36 -24 91v460h135v-435q0 -27 9 -41t31 -14q23 0 61 27v463h136v-578h-136v55q-67 -64 -139 -64q-49 0 -73 36zM174 -67h124v-125h-124v125z" />
    <glyph glyph-name="uni1EE6" unicode="&#x1ee6;" horiz-adv-x="566" 
d="M145 21q-50 32 -70 91t-20 150v548h144v-565q0 -70 16.5 -108t67.5 -38q52 0 68.5 38t16.5 108v565h143v-548q0 -90 -20 -149.5t-70 -91.5t-138 -32t-138 32zM240 910q35 15 51.5 28t16.5 32q0 38 -59 38q-30 0 -56 -8v62q45 12 92 12q50 0 83 -23.5t33 -70.5
q0 -44 -30 -70.5t-86 -46.5z" />
    <glyph glyph-name="uni1EE7" unicode="&#x1ee7;" horiz-adv-x="473" 
d="M72 27q-24 36 -24 91v460h135v-435q0 -27 9 -41t31 -14q23 0 61 27v463h136v-578h-136v55q-67 -64 -139 -64q-49 0 -73 36zM192 678q35 15 51.5 28t16.5 32q0 38 -59 38q-30 0 -56 -8v62q45 12 92 12q50 0 83 -23.5t33 -70.5q0 -44 -30 -70.5t-86 -46.5z" />
    <glyph glyph-name="uni1EE8" unicode="&#x1ee8;" horiz-adv-x="566" 
d="M145 21q-50 32 -70 91t-20 150v548h144v-565q0 -70 16.5 -108t67.5 -38q52 0 68.5 38t16.5 108v565h143v-548q0 -90 -20 -149.5t-70 -91.5t-138 -32t-138 32zM419 810h10q29 0 41.5 19t12.5 61h99q0 -69 -40.5 -105t-111.5 -36h-11v61zM303 1066h138l-119 -200h-79z" />
    <glyph glyph-name="uni1EE9" unicode="&#x1ee9;" horiz-adv-x="473" 
d="M72 27q-24 36 -24 91v460h135v-435q0 -27 9 -41t31 -14q23 0 61 27v463h136v-578h-136v55q-67 -64 -139 -64q-49 0 -73 36zM317 578h10q29 0 41.5 19t12.5 61h99q0 -69 -40.5 -105t-111.5 -36h-11v61zM254 834h138l-119 -200h-79z" />
    <glyph glyph-name="uni1EEA" unicode="&#x1eea;" horiz-adv-x="566" 
d="M145 21q-50 32 -70 91t-20 150v548h144v-565q0 -70 16.5 -108t67.5 -38q52 0 68.5 38t16.5 108v565h143v-548q0 -90 -20 -149.5t-70 -91.5t-138 -32t-138 32zM419 810h10q29 0 41.5 19t12.5 61h99q0 -69 -40.5 -105t-111.5 -36h-11v61zM128 1066h138l59 -200h-78z" />
    <glyph glyph-name="uni1EEB" unicode="&#x1eeb;" horiz-adv-x="473" 
d="M72 27q-24 36 -24 91v460h135v-435q0 -27 9 -41t31 -14q23 0 61 27v463h136v-578h-136v55q-67 -64 -139 -64q-49 0 -73 36zM317 578h10q29 0 41.5 19t12.5 61h99q0 -69 -40.5 -105t-111.5 -36h-11v61zM79 834h138l59 -200h-78z" />
    <glyph glyph-name="uni1EEC" unicode="&#x1eec;" horiz-adv-x="566" 
d="M145 21q-50 32 -70 91t-20 150v548h144v-565q0 -70 16.5 -108t67.5 -38q52 0 68.5 38t16.5 108v565h143v-548q0 -90 -20 -149.5t-70 -91.5t-138 -32t-138 32zM419 810h10q29 0 41.5 19t12.5 61h99q0 -69 -40.5 -105t-111.5 -36h-11v61zM240 910q35 15 51.5 28t16.5 32
q0 38 -59 38q-30 0 -56 -8v62q45 12 92 12q50 0 83 -23.5t33 -70.5q0 -44 -30 -70.5t-86 -46.5z" />
    <glyph glyph-name="uni1EED" unicode="&#x1eed;" horiz-adv-x="473" 
d="M72 27q-24 36 -24 91v460h135v-435q0 -27 9 -41t31 -14q23 0 61 27v463h136v-578h-136v55q-67 -64 -139 -64q-49 0 -73 36zM317 578h10q29 0 41.5 19t12.5 61h99q0 -69 -40.5 -105t-111.5 -36h-11v61zM191 678q35 15 51.5 28t16.5 32q0 38 -59 38q-30 0 -56 -8v62
q45 12 92 12q50 0 83 -23.5t33 -70.5q0 -44 -30 -70.5t-86 -46.5z" />
    <glyph glyph-name="uni1EEE" unicode="&#x1eee;" horiz-adv-x="566" 
d="M145 21q-50 32 -70 91t-20 150v548h144v-565q0 -70 16.5 -108t67.5 -38q52 0 68.5 38t16.5 108v565h143v-548q0 -90 -20 -149.5t-70 -91.5t-138 -32t-138 32zM419 810h10q29 0 41.5 19t12.5 61h99q0 -69 -40.5 -105t-111.5 -36h-11v61zM327 922.5q-16 6.5 -36 19.5
q-18 10 -30.5 15.5t-25.5 5.5q-19 0 -27 -10.5t-8 -30.5h-70q0 126 85 126q17 0 31.5 -6t35.5 -18q20 -11 32 -16.5t26 -5.5q32 0 32 40h66q0 -57 -16 -91.5t-60 -34.5q-19 0 -35 6.5z" />
    <glyph glyph-name="uni1EEF" unicode="&#x1eef;" horiz-adv-x="473" 
d="M72 27q-24 36 -24 91v460h135v-435q0 -27 9 -41t31 -14q23 0 61 27v463h136v-578h-136v55q-67 -64 -139 -64q-49 0 -73 36zM317 578h10q29 0 41.5 19t12.5 61h99q0 -69 -40.5 -105t-111.5 -36h-11v61zM278 690.5q-16 6.5 -36 19.5q-18 10 -30.5 15.5t-25.5 5.5
q-19 0 -27 -10.5t-8 -30.5h-70q0 126 85 126q17 0 31.5 -6t35.5 -18q20 -11 32 -16.5t26 -5.5q32 0 32 40h66q0 -57 -16 -91.5t-60 -34.5q-19 0 -35 6.5z" />
    <glyph glyph-name="uni1EF0" unicode="&#x1ef0;" horiz-adv-x="566" 
d="M145 21q-50 32 -70 91t-20 150v548h144v-565q0 -70 16.5 -108t67.5 -38q52 0 68.5 38t16.5 108v565h143v-548q0 -90 -20 -149.5t-70 -91.5t-138 -32t-138 32zM419 810h10q29 0 41.5 19t12.5 61h99q0 -69 -40.5 -105t-111.5 -36h-11v61zM222 -67h124v-125h-124v125z" />
    <glyph glyph-name="uni1EF1" unicode="&#x1ef1;" horiz-adv-x="473" 
d="M72 27q-24 36 -24 91v460h135v-435q0 -27 9 -41t31 -14q23 0 61 27v463h136v-578h-136v55q-67 -64 -139 -64q-49 0 -73 36zM317 578h10q29 0 41.5 19t12.5 61h99q0 -69 -40.5 -105t-111.5 -36h-11v61zM177 -67h124v-125h-124v125z" />
    <glyph glyph-name="Ygrave" unicode="&#x1ef2;" horiz-adv-x="487" 
d="M174 309l-164 501h138l100 -321l94 321h135l-162 -501v-309h-141v309zM88 1066h138l59 -200h-78z" />
    <glyph glyph-name="ygrave" unicode="&#x1ef3;" horiz-adv-x="421" 
d="M56 -59q54 0 76.5 9.5t22.5 36.5q0 18 -21 102l-127 489h132l75 -382l65 382h131l-135 -601q-17 -73 -64.5 -103.5t-128.5 -30.5h-26v98zM54 834h138l59 -200h-78z" />
    <glyph glyph-name="uni1EF4" unicode="&#x1ef4;" horiz-adv-x="487" 
d="M174 309l-164 501h138l100 -321l94 321h135l-162 -501v-309h-141v309zM182 -67h124v-125h-124v125z" />
    <glyph glyph-name="uni1EF5" unicode="&#x1ef5;" horiz-adv-x="421" 
d="M56 -59q54 0 76.5 9.5t22.5 36.5q0 18 -21 102l-127 489h132l75 -382l65 382h131l-135 -601q-17 -73 -64.5 -103.5t-128.5 -30.5h-26v98zM300 -67h124v-125h-124v125z" />
    <glyph glyph-name="uni1EF6" unicode="&#x1ef6;" horiz-adv-x="487" 
d="M174 309l-164 501h138l100 -321l94 321h135l-162 -501v-309h-141v309zM200 910q35 15 51.5 28t16.5 32q0 38 -59 38q-30 0 -56 -8v62q45 12 92 12q50 0 83 -23.5t33 -70.5q0 -44 -30 -70.5t-86 -46.5z" />
    <glyph glyph-name="uni1EF7" unicode="&#x1ef7;" horiz-adv-x="421" 
d="M56 -59q54 0 76.5 9.5t22.5 36.5q0 18 -21 102l-127 489h132l75 -382l65 382h131l-135 -601q-17 -73 -64.5 -103.5t-128.5 -30.5h-26v98zM166 678q35 15 51.5 28t16.5 32q0 38 -59 38q-30 0 -56 -8v62q45 12 92 12q50 0 83 -23.5t33 -70.5q0 -44 -30 -70.5t-86 -46.5z
" />
    <glyph glyph-name="uni1EF8" unicode="&#x1ef8;" horiz-adv-x="487" 
d="M174 309l-164 501h138l100 -321l94 321h135l-162 -501v-309h-141v309zM287 922.5q-16 6.5 -36 19.5q-18 10 -30.5 15.5t-25.5 5.5q-19 0 -27 -10.5t-8 -30.5h-70q0 126 85 126q17 0 31.5 -6t35.5 -18q20 -11 32 -16.5t26 -5.5q32 0 32 40h66q0 -57 -16 -91.5t-60 -34.5
q-19 0 -35 6.5z" />
    <glyph glyph-name="uni1EF9" unicode="&#x1ef9;" horiz-adv-x="421" 
d="M56 -59q54 0 76.5 9.5t22.5 36.5q0 18 -21 102l-127 489h132l75 -382l65 382h131l-135 -601q-17 -73 -64.5 -103.5t-128.5 -30.5h-26v98zM253 690.5q-16 6.5 -36 19.5q-18 10 -30.5 15.5t-25.5 5.5q-19 0 -27 -10.5t-8 -30.5h-70q0 126 85 126q17 0 31.5 -6t35.5 -18
q20 -11 32 -16.5t26 -5.5q32 0 32 40h66q0 -57 -16 -91.5t-60 -34.5q-19 0 -35 6.5z" />
    <glyph glyph-name="uni2010" unicode="&#x2010;" horiz-adv-x="600" 
d="M57 374h241v-93h-241v93z" />
    <glyph glyph-name="endash" unicode="&#x2013;" horiz-adv-x="496" 
d="M5 356h487v-97h-487v97z" />
    <glyph glyph-name="emdash" unicode="&#x2014;" horiz-adv-x="979" 
d="M5 394h969v-95h-969v95z" />
    <glyph glyph-name="quoteleft" unicode="&#x2018;" horiz-adv-x="218" 
d="M28 660q2 86 26 127.5t84 42.5l16 -45q-34 -2 -46 -26t-12 -75h62v-128h-131q0 72 1 104z" />
    <glyph glyph-name="quoteright" unicode="&#x2019;" horiz-adv-x="218" 
d="M65 581q33 1 45 25t12 75h-61v129h130v-104q-2 -87 -26.5 -128.5t-84.5 -42.5z" />
    <glyph glyph-name="quotesinglbase" unicode="&#x201a;" horiz-adv-x="227" 
d="M65 -75q33 1 45 25t12 75h-61v129h130v-104q-2 -87 -26.5 -128.5t-84.5 -42.5z" />
    <glyph glyph-name="quotedblleft" unicode="&#x201c;" horiz-adv-x="409" 
d="M28 660q2 86 26 127.5t84 42.5l16 -45q-34 -2 -46 -26t-12 -75h62v-128h-131q0 72 1 104zM219 660q2 86 26 127.5t84 42.5l16 -45q-34 -2 -46 -26t-12 -75h62v-128h-131q0 72 1 104z" />
    <glyph glyph-name="quotedblright" unicode="&#x201d;" horiz-adv-x="409" 
d="M65 581q33 1 45 25t12 75h-61v129h130v-104q-2 -87 -26.5 -128.5t-84.5 -42.5zM256 581q33 1 45 25t12 75h-61v129h130v-104q-2 -87 -26.5 -128.5t-84.5 -42.5z" />
    <glyph glyph-name="quotedblbase" unicode="&#x201e;" horiz-adv-x="409" 
d="M247 -75q33 1 45 25t12 75h-61v129h130v-104q-2 -87 -26.5 -128.5t-84.5 -42.5zM65 -75q33 1 45 25t12 75h-61v129h130v-104q-2 -87 -26.5 -128.5t-84.5 -42.5z" />
    <glyph glyph-name="dagger" unicode="&#x2020;" horiz-adv-x="393" 
d="M139 515h-103v91h103v200h118v-200h101v-91h-101v-515h-118v515z" />
    <glyph glyph-name="daggerdbl" unicode="&#x2021;" horiz-adv-x="396" 
d="M141 246h-109v81h109v168h-109v83h109v228h116v-228h108v-83h-108v-168h108v-81h-108v-246h-116v246z" />
    <glyph glyph-name="bullet" unicode="&#x2022;" horiz-adv-x="423" 
d="M105.5 268.5q-41.5 40.5 -41.5 111.5q0 72 41.5 112.5t104.5 40.5q64 0 106 -41t42 -112t-42 -111.5t-106 -40.5q-63 0 -104.5 40.5z" />
    <glyph glyph-name="ellipsis" unicode="&#x2026;" horiz-adv-x="610" 
d="M34 137h132v-137h-132v137zM239 137h132v-137h-132v137zM446 137h132v-137h-132v137z" />
    <glyph glyph-name="perthousand" unicode="&#x2030;" horiz-adv-x="1352" 
d="M82.5 415q-41.5 51 -41.5 151v49q0 103 40 151t134 48t134 -47t40 -148v-55q0 -100 -41 -150t-133 -50q-91 0 -132.5 51zM548 811h91l-235 -811h-92zM261 484q11 27 11 84v48q0 56 -10 80t-47 24t-47 -24t-10 -81v-48q0 -56 11 -83t46 -27t46 27zM603.5 48
q-41.5 51 -41.5 151v49q0 102 40 150t134 48t134 -47t40 -148v-54q0 -101 -41 -150.5t-133 -49.5q-91 0 -132.5 51zM1003 47.5q-41 50.5 -41 151.5v48q0 102 40 150.5t133 48.5q94 0 134 -47t40 -148v-54q0 -101 -41 -150.5t-133 -49.5q-91 0 -132 50.5zM782 117
q11 27 11 83v48q0 57 -10 81t-47 24t-47 -24.5t-10 -80.5v-48q0 -56 11 -83t46 -27t46 27zM1182 117q11 27 11 83v48q0 56 -10.5 80.5t-47.5 24.5q-36 0 -46 -24.5t-10 -80.5v-49q0 -56 11 -82.5t45 -26.5q36 0 47 27z" />
    <glyph glyph-name="minute" unicode="&#x2032;" horiz-adv-x="192" 
d="M46 810h116l-63 -232h-69z" />
    <glyph glyph-name="second" unicode="&#x2033;" horiz-adv-x="351" 
d="M46 810h116l-63 -220h-69zM206 810h115l-62 -220h-69z" />
    <glyph glyph-name="guilsinglleft" unicode="&#x2039;" horiz-adv-x="282" 
d="M40 255v69l203 224v-146l-112 -112l112 -114v-145z" />
    <glyph glyph-name="guilsinglright" unicode="&#x203a;" horiz-adv-x="284" 
d="M50 209l114 113l-114 113v145l202 -231v-54l-202 -231v145z" />
    <glyph glyph-name="fraction" unicode="&#x2044;" horiz-adv-x="177" 
d="M215 810h94l-379 -810h-94z" />
    <glyph glyph-name="uni2052" unicode="&#x2052;" horiz-adv-x="486" 
d="M52 811h121v-132h-121v132zM314 811h92l-236 -811h-92zM312 131h122v-131h-122v131z" />
    <glyph glyph-name="uni2074" unicode="&#x2074;" horiz-adv-x="459" 
d="M245 537h-174v67l193 284h82v-282h44v-69h-44v-104h-101v104zM245 606l-1 139l-92 -139h93z" />
    <glyph glyph-name="colonmonetary" unicode="&#x20a1;" horiz-adv-x="540" 
d="M372 518v69q0 30 -3 52l-69 -540q43 6 57.5 36.5t14.5 91.5v72h126v-64q0 -116 -47.5 -180t-163.5 -66l-11 -83h-43l11 85q-21 1 -39 6l-12 -91h-43l13 105q-61 29 -88 92t-27 156v289q0 129 49 198t168 73l10 81h44l-10 -82q15 -1 38 -5l11 87h44l-13 -100
q58 -24 83.5 -78.5t25.5 -136.5v-67h-126zM257 99l76 601q-14 8 -38 10l-76 -598q14 -10 38 -13zM184 178l67 531q-41 -8 -55.5 -39.5t-14.5 -90.5v-352q0 -28 3 -49z" />
    <glyph glyph-name="franc" unicode="&#x20a3;" horiz-adv-x="413" 
d="M208 708v-236h152v-103h-152v-118h107v-87h-107v-164h-147v164h-59v88h59v558h333v-102h-186z" />
    <glyph glyph-name="lira" unicode="&#x20a4;" horiz-adv-x="446" 
d="M214 674q-9 -32 -11 -99v-95h120v-87h-120v-57h120v-88h-120v-138h212v-110h-403v74l59 26v148h-59v88h59v57h-59v88h59v52q0 91 12.5 151.5t52.5 97.5t118 37q91 0 127.5 -51.5t36.5 -145.5v-29h-112q0 55 -10 84t-41 29q-32 0 -41 -32z" />
    <glyph glyph-name="uni20A6" unicode="&#x20a6;" horiz-adv-x="545" 
d="M483 471v-112h51v-85h-51v-274h-98l-112 274h-86v-274h-126v274h-51v85h51v112h-51v85h51v254h103l108 -254h89v254h122v-254h51v-85h-51zM361 359v120h-56l51 -120h5zM241 351l-49 120h-5v-120h54z" />
    <glyph glyph-name="peseta" unicode="&#x20a7;" horiz-adv-x="1218" 
d="M61 810h238q207 0 207 -230q0 -220 -217 -220h-81v-360h-147v810zM265 464q60 0 81 25.5t21 91.5q0 48 -7 73.5t-28.5 38.5t-66.5 13h-57v-242h57zM619.5 31q-32.5 38 -32.5 113v345h-58v89h58v173h137v-173h87v-89h-87v-333q0 -29 12.5 -42t39.5 -13q25 0 42 4v-105
q-40 -7 -87 -7q-79 0 -111.5 38zM907 30q-47 39 -67 114l101 39q23 -97 84 -97q23 0 35.5 12t12.5 33q0 23 -14 42.5t-50 49.5l-69 60q-44 36 -65 70t-21 83q0 68 46.5 109.5t117.5 41.5q68 0 111 -40.5t56 -109.5l-89 -38q-8 40 -26.5 65.5t-47.5 25.5q-21 0 -33.5 -13
t-12.5 -33q0 -16 14 -34t42 -42l70 -64q45 -39 69.5 -74.5t24.5 -85.5q0 -73 -47.5 -113t-121.5 -40q-73 0 -120 39z" />
    <glyph glyph-name="uni20A9" unicode="&#x20a9;" horiz-adv-x="713" 
d="M635 477l-17 -117h67v-85h-79l-38 -275h-120l-46 275h-88l-45 -275h-123l-39 275h-79v85h67l-16 117h-51v85h39l-35 248h123l32 -248h79l40 246h100l41 -246h81l31 248h122l-35 -248h39v-85h-50zM212 360h22l19 121h-56zM388 360l-20 121h-20l-20 -121h60zM502 360
l16 121h-58l21 -121h21z" />
    <glyph glyph-name="dong" unicode="&#x20ab;" horiz-adv-x="478" 
d="M75.5 40.5q-34.5 49.5 -34.5 156.5v177q0 97 32.5 155t105.5 58q55 0 104 -46v139h-123v62h123v68h136v-68h54v-62h-54v-680h-136v41q-48 -50 -103 -50q-70 0 -104.5 49.5zM283 104v371q-28 19 -54 19q-27 0 -39.5 -25t-12.5 -66v-216q0 -49 11.5 -75.5t41.5 -26.5
q25 0 53 19zM61.0693 -59h357.439v-85h-357.439v85z" />
    <glyph glyph-name="Euro" unicode="&#x20ac;" horiz-adv-x="529" 
d="M105.5 59.5q-52.5 70.5 -52.5 199.5v50h-54v57h54v80h-54v58h54v44q0 133 52 202t179 69q119 0 169 -60t50 -173v-46h-142v48q0 43 -4 67.5t-20.5 40t-51.5 15.5q-36 0 -54 -16.5t-23.5 -44t-5.5 -71.5v-75h102v-58h-102v-80h102v-57h-102v-81q0 -69 18 -99.5t65 -30.5
q34 0 50.5 16t21 42.5t4.5 70.5v40h142v-32q0 -117 -49 -181.5t-170 -64.5q-126 0 -178.5 70.5z" />
    <glyph glyph-name="uni20AD" unicode="&#x20ad;" horiz-adv-x="624" 
d="M429 0l-240 382v-382h-132v403h-54v88h54v319h132v-301l198 301h147l-207 -319h170v-88h-172l250 -403h-146z" />
    </font>
</defs>
</svg>
