<?xml version="1.0" standalone="no"?>
<!DOCTYPE svg PUBLIC "-//W3C//DTD SVG 1.1//EN" "http://www.w3.org/Graphics/SVG/1.1/DTD/svg11.dtd" >
<svg xmlns="http://www.w3.org/2000/svg" xmlns:xlink="http://www.w3.org/1999/xlink" version="1.1">
<metadata>
Created by FontForge 20170731 at Mon Oct 30 16:13:17 2017
 By Aleksey,,,
Copyright 2016 The Oswald Project Authors (https://github.com/googlefonts/OswaldFont)
</metadata>
<defs>
<font id="Oswald-Regular" horiz-adv-x="0" >
  <font-face 
    font-family="Oswald"
    font-weight="400"
    font-stretch="normal"
    units-per-em="1000"
    panose-1="0 0 5 0 0 0 0 0 0 0"
    ascent="800"
    descent="-200"
    x-height="578"
    cap-height="810"
    bbox="-197 -287 1223 1297"
    underline-thickness="50"
    underline-position="-150"
    unicode-range="U+000D-FB02"
  />
<missing-glyph horiz-adv-x="682" 
d="M90 810h502v-810h-502v810zM489 90v630h-296v-630h296z" />
    <glyph glyph-name="fi" unicode="fi" horiz-adv-x="491" 
d="M88 499h-69v79h69v30q0 90 30.5 131t106.5 41q30 0 58 -4v-80q-17 4 -37 4q-30 0 -40.5 -16.5t-10.5 -57.5v-48h236v-578h-107v499h-129v-499h-107v499zM334 776h98v-112h-98v112z" />
    <glyph glyph-name="fl" unicode="fl" horiz-adv-x="515" 
d="M88 499h-69v79h69v30q0 57 10 96.5t50.5 68t124.5 28.5q72 0 184 -25v-776h-107v717q-32 4 -61 4q-44 0 -64 -13.5t-25 -35t-5 -62.5v-32h88v-79h-88v-499h-107v499z" />
    <glyph glyph-name="f_f" unicode="ff" horiz-adv-x="548" 
d="M88 499h-69v79h69v30q0 60 9 96.5t36.5 56.5t79.5 20q35 0 70 -7v-78q-20 5 -40 5q-29 0 -38.5 -18.5t-9.5 -56.5v-48h88v-79h-88v-499h-107v499zM349 499h-69v79h69v30q0 60 9 96.5t36.5 56.5t79.5 20q35 0 70 -7v-78q-20 5 -40 5q-29 0 -38.5 -18.5t-9.5 -56.5v-48h88
v-79h-88v-499h-107v499z" />
    <glyph glyph-name="f_f_i" unicode="ffi" horiz-adv-x="736" 
d="M88 499h-69v79h69v30q0 60 9 96.5t36.5 56.5t79.5 20q39 0 70 -7v-78q-20 5 -40 5q-29 0 -38.5 -18.5t-9.5 -56.5v-48h134v30q0 60 9 96.5t36.5 56.5t79.5 20q38 0 69 -7v-78q-20 5 -40 5q-29 0 -38.5 -18.5t-9.5 -56.5v-48h240v-578h-106v499h-134v-499h-106v499h-134
v-499h-107v499zM569 776h107v-112h-107v112z" />
    <glyph glyph-name="f_f_l" unicode="ffl" horiz-adv-x="776" 
d="M718 776v-776h-107v717q-32 4 -61 4q-44 0 -64 -13.5t-25 -35t-5 -62.5v-32h88v-79h-88v-499h-107v499h-154v-499h-107v499h-69v79h69v30q0 60 9 96.5t36.5 56.5t79.5 20q36 0 70 -7v-78q-20 5 -40 5q-29 0 -38.5 -18.5t-9.5 -56.5v-48h154v30q0 57 10 96.5t50.5 68
t124.5 28.5q72 0 184 -25z" />
    <glyph glyph-name=".notdef" horiz-adv-x="682" 
d="M90 810h502v-810h-502v810zM489 90v630h-296v-630h296z" />
    <glyph glyph-name=".null" 
 />
    <glyph glyph-name="nonmarkingreturn" unicode="&#xd;" horiz-adv-x="229" 
 />
    <glyph glyph-name="NULL" 
 />
    <glyph glyph-name="NULL" 
 />
    <glyph glyph-name="space" unicode=" " horiz-adv-x="229" 
 />
    <glyph glyph-name="exclam" unicode="!" horiz-adv-x="208" 
d="M50 810h108l-36 -637h-38zM50 110h108v-110h-108v110z" />
    <glyph glyph-name="quotedbl" unicode="&#x22;" horiz-adv-x="266" 
d="M20 810h97l-39 -248h-58v248zM159 810h97l-39 -248h-58v248z" />
    <glyph glyph-name="numbersign" unicode="#" horiz-adv-x="486" 
d="M75 290h-43v80h55l14 97h-67v81h78l38 262h107l-38 -262h90l38 262h106l-38 -262h41v-81h-52l-15 -97h64v-80h-75l-42 -290h-107l42 290h-89l-41 -290h-107zM283 370l14 97h-89l-15 -97h90z" />
    <glyph glyph-name="dollar" unicode="$" horiz-adv-x="491" 
d="M247 -8q-99 2 -151 64.5t-57 170.5l100 27q5 -78 30.5 -126t84.5 -48q44 0 66.5 24.5t22.5 70.5q0 49 -21 81.5t-67 74.5l-136 120q-41 37 -59.5 78.5t-18.5 100.5q0 86 48.5 135t133.5 52v67h35v-67q83 -6 125.5 -57t51.5 -152l-96 -26q-5 69 -26 108.5t-74 39.5
q-97 0 -97 -89q0 -36 12 -59.5t41 -50.5l137 -120q53 -49 84.5 -103.5t31.5 -123.5q0 -82 -45.5 -132.5t-121.5 -58.5v-70h-34v69z" />
    <glyph glyph-name="percent" unicode="%" horiz-adv-x="891" 
d="M74 429q-38 49 -38 139v63q0 92 37 138.5t120 46.5t120 -45t37 -135v-71q0 -90 -37.5 -137.5t-119.5 -47.5q-81 0 -119 49zM512 811h92l-222 -811h-93zM240.5 489q12.5 28 12.5 76v71q0 48 -12 73.5t-48 25.5t-47.5 -26t-11.5 -74v-71q0 -48 12.5 -75.5t46.5 -27.5
q35 0 47.5 28zM542 183v63q0 91 36.5 138t119.5 47t120 -45t37 -136v-70q0 -91 -37.5 -138t-119.5 -47q-156 0 -156 188zM745.5 103.5q12.5 27.5 12.5 75.5v72q0 48 -12 73.5t-48 25.5t-47.5 -26t-11.5 -74v-71q0 -48 12.5 -75.5t46.5 -27.5q35 0 47.5 27.5z" />
    <glyph glyph-name="ampersand" unicode="&#x26;" horiz-adv-x="606" 
d="M104.5 41.5q-46.5 50.5 -46.5 131.5q0 71 31.5 127.5t86.5 106.5l-22 41q-32 58 -49 100.5t-17 89.5q0 81 46.5 130t126.5 49q75 0 123.5 -40.5t48.5 -109.5q0 -71 -43.5 -136.5t-108.5 -128.5l122 -192q29 56 40 162h106q0 -56 -23.5 -120.5t-54.5 -108.5
q14 -18 35 -29.5t44 -11.5v-110h-14q-27 0 -49.5 12t-36.5 24.5t-43 41.5q-29 -36 -73 -57.5t-101 -21.5q-82 0 -128.5 50.5zM302 557q24 57 24 110q0 29 -17.5 45.5t-47.5 16.5q-34 0 -50 -26.5t-16 -64.5q0 -42 13 -84.5t36 -93.5q34 40 58 97zM342 140l-124 191
q-24 -31 -38.5 -73t-14.5 -85q0 -40 16 -66.5t52 -26.5q61 0 109 60z" />
    <glyph glyph-name="quotesingle" unicode="'" horiz-adv-x="127" 
d="M20 810h97l-39 -248h-58v248z" />
    <glyph glyph-name="parenleft" unicode="(" horiz-adv-x="298" 
d="M136.5 -123q-42.5 70 -53 172t-10.5 262q0 161 10.5 263t53 172.5t131.5 70.5v-72q-42 -1 -62 -58t-25 -139t-5 -212v-71q0 -121 5.5 -201t25.5 -133t61 -54v-71q-89 1 -131.5 71z" />
    <glyph glyph-name="parenright" unicode=")" horiz-adv-x="260" 
d="M29 -122q42 1 62.5 58t25.5 139.5t5 212.5v70q0 121 -5.5 201t-26 133t-61.5 54v71q90 0 132.5 -70t53 -172t10.5 -262q0 -161 -10.5 -263t-53 -172.5t-132.5 -71.5v72z" />
    <glyph glyph-name="asterisk" unicode="*" horiz-adv-x="398" 
d="M84 507l79 111l-118 45l26 68l113 -60l-12 138h81l-13 -138l114 60l25 -68l-118 -46l80 -110l-65 -38l-64 125l-65 -125z" />
    <glyph glyph-name="plus" unicode="+" horiz-adv-x="415" 
d="M165 375h-140v81h140v163h80v-163h145v-81h-145v-163h-80v163z" />
    <glyph glyph-name="comma" unicode="," horiz-adv-x="187" 
d="M40 -85q27 9 42.5 31.5t15.5 53.5h-57v115h110v-113q0 -53 -23 -84.5t-71 -48.5z" />
    <glyph glyph-name="hyphen" unicode="-" horiz-adv-x="321" 
d="M49 342h223v-81h-223v81z" />
    <glyph glyph-name="period" unicode="." horiz-adv-x="188" 
d="M49 119h107v-119h-107v119z" />
    <glyph glyph-name="slash" unicode="/" horiz-adv-x="369" 
d="M247 810h93l-219 -810h-92z" />
    <glyph glyph-name="zero" unicode="0" horiz-adv-x="517" 
d="M108.5 56q-50.5 65 -50.5 174v349q0 111 49.5 174.5t151.5 63.5q101 0 150.5 -63.5t49.5 -174.5v-349q0 -110 -50 -174.5t-150 -64.5t-150.5 65zM351 229v351q0 69 -19.5 109.5t-72.5 40.5t-73 -40.5t-20 -109.5v-351q0 -150 93 -150q92 0 92 150z" />
    <glyph glyph-name="one" unicode="1" horiz-adv-x="396" 
d="M171 670q-2 -3 -60.5 -14t-80.5 -15v81q122 29 167 88h81v-810h-107v670z" />
    <glyph glyph-name="two" unicode="2" horiz-adv-x="478" 
d="M41 76l206 321q15 24 20 30q35 56 51 93t16 89q0 58 -19 89t-62 31q-96 0 -96 -149v-27h-107v28q0 114 47 175t151 61q96 0 145 -54.5t49 -154.5q0 -49 -11.5 -87.5t-27.5 -66.5t-50 -80l-186 -284h256v-90h-382v76z" />
    <glyph glyph-name="three" unicode="3" horiz-adv-x="477" 
d="M90.5 45.5q-50.5 54.5 -50.5 153.5v27h106v-18q2 -62 21.5 -95t70.5 -33q54 0 73.5 37.5t19.5 111.5q0 68 -25 106.5t-81 42.5q-4 1 -15 1v107h14q57 2 82 30t25 93q0 60 -20 90.5t-72 30.5t-71.5 -33t-21.5 -97v-17h-106v27q0 99 50.5 153t148.5 54t148.5 -54.5
t50.5 -153.5q0 -71 -31 -116t-85 -61q55 -17 85.5 -69t30.5 -134q0 -113 -48.5 -175.5t-151.5 -62.5q-97 0 -147.5 54.5z" />
    <glyph glyph-name="four" unicode="4" horiz-adv-x="483" 
d="M275 217h-235v112l211 481h126v-498h91v-95h-91v-217h-102v217zM275 312v368l-132 -368h132z" />
    <glyph glyph-name="five" unicode="5" horiz-adv-x="476" 
d="M92.5 51.5q-45.5 59.5 -45.5 175.5h107q0 -68 18.5 -109t72.5 -41q41 0 61 24t25.5 63.5t5.5 105.5q0 61 -6.5 97.5t-26 56t-58.5 19.5q-31 0 -54.5 -19t-35.5 -48h-91v434h349v-107h-252l-7 -224q43 45 117 45q93 0 132.5 -63.5t39.5 -176.5q0 -138 -45 -215t-156 -77
q-105 0 -150.5 59.5z" />
    <glyph glyph-name="six" unicode="6" horiz-adv-x="503" 
d="M107.5 64.5q-49.5 73.5 -49.5 192.5v273q0 131 46 209t153 78q94 0 145 -51t53 -146l1 -12h-108q0 62 -20 91.5t-71 29.5q-92 0 -92 -173v-123q16 26 46.5 41t71.5 15q95 0 135 -60.5t40 -173.5q0 -119 -49 -191.5t-152 -72.5q-100 0 -149.5 73.5zM328.5 121
q21.5 41 21.5 108q0 61 -5 97t-25 59t-63 23q-31 0 -54.5 -16t-37.5 -39v-121q0 -69 21.5 -110.5t70.5 -41.5q50 0 71.5 41z" />
    <glyph glyph-name="seven" unicode="7" horiz-adv-x="386" 
d="M239 726h-217v84h324v-52l-150 -758h-103z" />
    <glyph glyph-name="eight" unicode="8" horiz-adv-x="499" 
d="M97 52q-47 61 -47 176q0 77 25.5 123t74.5 76q-90 60 -90 181q0 99 47 154t143 55q95 0 141.5 -55t46.5 -154q0 -65 -23 -108.5t-67 -72.5q49 -31 75 -77t26 -122q0 -114 -47 -175.5t-152 -61.5q-106 0 -153 61zM333 614q0 54 -19.5 87t-63.5 33t-64.5 -33t-20.5 -87
q0 -60 19 -98.5t66 -39.5q83 1 83 138zM325 115.5q21 39.5 21 110.5q0 65 -22.5 106t-73.5 42q-52 -1 -75 -42t-23 -106q0 -71 21.5 -110.5t76.5 -39.5q54 0 75 39.5z" />
    <glyph glyph-name="nine" unicode="9" horiz-adv-x="502" 
d="M99 43q-51 52 -53 149v9h107q0 -62 20.5 -91.5t72.5 -29.5q90 0 90 173v123q-16 -26 -45.5 -41t-72.5 -15q-95 0 -134.5 60.5t-39.5 173.5q0 119 49 191t152 72q100 0 149.5 -73.5t49.5 -191.5v-272q0 -131 -46 -210t-153 -79q-95 0 -146 52zM336 457v120q0 152 -91 152
q-50 0 -71.5 -41.5t-21.5 -107.5q0 -61 5 -97t25 -59t63 -23q59 0 91 56z" />
    <glyph glyph-name="colon" unicode=":" horiz-adv-x="197" 
d="M60 529h108v-114h-108v114zM60 210h108v-114h-108v114z" />
    <glyph glyph-name="semicolon" unicode=";" horiz-adv-x="215" 
d="M59 565h108v-119h-108v119zM58 1q58 4 58 67h-57v114h111v-112q0 -55 -22 -84.5t-72 -31.5z" />
    <glyph glyph-name="less" unicode="&#x3c;" horiz-adv-x="373" 
d="M29 238v107l286 204v-108l-205 -149l205 -149v-107z" />
    <glyph glyph-name="equal" unicode="=" horiz-adv-x="415" 
d="M54 538h307v-82h-307v82zM54 360h307v-81h-307v81z" />
    <glyph glyph-name="greater" unicode="&#x3e;" horiz-adv-x="373" 
d="M58 143l206 150l-206 148v108l287 -203v-107l-287 -203v107z" />
    <glyph glyph-name="question" unicode="?" horiz-adv-x="487" 
d="M162 327q88 76 133.5 142t45.5 146q0 49 -25 79t-71 30q-40 0 -63.5 -22.5t-23.5 -59.5q0 -18 7 -50l-100 -19q-11 31 -11 63q0 81 50.5 131t140.5 50q95 0 148 -54t53 -151q0 -64 -24 -117.5t-64 -98t-101 -96.5v-97h-95v124zM157 110h107v-110h-107v110z" />
    <glyph glyph-name="at" unicode="@" horiz-adv-x="904" 
d="M257.5 -88q-92.5 46 -145.5 139t-53 231q0 175 57 293t158.5 176t236.5 59q115 0 194 -53t117.5 -140.5t38.5 -190.5q0 -89 -29.5 -164.5t-84.5 -119.5t-126 -44q-43 0 -70.5 25t-28.5 67q-9 -36 -32 -61.5t-63 -28.5l-14 -1q-65 0 -100.5 52.5t-35.5 127.5
q0 76 30.5 152t85 124.5t121.5 48.5q15 0 33.5 -7.5t31.5 -17.5l10 17h78l-57 -367q-3 -19 -3 -37q0 -17 5.5 -25.5t20.5 -8.5q42 0 76 35t54 94t20 130q0 86 -30 156t-92.5 111.5t-156.5 41.5q-104 0 -182.5 -54t-122 -153.5t-43.5 -232.5q0 -167 87.5 -252t235.5 -85
q88 0 182 27l19 -78q-111 -32 -210 -32q-120 0 -212.5 46zM490 207q25 26 35 80l35 233q-15 5 -28 5q-40 0 -75.5 -33.5t-57.5 -90.5t-22 -123q0 -42 15.5 -69.5t44.5 -27.5q28 0 53 26z" />
    <glyph glyph-name="A" unicode="A" horiz-adv-x="492" 
d="M191 810h109l173 -810h-107l-37 204h-165l-39 -204h-106zM314 285l-68 365l-67 -365h135z" />
    <glyph glyph-name="B" unicode="B" horiz-adv-x="524" 
d="M63 810h186q110 0 163 -49.5t53 -153.5q0 -155 -116 -171q72 -17 105 -67.5t33 -137.5q0 -109 -51.5 -170t-156.5 -61h-216v810zM243 472q70 0 97 30.5t27 104.5q0 54 -16.5 79.5t-49.5 32.5t-98 7h-27v-254h67zM252 81q50 0 77.5 15.5t38.5 47.5t11 87q0 78 -32 116.5
t-104 38.5h-67v-305h76z" />
    <glyph glyph-name="C" unicode="C" horiz-adv-x="515" 
d="M97 62.5q-49 71.5 -49 197.5v286q0 133 48 202t170 69q109 0 156.5 -59t47.5 -174v-64h-107v57q0 56 -5 86t-25.5 48t-65.5 18q-46 0 -68.5 -19.5t-29.5 -54t-7 -92.5v-321q0 -62 10 -97t32.5 -50t62.5 -15q43 0 64 19t26.5 52t5.5 90v60h107v-60q0 -121 -45.5 -185.5
t-158.5 -64.5q-120 0 -169 71.5z" />
    <glyph glyph-name="D" unicode="D" horiz-adv-x="527" 
d="M63 810h176q131 0 185.5 -60t54.5 -187v-298q0 -134 -53.5 -199.5t-177.5 -65.5h-185v810zM240 81q59 0 85.5 23t33 62.5t6.5 119.5v263q0 69 -8.5 105.5t-35.5 54t-84 17.5h-61v-645h64z" />
    <glyph glyph-name="E" unicode="E" horiz-adv-x="407" 
d="M63 810h314v-84h-201v-268h163v-80h-163v-297h203v-81h-316v810z" />
    <glyph glyph-name="F" unicode="F" horiz-adv-x="391" 
d="M63 810h313v-81h-200v-270h155v-80h-155v-379h-113v810z" />
    <glyph glyph-name="G" unicode="G" horiz-adv-x="535" 
d="M97 59.5q-49 69.5 -49 206.5v271q0 94 19.5 154.5t67 93t130.5 32.5q112 0 161.5 -57t49.5 -179v-30h-106v25q0 58 -7 89.5t-29.5 47.5t-66.5 16q-47 0 -70 -21.5t-29.5 -57.5t-6.5 -96v-300q0 -93 22.5 -133.5t86.5 -40.5q63 0 86.5 44t23.5 141v56h-103v80h205v-401
h-71l-11 93q-38 -103 -144 -103q-110 0 -159 69.5z" />
    <glyph glyph-name="H" unicode="H" horiz-adv-x="561" 
d="M63 810h113v-350h208v350h113v-810h-113v379h-208v-379h-113v810z" />
    <glyph glyph-name="I" unicode="I" horiz-adv-x="248" 
d="M69 810h111v-810h-111v810z" />
    <glyph glyph-name="J" unicode="J" horiz-adv-x="301" 
d="M7 62q51 0 75.5 9.5t33.5 35t9 78.5v625h112v-627q0 -73 -15 -116.5t-53.5 -64.5t-107.5 -21h-54v81z" />
    <glyph glyph-name="K" unicode="K" horiz-adv-x="495" 
d="M63 810h113v-382l186 382h105l-160 -357l186 -453h-110l-155 380l-52 -94v-286h-113v810z" />
    <glyph glyph-name="L" unicode="L" horiz-adv-x="397" 
d="M63 810h113v-729h207v-81h-320v810z" />
    <glyph glyph-name="M" unicode="M" horiz-adv-x="660" 
d="M76 810h111l143 -657l144 657h110l15 -810h-91l-9 588l-137 -588h-64l-136 588l-9 -588h-92z" />
    <glyph glyph-name="N" unicode="N" horiz-adv-x="528" 
d="M63 810h77l230 -538v538h94v-810h-72l-233 553v-553h-96v810z" />
    <glyph glyph-name="O" unicode="O" horiz-adv-x="539" 
d="M99.5 58.5q-51.5 67.5 -51.5 195.5v307q0 126 52 191t170 65t169.5 -65.5t51.5 -190.5v-308q0 -126 -52 -194t-169 -68q-119 0 -170.5 67.5zM355 117q22 37 22 112v355q0 74 -22 109.5t-85 35.5q-64 0 -86 -35.5t-22 -109.5v-355q0 -75 22 -112t86 -37q63 0 85 37z" />
    <glyph glyph-name="P" unicode="P" horiz-adv-x="480" 
d="M63 810h201q105 0 152.5 -57t47.5 -167q0 -99 -51 -154t-148 -55h-89v-377h-113v810zM228 458q50 0 77.5 11t39.5 38t12 78q0 62 -9 91t-35.5 41t-83.5 12h-53v-271h52z" />
    <glyph glyph-name="Q" unicode="Q" horiz-adv-x="541" 
d="M289 -8q-6 -1 -19 -1q-119 0 -170.5 67.5t-51.5 195.5v307q0 126 52 191t170 65t170 -65.5t52 -190.5v-308q0 -193 -119 -243q50 -65 80 -85l-18 -89q-61 30 -146 156zM356 117q22 37 22 112v355q0 74 -22 109.5t-86 35.5t-86 -35.5t-22 -109.5v-355q0 -75 22 -112
t86 -37t86 37z" />
    <glyph glyph-name="R" unicode="R" horiz-adv-x="519" 
d="M63 810h163q123 0 180.5 -50.5t57.5 -164.5q0 -156 -100 -189l115 -406h-109l-106 380h-88v-380h-113v810zM219 461q73 0 104.5 29t31.5 105q0 50 -11 78.5t-39 42t-79 13.5h-50v-268h43z" />
    <glyph glyph-name="S" unicode="S" horiz-adv-x="473" 
d="M98.5 54q-53.5 63 -59.5 173l100 27q5 -78 30.5 -126t84.5 -48q44 0 66.5 24.5t22.5 70.5q0 50 -21 83t-67 73l-136 120q-41 36 -59.5 77.5t-18.5 101.5q0 89 51 138t139 49q96 0 145 -51t59 -158l-96 -26q-5 71 -27.5 109.5t-80.5 38.5q-43 0 -66 -22.5t-23 -66.5
q0 -36 12 -60.5t41 -49.5l137 -120q53 -47 84.5 -102t31.5 -125q0 -89 -54 -141t-140 -52q-102 0 -155.5 63z" />
    <glyph glyph-name="T" unicode="T" horiz-adv-x="413" 
d="M152 726h-137v84h383v-84h-133v-726h-113v726z" />
    <glyph glyph-name="U" unicode="U" horiz-adv-x="543" 
d="M139.5 25q-47.5 34 -65.5 95t-18 153v537h108v-542q0 -92 21.5 -140t86.5 -48t86.5 48t21.5 140v542h107v-537q0 -92 -18 -153t-65 -95t-132 -34t-132.5 34z" />
    <glyph glyph-name="V" unicode="V" horiz-adv-x="505" 
d="M23 810h106l128 -597l122 597h103l-179 -810h-99z" />
    <glyph glyph-name="W" unicode="W" horiz-adv-x="729" 
d="M36 810h94l87 -582l109 579h80l110 -582l85 585h92l-130 -810h-82l-113 600l-114 -600h-86z" />
    <glyph glyph-name="X" unicode="X" horiz-adv-x="482" 
d="M182 424l-166 386h105l123 -286l112 286h105l-170 -395l178 -415h-105l-132 305l-114 -305h-105z" />
    <glyph glyph-name="Y" unicode="Y" horiz-adv-x="481" 
d="M187 286l-175 524h105l124 -391l122 391h106l-174 -524v-286h-108v286z" />
    <glyph glyph-name="Z" unicode="Z" horiz-adv-x="417" 
d="M38 81l238 648h-223v81h343v-49l-251 -680h251v-81h-358v81z" />
    <glyph glyph-name="bracketleft" unicode="[" horiz-adv-x="340" 
d="M63 810h220v-55h-113v-884h113v-55h-220v994z" />
    <glyph glyph-name="backslash" unicode="\" horiz-adv-x="369" 
d="M29 810h92l219 -810h-93z" />
    <glyph glyph-name="bracketright" unicode="]" horiz-adv-x="310" 
d="M26 -129h113v883h-113v56h221v-994h-221v55z" />
    <glyph glyph-name="asciicircum" unicode="^" horiz-adv-x="443" 
d="M168 810h108l134 -323h-102l-86 243l-87 -243h-101z" />
    <glyph glyph-name="underscore" unicode="_" horiz-adv-x="344" 
d="M0 -53h344v-81h-344v81z" />
    <glyph glyph-name="grave" unicode="`" horiz-adv-x="278" 
d="M57 810h107l57 -198h-54z" />
    <glyph glyph-name="a" unicode="a" horiz-adv-x="426" 
d="M98.5 11q-26.5 19 -41.5 50t-15 65q0 68 29 110.5t74 67.5t125 57v41q0 57 -11.5 80.5t-46.5 23.5q-61 0 -61 -82v-29l-106 4q2 96 44 141.5t130 45.5q83 0 120.5 -45.5t37.5 -137.5v-264q0 -65 10 -139h-98q-11 57 -14 85q-12 -39 -41.5 -66t-75.5 -27q-33 0 -59.5 19z
M241 100.5q20 16.5 29 31.5v164q-43 -24 -66.5 -41.5t-39 -40.5t-15.5 -55q0 -36 13 -55.5t38 -19.5q21 0 41 16.5z" />
    <glyph glyph-name="b" unicode="b" horiz-adv-x="447" 
d="M163 42v-42h-107v810h107v-278q47 54 109 54q79 0 105.5 -67.5t26.5 -149.5v-140q0 -237 -143 -237q-52 0 -98 50zM286.5 113.5q10.5 37.5 10.5 115.5v140q0 64 -12 98.5t-50 34.5q-35 0 -72 -29v-371q33 -26 76 -26q37 0 47.5 37.5z" />
    <glyph glyph-name="c" unicode="c" horiz-adv-x="411" 
d="M107 19.5q-37 27.5 -50.5 77t-13.5 125.5v133q0 78 13.5 128t50.5 76.5t105 26.5q62 0 96.5 -20t48 -59.5t13.5 -102.5v-34h-97v35q0 57 -12.5 79.5t-47.5 22.5q-27 0 -40 -12t-18 -39t-5 -79v-182q0 -50 6 -76.5t19.5 -37t38.5 -10.5q37 0 48 24.5t11 75.5v47h97v-40
q0 -94 -34.5 -140t-123.5 -46q-68 0 -105 27.5z" />
    <glyph glyph-name="d" unicode="d" horiz-adv-x="442" 
d="M78 46.5q-35 54.5 -35 180.5v112q0 115 30.5 181t111.5 66q51 0 96 -45v269h107v-810h-107v37q-42 -45 -93 -45q-75 0 -110 54.5zM281 98v379q-37 25 -68 25q-63 0 -63 -121v-163q0 -70 13 -106t52 -36q32 0 66 22z" />
    <glyph glyph-name="e" unicode="e" horiz-adv-x="421" 
d="M110 17.5q-37 25.5 -52 75.5t-15 130v132q0 120 37.5 175.5t133.5 55.5q70 0 105.5 -29t47 -81.5t11.5 -141.5v-47h-228v-116q0 -53 15.5 -76.5t49.5 -23.5t46 23.5t12 71.5v35h104v-22q0 -91 -39 -139t-124 -48q-67 0 -104 25.5zM273 345v52q0 59 -11.5 84.5t-48.5 25.5
q-26 0 -39.5 -12t-18.5 -39.5t-5 -79.5v-31h123z" />
    <glyph glyph-name="f" unicode="f" horiz-adv-x="287" 
d="M88 499h-69v79h69v30q0 60 9 96.5t36.5 56.5t79.5 20q35 0 70 -7v-78q-20 5 -40 5q-29 0 -38.5 -18.5t-9.5 -56.5v-48h88v-79h-88v-499h-107v499z" />
    <glyph glyph-name="g" unicode="g" horiz-adv-x="435" 
d="M70 -152.5q-50 26.5 -50 82.5q0 38 23.5 66t59.5 45q-27 8 -41.5 25t-14.5 37q0 30 15 52t49 53q-34 26 -50.5 65.5t-16.5 106.5q0 101 41.5 153.5t121.5 52.5q46 0 75 -16t44 -48q7 11 29.5 29.5t48.5 30.5l16 7l27 -69q-20 -4 -55.5 -17t-42.5 -20q7 -18 12.5 -50
t5.5 -56q0 -95 -37 -147.5t-123 -52.5q-27 0 -55 7q-19 -28 -19 -44q0 -11 11.5 -17.5t36.5 -8.5l90 -8q68 -6 101 -41t33 -100q0 -144 -201 -144q-84 0 -134 26.5zM263 282q13 30 13 98q0 69 -13 100.5t-55 31.5t-56.5 -31.5t-14.5 -100.5q0 -62 14.5 -95t55.5 -33
q43 0 56 30zM296 -81.5q27 13.5 27 43.5q0 28 -17 41.5t-62 17.5l-91 8q-21 -21 -32 -37t-11 -35q0 -27 22.5 -39.5t79.5 -12.5t84 13.5z" />
    <glyph glyph-name="h" unicode="h" horiz-adv-x="445" 
d="M57 810h107v-292q72 68 145 68q47 0 66.5 -34t19.5 -84v-468h-107v437q0 33 -10 49t-36 16q-35 0 -78 -38v-464h-107v810z" />
    <glyph glyph-name="i" unicode="i" horiz-adv-x="229" 
d="M61 776h107v-112h-107v112zM61 578h107v-578h-107v578z" />
    <glyph glyph-name="j" unicode="j" horiz-adv-x="230" 
d="M69 776h108v-112h-108v112zM-19 -139v77q21 -3 28 -3q33 0 46.5 18.5t13.5 51.5v573h107v-584q0 -68 -37 -104t-103 -36q-39 0 -55 7z" />
    <glyph glyph-name="k" unicode="k" horiz-adv-x="429" 
d="M56 811h107v-483l156 250h112l-136 -226l132 -352h-107l-108 296l-49 -74v-221h-107v810z" />
    <glyph glyph-name="l" unicode="l" horiz-adv-x="229" 
d="M64 810h107v-810h-107v810z" />
    <glyph glyph-name="m" unicode="m" horiz-adv-x="680" 
d="M54 578h99v-55q29 32 63.5 48.5t72.5 16.5q74 0 94 -73q60 73 144 73q45 0 73.5 -33t28.5 -101v-454h-98v447q0 40 -13 55.5t-37 15.5q-22 0 -46 -12.5t-44 -34.5v-17v-454h-98v447q0 40 -13 55.5t-37 15.5q-21 0 -45 -12.5t-45 -34.5v-471h-99v578z" />
    <glyph glyph-name="n" unicode="n" horiz-adv-x="439" 
d="M54 578h107v-57q69 65 141 65q47 0 67 -34t20 -84v-468h-107v437q0 33 -10 49t-36 16q-32 0 -75 -36v-466h-107v578z" />
    <glyph glyph-name="o" unicode="o" horiz-adv-x="425" 
d="M82.5 46.5q-38.5 54.5 -38.5 158.5v168q0 104 38.5 158.5t130.5 54.5q91 0 129.5 -54.5t38.5 -158.5v-168q0 -104 -38.5 -158.5t-129.5 -54.5q-92 0 -130.5 54.5zM255 88q13 17 16 42t3 68v181q0 43 -3 68.5t-16 42.5t-42 17t-42.5 -17t-16.5 -42.5t-3 -68.5v-181
q0 -43 3 -68t16.5 -42t42.5 -17t42 17z" />
    <glyph glyph-name="p" unicode="p" horiz-adv-x="446" 
d="M54 578h107v-46q47 54 110 54q79 0 105.5 -67.5t26.5 -149.5v-140q0 -106 -32.5 -171.5t-111.5 -65.5q-51 0 -98 51v-233h-107v768zM285.5 113.5q10.5 37.5 10.5 115.5v140q0 64 -12 98.5t-50 34.5q-37 0 -73 -30v-370q35 -26 77 -26q37 0 47.5 37.5z" />
    <glyph glyph-name="q" unicode="q" horiz-adv-x="443" 
d="M282 37q-42 -45 -93 -45q-75 0 -110 54.5t-35 180.5v112q0 115 30.5 181t111.5 66q51 0 96 -45v37h107v-768h-107v227zM282 98v379q-37 25 -68 25q-63 0 -63 -121v-163q0 -70 13 -106t52 -36q34 0 66 22z" />
    <glyph glyph-name="r" unicode="r" horiz-adv-x="321" 
d="M57 578h107v-82q30 49 61.5 69t66.5 20q9 0 17 -1v-118q-32 12 -59 12q-26 0 -46.5 -12.5t-39.5 -43.5v-422h-107v578z" />
    <glyph glyph-name="s" unicode="s" horiz-adv-x="374" 
d="M74.5 36q-43.5 44 -49.5 118l89 27q8 -56 27.5 -83t55.5 -27q28 0 43.5 16.5t15.5 44.5q0 25 -11 45t-36 41l-99 85q-34 29 -52.5 61.5t-18.5 79.5q0 67 40 104.5t109 37.5q66 0 103.5 -42.5t43.5 -109.5l-72 -27q-7 49 -23 74.5t-48 25.5q-26 0 -41.5 -17t-15.5 -42
q0 -32 29 -58l102 -94q39 -36 60.5 -71t21.5 -85q0 -72 -43 -110t-117 -38q-70 0 -113.5 44z" />
    <glyph glyph-name="t" unicode="t" horiz-adv-x="308" 
d="M83 130v377h-61v71h61v169h107v-169h93v-71h-93v-370q0 -35 11 -49t42 -14q20 0 39 3v-79q-40 -6 -74 -6q-125 0 -125 138z" />
    <glyph glyph-name="u" unicode="u" horiz-adv-x="440" 
d="M70 26q-20 34 -20 84v468h107v-436q0 -33 10 -49.5t36 -16.5q32 0 75 36v466h107v-578h-107v57q-69 -65 -141 -65q-47 0 -67 34z" />
    <glyph glyph-name="v" unicode="v" horiz-adv-x="385" 
d="M15 578h108l71 -465l72 465h104l-110 -578h-131z" />
    <glyph glyph-name="w" unicode="w" horiz-adv-x="588" 
d="M28 578h88l60 -426l77 426h82l77 -424l60 424h88l-96 -578h-90l-79 408l-78 -408h-96z" />
    <glyph glyph-name="x" unicode="x" horiz-adv-x="389" 
d="M139 304l-127 274h102l85 -183l75 183h105l-132 -287l134 -291h-102l-91 196l-78 -196h-101z" />
    <glyph glyph-name="y" unicode="y" horiz-adv-x="392" 
d="M45 -63q60 0 82.5 9t22.5 34q0 12 -22 106l-116 492h108l78 -432l75 432h108l-138 -610q-14 -61 -59 -87t-126 -26h-13v82z" />
    <glyph glyph-name="z" unicode="z" horiz-adv-x="347" 
d="M32 72l177 426h-159v80h274v-58l-178 -439h174v-81h-288v72z" />
    <glyph glyph-name="braceleft" unicode="{" horiz-adv-x="300" 
d="M153.5 -177.5q-35.5 13.5 -45.5 52t-10 135.5v141q0 56 -4.5 81.5t-16.5 34.5t-37 9v74q25 0 37 9t16.5 35t4.5 82v140q0 97 10 135.5t45.5 52t123.5 13.5v-79q-35 0 -48 -7.5t-16 -30t-3 -84.5v-156q0 -71 -17 -105t-49 -42q32 -7 49 -41t17 -105v-157q0 -63 3 -85
t16 -29.5t48 -7.5v-79q-88 0 -123.5 13.5z" />
    <glyph glyph-name="bar" unicode="|" horiz-adv-x="239" 
d="M70 810h99v-958h-100z" />
    <glyph glyph-name="braceright" unicode="}" horiz-adv-x="321" 
d="M44 -112q35 0 48 7.5t16 29.5t3 85v157q0 71 17 105t50 41q-33 8 -50 42t-17 105v156q0 62 -3 84.5t-16 30t-48 7.5v79q88 0 123.5 -13.5t45.5 -52t10 -135.5v-140q0 -57 4.5 -82.5t16 -34.5t37.5 -9v-74q-26 0 -37.5 -9t-16 -34.5t-4.5 -81.5v-141q0 -97 -10 -135.5
t-45.5 -52t-123.5 -13.5v79z" />
    <glyph glyph-name="asciitilde" unicode="~" horiz-adv-x="447" 
d="M260 370.5q-19 7.5 -45 22.5q-22 13 -38.5 20t-30.5 7q-13 0 -33 -11t-40 -27l-38 51q25 26 60.5 49.5t58.5 23.5q17 0 35 -7.5t43 -22.5q24 -13 40 -20t30 -7q13 0 29.5 10t42.5 30l38 -49q-25 -29 -58 -53t-58 -24q-17 0 -36 7.5z" />
    <glyph glyph-name="uni00A0" unicode="&#xa0;" horiz-adv-x="229" 
 />
    <glyph glyph-name="exclamdown" unicode="&#xa1;" horiz-adv-x="208" 
d="M50 632h108v-110h-108v110zM85 458h38l35 -636h-108z" />
    <glyph glyph-name="cent" unicode="&#xa2;" horiz-adv-x="388" 
d="M178 -6q-79 9 -107 65.5t-28 162.5v133q0 108 28.5 164t107.5 65v72h34v-70q61 0 95.5 -20.5t48 -59.5t13.5 -102v-34h-97v35q0 57 -12.5 79.5t-47.5 22.5q-27 0 -40 -12t-18 -39t-5 -79v-182q0 -50 6 -76.5t19.5 -37t38.5 -10.5q37 0 48 24.5t11 75.5v47h97v-40
q0 -94 -34.5 -140t-123.5 -46v-71h-34v73z" />
    <glyph glyph-name="sterling" unicode="&#xa3;" horiz-adv-x="398" 
d="M2 54l59 26v274h-59v80h59v92q0 92 11.5 153.5t48.5 99.5t109 38q140 0 142 -173v-33h-80q0 55 -12.5 87t-49.5 32t-49 -35t-14 -97v-164h120v-80h-120v-273h204v-81h-369v54z" />
    <glyph glyph-name="currency" unicode="&#xa4;" horiz-adv-x="550" 
d="M38 201l80 79q-26 28 -40.5 65t-14.5 78q0 40 14.5 77t40.5 66l-80 79l15 15l79 -79q28 27 65 41.5t78 14.5t78 -14.5t65 -41.5l79 79l15 -15l-79 -79q25 -29 39 -65.5t14 -77.5t-14 -78t-40 -65l80 -79l-15 -15l-79 79q-29 -27 -65.5 -42t-77.5 -14q-41 -1 -77.5 14
t-65.5 42l-79 -79zM359 275q38 23 60 62.5t22 85.5t-22 85.5t-60 62.5t-84 23t-83.5 -23t-59.5 -62.5t-22 -85.5t22 -85.5t59.5 -62.5t83.5 -23t84 23z" />
    <glyph glyph-name="yen" unicode="&#xa5;" horiz-adv-x="457" 
d="M185 115h-89v70h89v65h-89v69h78l-164 491h105l123 -391l122 391h107l-163 -491h77v-69h-89v-65h89v-70h-89v-115h-107v115z" />
    <glyph glyph-name="brokenbar" unicode="&#xa6;" horiz-adv-x="212" 
d="M63 810h86v-410h-86v410zM63 256h86v-409h-86v409z" />
    <glyph glyph-name="section" unicode="&#xa7;" horiz-adv-x="427" 
d="M102 34.5q-42 42.5 -59 110.5l81 27q31 -92 90 -92q32 0 50 17t18 50q0 40 -42 71l-115 75q-40 25 -61.5 55t-21.5 77q0 48 23 82t62 50q-35 23 -58.5 54.5t-23.5 70.5q0 63 46.5 99t122.5 36q70 0 111.5 -42t57.5 -108l-81 -27q-15 39 -35 64.5t-54 25.5
q-28 0 -44.5 -16t-16.5 -45q0 -17 10 -31.5t25 -24.5l129 -84q33 -21 51.5 -55.5t18.5 -78.5q0 -46 -19.5 -78.5t-53.5 -50.5q33 -28 51.5 -56.5t18.5 -67.5q0 -72 -46 -111t-123 -39q-70 0 -112 42.5zM274.5 351.5q14.5 17.5 14.5 40.5q1 19 -8 38t-28 32l-56 38
q-19 -10 -33.5 -30.5t-14.5 -44.5q0 -16 8.5 -31t20.5 -24l62 -45q20 9 34.5 26.5z" />
    <glyph glyph-name="dieresis" unicode="&#xa8;" horiz-adv-x="400" 
d="M60 810h107v-111h-107v111zM231 810h108v-111h-108v111z" />
    <glyph glyph-name="copyright" unicode="&#xa9;" horiz-adv-x="862" 
d="M205.5 50q-90.5 61 -133.5 157.5t-43 204.5t43 204.5t133.5 157t225.5 60.5t225.5 -60.5t133.5 -157t43 -204.5q0 -109 -42.5 -205t-133 -157t-226.5 -61q-135 0 -225.5 61zM630.5 86.5q79.5 53.5 118 139.5t38.5 186t-38.5 186t-118 139t-196.5 53t-196.5 -53t-118 -139
t-38.5 -186t38.5 -186t118 -139.5t196.5 -53.5t196.5 53.5zM315 152.5q-41 28.5 -55.5 80t-14.5 131.5v107q0 82 15 134t56 79.5t116 27.5q69 0 107 -20.5t53 -61.5t15 -107v-27h-105v27q0 60 -15 83.5t-53 23.5q-30 0 -46 -12.5t-22 -41.5t-6 -82v-158q0 -52 7 -79.5
t23 -38.5t44 -11q41 0 54.5 25.5t13.5 78.5v32h105v-25q0 -98 -38.5 -146t-136.5 -48q-76 0 -117 28.5z" />
    <glyph glyph-name="ordfeminine" unicode="&#xaa;" horiz-adv-x="443" 
d="M105.5 352.5q-28.5 31.5 -28.5 79.5q0 49 27.5 81.5t66.5 51t105 40.5v53q0 42 -9 64.5t-34 22.5q-52 0 -52 -88h-88q2 75 39 120t102 45q78 0 107 -47.5t29 -146.5v-301h-86v64q-16 -31 -44 -50.5t-62 -19.5q-44 0 -72.5 31.5zM250 417q17 14 26 33v113
q-51 -24 -77.5 -48t-26.5 -61q0 -24 11 -37.5t30 -13.5q20 0 37 14z" />
    <glyph glyph-name="guillemotleft" unicode="&#xab;" horiz-adv-x="455" 
d="M31 269v52l163 228v-134l-82 -120l82 -121v-133zM225 269v52l164 228v-134l-82 -120l82 -121v-133z" />
    <glyph glyph-name="logicalnot" unicode="&#xac;" horiz-adv-x="387" 
d="M305 368h-265v81h320v-193h-55v112z" />
    <glyph glyph-name="uni00AD" unicode="&#xad;" horiz-adv-x="344" 
d="M58 548h230v-81h-230v81z" />
    <glyph glyph-name="registered" unicode="&#xae;" horiz-adv-x="888" 
d="M220.5 47q-89.5 60 -132 155.5t-42.5 202.5t42.5 202.5t132 155.5t223.5 60t223.5 -60t132 -155.5t42.5 -202.5q0 -108 -42 -203t-131.5 -155t-224.5 -60q-134 0 -223.5 60zM633 89q77 52 114 135.5t37 180.5t-37 180.5t-113.5 134.5t-189.5 51t-190 -51t-114 -134.5
t-37 -180.5t37 -180.5t114 -135.5t190 -52q112 0 189 52zM292 674h156q169 0 169 -154q0 -92 -85 -128l96 -248h-97l-85 229h-61v-229h-93v530zM418 423q41 0 63 9.5t31 30.5t9 59q0 45 -18.5 67.5t-62.5 22.5h-55v-189h33z" />
    <glyph glyph-name="macron" unicode="&#xaf;" horiz-adv-x="284" 
d="M46 810h192v-65h-192v65z" />
    <glyph glyph-name="degree" unicode="&#xb0;" horiz-adv-x="453" 
d="M103 526q-45 45 -45 124q0 78 45 122.5t123 44.5t123.5 -44.5t45.5 -122.5q0 -79 -45.5 -124t-123.5 -45t-123 45zM290 579.5q23 26.5 23 70.5t-23 70.5t-64 26.5t-64 -26.5t-23 -70.5t23 -70.5t64 -26.5t64 26.5z" />
    <glyph glyph-name="plusminus" unicode="&#xb1;" horiz-adv-x="368" 
d="M144 262h-87v82h87v87h82v-87h87v-82h-87v-87h-82v87zM57 82h256v-82h-256v82z" />
    <glyph glyph-name="uni00B2" unicode="&#xb2;" horiz-adv-x="422" 
d="M77 494l124 135q46 49 63 77t17 54q0 30 -14.5 46.5t-42.5 16.5q-37 0 -53 -24t-16 -72h-79v14q0 71 36.5 114t111.5 43q65 0 102 -35.5t37 -97.5q0 -47 -21.5 -84t-75.5 -92l-83 -86h185v-70h-291v61z" />
    <glyph glyph-name="uni00B3" unicode="&#xb3;" horiz-adv-x="426" 
d="M112.5 459.5q-34.5 36.5 -34.5 99.5v16h79v-4q0 -73 65 -73q56 0 56 65q0 33 -13 49.5t-44 16.5h-26v66h23q55 0 55 65q0 29 -14 46t-41 17q-61 0 -61 -73v-4h-79v16q0 66 38 101t104 35q63 0 99 -32t36 -90q0 -43 -18.5 -72.5t-47.5 -39.5q71 -24 71 -110
q0 -64 -37.5 -97.5t-102.5 -33.5q-73 0 -107.5 36.5z" />
    <glyph glyph-name="acute" unicode="&#xb4;" horiz-adv-x="277" 
d="M115 810h107l-112 -198h-54z" />
    <glyph glyph-name="uni00B5" unicode="&#xb5;" horiz-adv-x="441" 
d="M50 578h107v-436q0 -33 10 -49.5t36 -16.5q32 0 75 36v466h107v-578h-107v57q-39 -40 -87 -55q-17 -5 -32 -5v-172h-108z" />
    <glyph glyph-name="paragraph" unicode="&#xb6;" horiz-adv-x="492" 
d="M199 515q-76 0 -121.5 38.5t-45.5 108.5q0 74 48 111t135 37h214v-906h-77v855h-77v-855h-76v611z" />
    <glyph glyph-name="periodcentered" unicode="&#xb7;" horiz-adv-x="176" 
d="M36 432h108v-110h-108v110z" />
    <glyph glyph-name="cedilla" unicode="&#xb8;" horiz-adv-x="352" 
d="M80 -225v54q24 -7 51 -7t44 9.5t17 29.5q0 25 -20.5 37.5t-64.5 18.5v83h54v-56q50 0 80.5 -23.5t30.5 -62.5q0 -46 -34.5 -69.5t-90.5 -23.5q-29 0 -67 10z" />
    <glyph glyph-name="uni00B9" unicode="&#xb9;" horiz-adv-x="340" 
d="M172 789l-92 -36v69l131 66h39v-455h-78v356z" />
    <glyph glyph-name="ordmasculine" unicode="&#xba;" horiz-adv-x="443" 
d="M102.5 367.5q-35.5 47.5 -35.5 137.5v132q0 90 35.5 137.5t119.5 47.5q80 0 117 -49t37 -136v-132q0 -87 -37 -136t-117 -49q-84 0 -119.5 47.5zM262.5 413.5q13.5 15.5 16.5 39.5t3 64v108q0 40 -3 63.5t-16.5 39t-42.5 15.5q-41 0 -52.5 -30t-11.5 -88v-108
q0 -58 12 -88.5t52 -30.5q29 0 42.5 15.5z" />
    <glyph glyph-name="guillemotright" unicode="&#xbb;" horiz-adv-x="481" 
d="M57 174l91 121l-91 120v134l173 -228v-52l-173 -228v133zM252 174l91 121l-91 120v134l172 -228v-52l-172 -228v133z" />
    <glyph glyph-name="onequarter" unicode="&#xbc;" horiz-adv-x="945" 
d="M184 711l-92 -36v69l131 66h39v-455h-78v356zM586 810h92l-371 -810h-92zM677 107h-172v59l191 289h59v-287h44v-61h-44v-107h-78v107zM677 168l-1 146l-92 -146h93z" />
    <glyph glyph-name="onehalf" unicode="&#xbd;" horiz-adv-x="945" 
d="M149 711l-92 -36v69l131 66h39v-455h-78v356zM551 810h92l-371 -810h-92zM555 61l124 135q46 49 63 77t17 54q0 30 -14.5 46.5t-42.5 16.5q-37 0 -53 -24t-16 -72h-79v14q0 71 36.5 114t111.5 43q65 0 102 -35.5t37 -97.5q0 -47 -21.5 -84t-75.5 -92l-83 -86h185v-70
h-291v61z" />
    <glyph glyph-name="threequarters" unicode="&#xbe;" horiz-adv-x="874" 
d="M93.5 378.5q-34.5 36.5 -34.5 99.5v16h79v-4q0 -73 65 -73q56 0 56 65q0 33 -13 49.5t-44 16.5h-26v66h23q55 0 55 65q0 29 -14 46t-41 17q-61 0 -61 -73v-4h-79v16q0 66 38 101t104 35q63 0 99 -32t36 -90q0 -43 -18.5 -72.5t-47.5 -39.5q71 -24 71 -110
q0 -64 -37.5 -97.5t-102.5 -33.5q-73 0 -107.5 36.5zM627 810h92l-371 -810h-92zM718 107h-172v59l191 289h59v-287h44v-61h-44v-107h-78v107zM718 168l-1 146l-92 -146h93z" />
    <glyph glyph-name="questiondown" unicode="&#xbf;" horiz-adv-x="487" 
d="M339 301q-88 -76 -133.5 -142t-45.5 -146q0 -49 25 -79t71 -30q40 0 63.5 22.5t23.5 59.5q0 18 -7 50l100 19q11 -31 11 -63q0 -81 -50.5 -131t-140.5 -50q-95 0 -148 54t-53 151q0 64 24 117.5t64 98t101 96.5v97h95v-124zM344 518h-107v110h107v-110z" />
    <glyph glyph-name="Agrave" unicode="&#xc0;" horiz-adv-x="492" 
d="M191 810h109l173 -810h-107l-37 204h-165l-39 -204h-106zM314 285l-68 365l-67 -365h135zM110 1056h107l57 -198h-53z" />
    <glyph glyph-name="Aacute" unicode="&#xc1;" horiz-adv-x="492" 
d="M191 810h109l173 -810h-107l-37 204h-165l-39 -204h-106zM314 285l-68 365l-67 -365h135zM277 1056h107l-112 -198h-54z" />
    <glyph glyph-name="Acircumflex" unicode="&#xc2;" horiz-adv-x="492" 
d="M191 810h109l173 -810h-107l-37 204h-165l-39 -204h-106zM314 285l-68 365l-67 -365h135zM191 1042h109l87 -175h-81l-61 121l-60 -121h-80z" />
    <glyph glyph-name="Atilde" unicode="&#xc3;" horiz-adv-x="492" 
d="M191 810h109l173 -810h-107l-37 204h-165l-39 -204h-106zM314 285l-68 365l-67 -365h135zM285.5 939q-16.5 7 -37.5 20q-20 11 -32 16.5t-25 5.5q-18 0 -26 -9.5t-8 -31.5h-61q0 108 80 108q17 0 32.5 -6.5t35.5 -18.5t32.5 -17.5t26.5 -5.5q18 0 25.5 9.5t7.5 32.5h60
q0 -51 -16.5 -80.5t-57.5 -29.5q-20 0 -36.5 7z" />
    <glyph glyph-name="Adieresis" unicode="&#xc4;" horiz-adv-x="492" 
d="M191 810h109l173 -810h-107l-37 204h-165l-39 -204h-106zM314 285l-68 365l-67 -365h135zM106 1042h108v-111h-108v111zM278 1042h108v-111h-108v111z" />
    <glyph glyph-name="Aring" unicode="&#xc5;" horiz-adv-x="492" 
d="M191 810h109l173 -810h-107l-37 204h-165l-39 -204h-106zM314 285l-68 365l-67 -365h135zM165 858.5q-31 30.5 -31 81.5t30.5 81t81.5 30t81.5 -30t30.5 -81t-31 -81.5t-81 -30.5t-81 30.5zM288 897.5q16 15.5 16 42.5t-15.5 42.5t-42.5 15.5t-42.5 -15t-15.5 -43
q0 -27 15.5 -42.5t42.5 -15.5q26 0 42 15.5z" />
    <glyph glyph-name="AE" unicode="&#xc6;" horiz-adv-x="635" 
d="M290 810h315v-82h-205v-268h147v-81h-147v-297h205v-82h-313v205h-149l-86 -205h-108zM292 286v319l-119 -319h119z" />
    <glyph glyph-name="Ccedilla" unicode="&#xc7;" horiz-adv-x="515" 
d="M97 62.5q-49 71.5 -49 197.5v286q0 133 48 202t170 69q109 0 156.5 -59t47.5 -174v-64h-107v57q0 56 -5 86t-25.5 48t-65.5 18q-46 0 -68.5 -19.5t-29.5 -54t-7 -92.5v-321q0 -62 10 -97t32.5 -50t62.5 -15q43 0 64 19t26.5 52t5.5 90v60h107v-60q0 -121 -45.5 -185.5
t-158.5 -64.5q-120 0 -169 71.5zM204 -225v54q24 -7 51 -7t44 9.5t17 29.5q0 25 -20.5 37.5t-64.5 18.5v83h54v-56q50 0 80.5 -23.5t30.5 -62.5q0 -46 -34.5 -69.5t-90.5 -23.5q-29 0 -67 10z" />
    <glyph glyph-name="Egrave" unicode="&#xc8;" horiz-adv-x="407" 
d="M63 810h314v-84h-201v-268h163v-80h-163v-297h203v-81h-316v810zM88 1056h107l57 -198h-53z" />
    <glyph glyph-name="Eacute" unicode="&#xc9;" horiz-adv-x="407" 
d="M63 810h314v-84h-201v-268h163v-80h-163v-297h203v-81h-316v810zM255 1056h107l-112 -198h-54z" />
    <glyph glyph-name="Ecircumflex" unicode="&#xca;" horiz-adv-x="407" 
d="M63 810h314v-84h-201v-268h163v-80h-163v-297h203v-81h-316v810zM169 1042h109l87 -175h-81l-61 121l-60 -121h-80z" />
    <glyph glyph-name="Edieresis" unicode="&#xcb;" horiz-adv-x="407" 
d="M63 810h314v-84h-201v-268h163v-80h-163v-297h203v-81h-316v810zM84 1042h108v-111h-108v111zM256 1042h108v-111h-108v111z" />
    <glyph glyph-name="Igrave" unicode="&#xcc;" horiz-adv-x="248" 
d="M69 810h111v-810h-111v810zM-12 1056h107l57 -198h-53z" />
    <glyph glyph-name="Iacute" unicode="&#xcd;" horiz-adv-x="248" 
d="M69 810h111v-810h-111v810zM155 1056h107l-112 -198h-54z" />
    <glyph glyph-name="Icircumflex" unicode="&#xce;" horiz-adv-x="248" 
d="M69 810h111v-810h-111v810zM69 1042h109l87 -175h-81l-61 121l-60 -121h-80z" />
    <glyph glyph-name="Idieresis" unicode="&#xcf;" horiz-adv-x="248" 
d="M69 810h111v-810h-111v810zM-16 1042h108v-111h-108v111zM156 1042h108v-111h-108v111z" />
    <glyph glyph-name="Eth" unicode="&#xd0;" horiz-adv-x="518" 
d="M63 388h-49v65h49v357h176q131 0 185.5 -60t54.5 -187v-298q0 -134 -53.5 -199.5t-177.5 -65.5h-185v388zM240 81q59 0 85.5 23t33 62.5t6.5 119.5v263q0 69 -8.5 105.5t-35.5 54t-84 17.5h-61v-273h61v-65h-61v-307h64z" />
    <glyph glyph-name="Ntilde" unicode="&#xd1;" horiz-adv-x="528" 
d="M63 810h77l230 -538v538h94v-810h-72l-233 553v-553h-96v810zM303.5 939q-16.5 7 -37.5 20q-20 11 -32 16.5t-25 5.5q-18 0 -26 -9.5t-8 -31.5h-61q0 108 80 108q17 0 32.5 -6.5t35.5 -18.5t32.5 -17.5t26.5 -5.5q18 0 25.5 9.5t7.5 32.5h60q0 -51 -16.5 -80.5
t-57.5 -29.5q-20 0 -36.5 7z" />
    <glyph glyph-name="Ograve" unicode="&#xd2;" horiz-adv-x="539" 
d="M99.5 58.5q-51.5 67.5 -51.5 195.5v307q0 126 52 191t170 65t169.5 -65.5t51.5 -190.5v-308q0 -126 -52 -194t-169 -68q-119 0 -170.5 67.5zM355 117q22 37 22 112v355q0 74 -22 109.5t-85 35.5q-64 0 -86 -35.5t-22 -109.5v-355q0 -75 22 -112t86 -37q63 0 85 37z
M134 1056h107l57 -198h-53z" />
    <glyph glyph-name="Oacute" unicode="&#xd3;" horiz-adv-x="539" 
d="M99.5 58.5q-51.5 67.5 -51.5 195.5v307q0 126 52 191t170 65t169.5 -65.5t51.5 -190.5v-308q0 -126 -52 -194t-169 -68q-119 0 -170.5 67.5zM355 117q22 37 22 112v355q0 74 -22 109.5t-85 35.5q-64 0 -86 -35.5t-22 -109.5v-355q0 -75 22 -112t86 -37q63 0 85 37z
M301 1056h107l-112 -198h-54z" />
    <glyph glyph-name="Ocircumflex" unicode="&#xd4;" horiz-adv-x="539" 
d="M99.5 58.5q-51.5 67.5 -51.5 195.5v307q0 126 52 191t170 65t169.5 -65.5t51.5 -190.5v-308q0 -126 -52 -194t-169 -68q-119 0 -170.5 67.5zM355 117q22 37 22 112v355q0 74 -22 109.5t-85 35.5q-64 0 -86 -35.5t-22 -109.5v-355q0 -75 22 -112t86 -37q63 0 85 37z
M215 1042h109l87 -175h-81l-61 121l-60 -121h-80z" />
    <glyph glyph-name="Otilde" unicode="&#xd5;" horiz-adv-x="539" 
d="M99.5 58.5q-51.5 67.5 -51.5 195.5v307q0 126 52 191t170 65t169.5 -65.5t51.5 -190.5v-308q0 -126 -52 -194t-169 -68q-119 0 -170.5 67.5zM355 117q22 37 22 112v355q0 74 -22 109.5t-85 35.5q-64 0 -86 -35.5t-22 -109.5v-355q0 -75 22 -112t86 -37q63 0 85 37z
M309.5 939q-16.5 7 -37.5 20q-20 11 -32 16.5t-25 5.5q-18 0 -26 -9.5t-8 -31.5h-61q0 108 80 108q17 0 32.5 -6.5t35.5 -18.5t32.5 -17.5t26.5 -5.5q18 0 25.5 9.5t7.5 32.5h60q0 -51 -16.5 -80.5t-57.5 -29.5q-20 0 -36.5 7z" />
    <glyph glyph-name="Odieresis" unicode="&#xd6;" horiz-adv-x="539" 
d="M99.5 58.5q-51.5 67.5 -51.5 195.5v307q0 126 52 191t170 65t169.5 -65.5t51.5 -190.5v-308q0 -126 -52 -194t-169 -68q-119 0 -170.5 67.5zM355 117q22 37 22 112v355q0 74 -22 109.5t-85 35.5q-64 0 -86 -35.5t-22 -109.5v-355q0 -75 22 -112t86 -37q63 0 85 37z
M130 1042h108v-111h-108v111zM302 1042h108v-111h-108v111z" />
    <glyph glyph-name="multiply" unicode="&#xd7;" horiz-adv-x="383" 
d="M49 308l89 89l-89 89l54 54l88 -89l89 89l54 -54l-89 -89l89 -89l-54 -54l-89 89l-88 -89z" />
    <glyph glyph-name="Oslash" unicode="&#xd8;" horiz-adv-x="540" 
d="M491 561v-308q0 -126 -52 -194t-169 -68q-53 0 -89 13l-21 -78l-39 12l22 83q-50 30 -72.5 88.5t-22.5 144.5v307q0 126 52 191t170 65q45 0 83 -11l20 74l40 -10l-21 -79q99 -54 99 -230zM174 137l155 580q-22 12 -59 12q-64 0 -86 -35.5t-22 -109.5v-355q0 -60 12 -92z
M377 584q0 67 -15 97l-156 -585q24 -16 64 -16q63 0 85 37t22 112v355z" />
    <glyph glyph-name="Ugrave" unicode="&#xd9;" horiz-adv-x="543" 
d="M139.5 25q-47.5 34 -65.5 95t-18 153v537h108v-542q0 -92 21.5 -140t86.5 -48t86.5 48t21.5 140v542h107v-537q0 -92 -18 -153t-65 -95t-132 -34t-132.5 34zM136 1056h107l57 -198h-53z" />
    <glyph glyph-name="Uacute" unicode="&#xda;" horiz-adv-x="543" 
d="M139.5 25q-47.5 34 -65.5 95t-18 153v537h108v-542q0 -92 21.5 -140t86.5 -48t86.5 48t21.5 140v542h107v-537q0 -92 -18 -153t-65 -95t-132 -34t-132.5 34zM303 1056h107l-112 -198h-54z" />
    <glyph glyph-name="Ucircumflex" unicode="&#xdb;" horiz-adv-x="543" 
d="M139.5 25q-47.5 34 -65.5 95t-18 153v537h108v-542q0 -92 21.5 -140t86.5 -48t86.5 48t21.5 140v542h107v-537q0 -92 -18 -153t-65 -95t-132 -34t-132.5 34zM217 1042h109l87 -175h-81l-61 121l-60 -121h-80z" />
    <glyph glyph-name="Udieresis" unicode="&#xdc;" horiz-adv-x="543" 
d="M139.5 25q-47.5 34 -65.5 95t-18 153v537h108v-542q0 -92 21.5 -140t86.5 -48t86.5 48t21.5 140v542h107v-537q0 -92 -18 -153t-65 -95t-132 -34t-132.5 34zM132 1042h108v-111h-108v111zM304 1042h108v-111h-108v111z" />
    <glyph glyph-name="Yacute" unicode="&#xdd;" horiz-adv-x="481" 
d="M187 286l-175 524h105l124 -391l122 391h106l-174 -524v-286h-108v286zM272 1056h107l-112 -198h-54z" />
    <glyph glyph-name="Thorn" unicode="&#xde;" horiz-adv-x="503" 
d="M63 810h113v-106h117q98 0 145.5 -62t47.5 -173q0 -236 -212 -236h-98v-233h-113v810zM246 324q69 0 99.5 31.5t30.5 113.5q0 77 -27 109t-90 32h-83v-286h70z" />
    <glyph glyph-name="germandbls" unicode="&#xdf;" horiz-adv-x="515" 
d="M223 80q52 0 80.5 17.5t39 50t10.5 84.5q0 66 -30.5 104.5t-91.5 38.5v89q50 0 71.5 42t21.5 105q0 58 -17 89t-63 31q-45 0 -61.5 -29t-16.5 -89v-613h-107v612q0 97 46.5 152t135.5 55q94 0 141 -53t47 -155q0 -70 -24.5 -113.5t-74.5 -69.5q62 -16 95.5 -68t33.5 -128
q0 -118 -56.5 -179.5t-179.5 -61.5v89z" />
    <glyph glyph-name="agrave" unicode="&#xe0;" horiz-adv-x="426" 
d="M98.5 11q-26.5 19 -41.5 50t-15 65q0 68 29 110.5t74 67.5t125 57v41q0 57 -11.5 80.5t-46.5 23.5q-61 0 -61 -82v-29l-106 4q2 96 44 141.5t130 45.5q83 0 120.5 -45.5t37.5 -137.5v-264q0 -65 10 -139h-98q-11 57 -14 85q-12 -39 -41.5 -66t-75.5 -27q-33 0 -59.5 19z
M241 100.5q20 16.5 29 31.5v164q-43 -24 -66.5 -41.5t-39 -40.5t-15.5 -55q0 -36 13 -55.5t38 -19.5q21 0 41 16.5zM83 824h107l57 -198h-53z" />
    <glyph glyph-name="aacute" unicode="&#xe1;" horiz-adv-x="426" 
d="M98.5 11q-26.5 19 -41.5 50t-15 65q0 68 29 110.5t74 67.5t125 57v41q0 57 -11.5 80.5t-46.5 23.5q-61 0 -61 -82v-29l-106 4q2 96 44 141.5t130 45.5q83 0 120.5 -45.5t37.5 -137.5v-264q0 -65 10 -139h-98q-11 57 -14 85q-12 -39 -41.5 -66t-75.5 -27q-33 0 -59.5 19z
M241 100.5q20 16.5 29 31.5v164q-43 -24 -66.5 -41.5t-39 -40.5t-15.5 -55q0 -36 13 -55.5t38 -19.5q21 0 41 16.5zM250 824h107l-112 -198h-54z" />
    <glyph glyph-name="acircumflex" unicode="&#xe2;" horiz-adv-x="426" 
d="M98.5 11q-26.5 19 -41.5 50t-15 65q0 68 29 110.5t74 67.5t125 57v41q0 57 -11.5 80.5t-46.5 23.5q-61 0 -61 -82v-29l-106 4q2 96 44 141.5t130 45.5q83 0 120.5 -45.5t37.5 -137.5v-264q0 -65 10 -139h-98q-11 57 -14 85q-12 -39 -41.5 -66t-75.5 -27q-33 0 -59.5 19z
M241 100.5q20 16.5 29 31.5v164q-43 -24 -66.5 -41.5t-39 -40.5t-15.5 -55q0 -36 13 -55.5t38 -19.5q21 0 41 16.5zM164 810h109l87 -175h-81l-61 121l-60 -121h-80z" />
    <glyph glyph-name="atilde" unicode="&#xe3;" horiz-adv-x="426" 
d="M98.5 11q-26.5 19 -41.5 50t-15 65q0 68 29 110.5t74 67.5t125 57v41q0 57 -11.5 80.5t-46.5 23.5q-61 0 -61 -82v-29l-106 4q2 96 44 141.5t130 45.5q83 0 120.5 -45.5t37.5 -137.5v-264q0 -65 10 -139h-98q-11 57 -14 85q-12 -39 -41.5 -66t-75.5 -27q-33 0 -59.5 19z
M241 100.5q20 16.5 29 31.5v164q-43 -24 -66.5 -41.5t-39 -40.5t-15.5 -55q0 -36 13 -55.5t38 -19.5q21 0 41 16.5zM258.5 707q-16.5 7 -37.5 20q-20 11 -32 16.5t-25 5.5q-18 0 -26 -9.5t-8 -31.5h-61q0 108 80 108q17 0 32.5 -6.5t35.5 -18.5t32.5 -17.5t26.5 -5.5
q18 0 25.5 9.5t7.5 32.5h60q0 -51 -16.5 -80.5t-57.5 -29.5q-20 0 -36.5 7z" />
    <glyph glyph-name="adieresis" unicode="&#xe4;" horiz-adv-x="426" 
d="M98.5 11q-26.5 19 -41.5 50t-15 65q0 68 29 110.5t74 67.5t125 57v41q0 57 -11.5 80.5t-46.5 23.5q-61 0 -61 -82v-29l-106 4q2 96 44 141.5t130 45.5q83 0 120.5 -45.5t37.5 -137.5v-264q0 -65 10 -139h-98q-11 57 -14 85q-12 -39 -41.5 -66t-75.5 -27q-33 0 -59.5 19z
M241 100.5q20 16.5 29 31.5v164q-43 -24 -66.5 -41.5t-39 -40.5t-15.5 -55q0 -36 13 -55.5t38 -19.5q21 0 41 16.5zM79 810h108v-111h-108v111zM251 810h108v-111h-108v111z" />
    <glyph glyph-name="aring" unicode="&#xe5;" horiz-adv-x="426" 
d="M98.5 11q-26.5 19 -41.5 50t-15 65q0 68 29 110.5t74 67.5t125 57v41q0 57 -11.5 80.5t-46.5 23.5q-61 0 -61 -82v-29l-106 4q2 96 44 141.5t130 45.5q83 0 120.5 -45.5t37.5 -137.5v-264q0 -65 10 -139h-98q-11 57 -14 85q-12 -39 -41.5 -66t-75.5 -27q-33 0 -59.5 19z
M241 100.5q20 16.5 29 31.5v164q-43 -24 -66.5 -41.5t-39 -40.5t-15.5 -55q0 -36 13 -55.5t38 -19.5q21 0 41 16.5zM138 626.5q-31 30.5 -31 81.5t30.5 81t81.5 30t81.5 -30t30.5 -81t-31 -81.5t-81 -30.5t-81 30.5zM261 665.5q16 15.5 16 42.5t-15.5 42.5t-42.5 15.5
t-42.5 -15t-15.5 -43q0 -27 15.5 -42.5t42.5 -15.5q26 0 42 15.5z" />
    <glyph glyph-name="ae" unicode="&#xe6;" horiz-adv-x="651" 
d="M608 201v-24q0 -89 -38 -137t-116 -48q-66 0 -98.5 30.5t-41.5 86.5q-28 -117 -134 -117q-68 0 -103 37t-35 97q0 75 39 117t115 63l78 21v75q0 51 -13 76.5t-48 25.5q-63 0 -63 -95h-106q1 82 45.5 129.5t123.5 47.5q42 0 71 -20.5t42 -54.5q15 34 51.5 54.5t84.5 20.5
q70 0 105.5 -35.5t35.5 -97.5q0 -53 -20.5 -84t-52 -46.5t-78.5 -25.5l-71 -15v-127q0 -36 13 -57t46 -21q34 0 47.5 26t13.5 73v25h107zM381 340l55 13q37 9 53 27t16 56q0 28 -14 45.5t-45 17.5q-36 0 -50.5 -26.5t-14.5 -75.5v-57zM274 265l-46 -15q-79 -26 -79 -101
q0 -34 14.5 -54t43.5 -20q67 0 67 96v94z" />
    <glyph glyph-name="ccedilla" unicode="&#xe7;" horiz-adv-x="411" 
d="M107 19.5q-37 27.5 -50.5 77t-13.5 125.5v133q0 78 13.5 128t50.5 76.5t105 26.5q62 0 96.5 -20t48 -59.5t13.5 -102.5v-34h-97v35q0 57 -12.5 79.5t-47.5 22.5q-27 0 -40 -12t-18 -39t-5 -79v-182q0 -50 6 -76.5t19.5 -37t38.5 -10.5q37 0 48 24.5t11 75.5v47h97v-40
q0 -94 -34.5 -140t-123.5 -46q-68 0 -105 27.5zM152 -225v54q24 -7 51 -7t44 9.5t17 29.5q0 25 -20.5 37.5t-64.5 18.5v83h54v-56q50 0 80.5 -23.5t30.5 -62.5q0 -46 -34.5 -69.5t-90.5 -23.5q-29 0 -67 10z" />
    <glyph glyph-name="egrave" unicode="&#xe8;" horiz-adv-x="421" 
d="M110 17.5q-37 25.5 -52 75.5t-15 130v132q0 120 37.5 175.5t133.5 55.5q70 0 105.5 -29t47 -81.5t11.5 -141.5v-47h-228v-116q0 -53 15.5 -76.5t49.5 -23.5t46 23.5t12 71.5v35h104v-22q0 -91 -39 -139t-124 -48q-67 0 -104 25.5zM273 345v52q0 59 -11.5 84.5t-48.5 25.5
q-26 0 -39.5 -12t-18.5 -39.5t-5 -79.5v-31h123zM75 824h107l57 -198h-53z" />
    <glyph glyph-name="eacute" unicode="&#xe9;" horiz-adv-x="421" 
d="M110 17.5q-37 25.5 -52 75.5t-15 130v132q0 120 37.5 175.5t133.5 55.5q70 0 105.5 -29t47 -81.5t11.5 -141.5v-47h-228v-116q0 -53 15.5 -76.5t49.5 -23.5t46 23.5t12 71.5v35h104v-22q0 -91 -39 -139t-124 -48q-67 0 -104 25.5zM273 345v52q0 59 -11.5 84.5t-48.5 25.5
q-26 0 -39.5 -12t-18.5 -39.5t-5 -79.5v-31h123zM242 824h107l-112 -198h-54z" />
    <glyph glyph-name="ecircumflex" unicode="&#xea;" horiz-adv-x="421" 
d="M110 17.5q-37 25.5 -52 75.5t-15 130v132q0 120 37.5 175.5t133.5 55.5q70 0 105.5 -29t47 -81.5t11.5 -141.5v-47h-228v-116q0 -53 15.5 -76.5t49.5 -23.5t46 23.5t12 71.5v35h104v-22q0 -91 -39 -139t-124 -48q-67 0 -104 25.5zM273 345v52q0 59 -11.5 84.5t-48.5 25.5
q-26 0 -39.5 -12t-18.5 -39.5t-5 -79.5v-31h123zM156 810h109l87 -175h-81l-61 121l-60 -121h-80z" />
    <glyph glyph-name="edieresis" unicode="&#xeb;" horiz-adv-x="421" 
d="M110 17.5q-37 25.5 -52 75.5t-15 130v132q0 120 37.5 175.5t133.5 55.5q70 0 105.5 -29t47 -81.5t11.5 -141.5v-47h-228v-116q0 -53 15.5 -76.5t49.5 -23.5t46 23.5t12 71.5v35h104v-22q0 -91 -39 -139t-124 -48q-67 0 -104 25.5zM273 345v52q0 59 -11.5 84.5t-48.5 25.5
q-26 0 -39.5 -12t-18.5 -39.5t-5 -79.5v-31h123zM71 810h108v-111h-108v111zM243 810h108v-111h-108v111z" />
    <glyph glyph-name="igrave" unicode="&#xec;" horiz-adv-x="224" 
d="M61 578h107v-578h-107v578zM-21 824h107l57 -198h-53z" />
    <glyph glyph-name="iacute" unicode="&#xed;" horiz-adv-x="224" 
d="M61 578h107v-578h-107v578zM146 824h107l-112 -198h-54z" />
    <glyph glyph-name="icircumflex" unicode="&#xee;" horiz-adv-x="224" 
d="M61 578h107v-578h-107v578zM60 810h109l87 -175h-81l-61 121l-60 -121h-80z" />
    <glyph glyph-name="idieresis" unicode="&#xef;" horiz-adv-x="224" 
d="M61 578h107v-578h-107v578zM-25 810h108v-111h-108v111zM147 810h108v-111h-108v111z" />
    <glyph glyph-name="eth" unicode="&#xf0;" horiz-adv-x="471" 
d="M98.5 52.5q-46.5 61.5 -46.5 172.5v67q0 126 33 195.5t124 69.5q57 0 97 -36q-9 94 -35 134l-119 -37v54l90 26q-22 25 -59.5 37.5t-105.5 13.5l5 70q96 -1 153.5 -23.5t90.5 -70.5l116 34v-54l-89 -24q33 -72 48 -143t15 -161v-140q0 -118 -42 -182t-137 -64
q-92 0 -138.5 61.5zM293 112q15 36 15 107v217q-37 33 -72 33q-44 0 -60.5 -43.5t-16.5 -141.5q0 -78 5 -120.5t21.5 -65t51.5 -22.5q41 0 56 36z" />
    <glyph glyph-name="ntilde" unicode="&#xf1;" horiz-adv-x="439" 
d="M54 578h107v-57q69 65 141 65q47 0 67 -34t20 -84v-468h-107v437q0 33 -10 49t-36 16q-32 0 -75 -36v-466h-107v578zM259.5 707q-16.5 7 -37.5 20q-20 11 -32 16.5t-25 5.5q-18 0 -26 -9.5t-8 -31.5h-61q0 108 80 108q17 0 32.5 -6.5t35.5 -18.5t32.5 -17.5t26.5 -5.5
q18 0 25.5 9.5t7.5 32.5h60q0 -51 -16.5 -80.5t-57.5 -29.5q-20 0 -36.5 7z" />
    <glyph glyph-name="ograve" unicode="&#xf2;" horiz-adv-x="425" 
d="M82.5 46.5q-38.5 54.5 -38.5 158.5v168q0 104 38.5 158.5t130.5 54.5q91 0 129.5 -54.5t38.5 -158.5v-168q0 -104 -38.5 -158.5t-129.5 -54.5q-92 0 -130.5 54.5zM255 88q13 17 16 42t3 68v181q0 43 -3 68.5t-16 42.5t-42 17t-42.5 -17t-16.5 -42.5t-3 -68.5v-181
q0 -43 3 -68t16.5 -42t42.5 -17t42 17zM77 824h107l57 -198h-53z" />
    <glyph glyph-name="oacute" unicode="&#xf3;" horiz-adv-x="425" 
d="M82.5 46.5q-38.5 54.5 -38.5 158.5v168q0 104 38.5 158.5t130.5 54.5q91 0 129.5 -54.5t38.5 -158.5v-168q0 -104 -38.5 -158.5t-129.5 -54.5q-92 0 -130.5 54.5zM255 88q13 17 16 42t3 68v181q0 43 -3 68.5t-16 42.5t-42 17t-42.5 -17t-16.5 -42.5t-3 -68.5v-181
q0 -43 3 -68t16.5 -42t42.5 -17t42 17zM244 824h107l-112 -198h-54z" />
    <glyph glyph-name="ocircumflex" unicode="&#xf4;" horiz-adv-x="425" 
d="M82.5 46.5q-38.5 54.5 -38.5 158.5v168q0 104 38.5 158.5t130.5 54.5q91 0 129.5 -54.5t38.5 -158.5v-168q0 -104 -38.5 -158.5t-129.5 -54.5q-92 0 -130.5 54.5zM255 88q13 17 16 42t3 68v181q0 43 -3 68.5t-16 42.5t-42 17t-42.5 -17t-16.5 -42.5t-3 -68.5v-181
q0 -43 3 -68t16.5 -42t42.5 -17t42 17zM158 810h109l87 -175h-81l-61 121l-60 -121h-80z" />
    <glyph glyph-name="otilde" unicode="&#xf5;" horiz-adv-x="425" 
d="M82.5 46.5q-38.5 54.5 -38.5 158.5v168q0 104 38.5 158.5t130.5 54.5q91 0 129.5 -54.5t38.5 -158.5v-168q0 -104 -38.5 -158.5t-129.5 -54.5q-92 0 -130.5 54.5zM255 88q13 17 16 42t3 68v181q0 43 -3 68.5t-16 42.5t-42 17t-42.5 -17t-16.5 -42.5t-3 -68.5v-181
q0 -43 3 -68t16.5 -42t42.5 -17t42 17zM252.5 707q-16.5 7 -37.5 20q-20 11 -32 16.5t-25 5.5q-18 0 -26 -9.5t-8 -31.5h-61q0 108 80 108q17 0 32.5 -6.5t35.5 -18.5t32.5 -17.5t26.5 -5.5q18 0 25.5 9.5t7.5 32.5h60q0 -51 -16.5 -80.5t-57.5 -29.5q-20 0 -36.5 7z" />
    <glyph glyph-name="odieresis" unicode="&#xf6;" horiz-adv-x="425" 
d="M82.5 46.5q-38.5 54.5 -38.5 158.5v168q0 104 38.5 158.5t130.5 54.5q91 0 129.5 -54.5t38.5 -158.5v-168q0 -104 -38.5 -158.5t-129.5 -54.5q-92 0 -130.5 54.5zM255 88q13 17 16 42t3 68v181q0 43 -3 68.5t-16 42.5t-42 17t-42.5 -17t-16.5 -42.5t-3 -68.5v-181
q0 -43 3 -68t16.5 -42t42.5 -17t42 17zM73 810h108v-111h-108v111zM245 810h108v-111h-108v111z" />
    <glyph glyph-name="divide" unicode="&#xf7;" horiz-adv-x="346" 
d="M130 638h85v-111h-85v111zM19 450h309v-78h-309v78zM130 283h85v-111h-85v111z" />
    <glyph glyph-name="oslash" unicode="&#xf8;" horiz-adv-x="424" 
d="M368.5 477.5q12.5 -43.5 12.5 -104.5v-168q0 -104 -38.5 -158.5t-129.5 -54.5q-47 0 -80 15l-37 -102l-32 11l39 109q-59 49 -59 180v168q0 104 38.5 158.5t130.5 54.5q47 0 82 -16l35 98l37 -12l-39 -108q28 -27 40.5 -70.5zM151 163l112 314q-14 30 -50 30
q-29 0 -42.5 -17t-16.5 -42.5t-3 -68.5v-181v-35zM274 379v19l-109 -302q15 -25 48 -25q29 0 42 17t16 42t3 68v181z" />
    <glyph glyph-name="ugrave" unicode="&#xf9;" horiz-adv-x="440" 
d="M70 26q-20 34 -20 84v468h107v-436q0 -33 10 -49.5t36 -16.5q32 0 75 36v466h107v-578h-107v57q-69 -65 -141 -65q-47 0 -67 34zM84 824h107l57 -198h-53z" />
    <glyph glyph-name="uacute" unicode="&#xfa;" horiz-adv-x="440" 
d="M70 26q-20 34 -20 84v468h107v-436q0 -33 10 -49.5t36 -16.5q32 0 75 36v466h107v-578h-107v57q-69 -65 -141 -65q-47 0 -67 34zM251 824h107l-112 -198h-54z" />
    <glyph glyph-name="ucircumflex" unicode="&#xfb;" horiz-adv-x="440" 
d="M70 26q-20 34 -20 84v468h107v-436q0 -33 10 -49.5t36 -16.5q32 0 75 36v466h107v-578h-107v57q-69 -65 -141 -65q-47 0 -67 34zM165 810h109l87 -175h-81l-61 121l-60 -121h-80z" />
    <glyph glyph-name="udieresis" unicode="&#xfc;" horiz-adv-x="440" 
d="M70 26q-20 34 -20 84v468h107v-436q0 -33 10 -49.5t36 -16.5q32 0 75 36v466h107v-578h-107v57q-69 -65 -141 -65q-47 0 -67 34zM80 810h108v-111h-108v111zM252 810h108v-111h-108v111z" />
    <glyph glyph-name="yacute" unicode="&#xfd;" horiz-adv-x="392" 
d="M45 -63q60 0 82.5 9t22.5 34q0 12 -22 106l-116 492h108l78 -432l75 432h108l-138 -610q-14 -61 -59 -87t-126 -26h-13v82zM227 824h107l-112 -198h-54z" />
    <glyph glyph-name="thorn" unicode="&#xfe;" horiz-adv-x="447" 
d="M55 810h107v-278q47 54 110 54q79 0 105.5 -67.5t26.5 -149.5v-140q0 -106 -32.5 -171.5t-111.5 -65.5q-51 0 -98 51v-233h-107v1000zM286.5 114q10.5 38 10.5 115v140q0 64 -12.5 98.5t-50.5 34.5q-36 0 -72 -30v-370q35 -26 77 -26q37 0 47.5 38z" />
    <glyph glyph-name="ydieresis" unicode="&#xff;" horiz-adv-x="392" 
d="M45 -63q60 0 82.5 9t22.5 34q0 12 -22 106l-116 492h108l78 -432l75 432h108l-138 -610q-14 -61 -59 -87t-126 -26h-13v82zM56 810h108v-111h-108v111zM228 810h108v-111h-108v111z" />
    <glyph glyph-name="Amacron" unicode="&#x100;" horiz-adv-x="492" 
d="M191 810h109l173 -810h-107l-37 204h-165l-39 -204h-106zM314 285l-68 365l-67 -365h135zM150 982h192v-65h-192v65z" />
    <glyph glyph-name="amacron" unicode="&#x101;" horiz-adv-x="426" 
d="M98.5 11q-26.5 19 -41.5 50t-15 65q0 68 29 110.5t74 67.5t125 57v41q0 57 -11.5 80.5t-46.5 23.5q-61 0 -61 -82v-29l-106 4q2 96 44 141.5t130 45.5q83 0 120.5 -45.5t37.5 -137.5v-264q0 -65 10 -139h-98q-11 57 -14 85q-12 -39 -41.5 -66t-75.5 -27q-33 0 -59.5 19z
M241 100.5q20 16.5 29 31.5v164q-43 -24 -66.5 -41.5t-39 -40.5t-15.5 -55q0 -36 13 -55.5t38 -19.5q21 0 41 16.5zM123 750h192v-65h-192v65z" />
    <glyph glyph-name="Abreve" unicode="&#x102;" horiz-adv-x="492" 
d="M191 810h109l173 -810h-107l-37 204h-165l-39 -204h-106zM314 285l-68 365l-67 -365h135zM146.5 910q-31.5 37 -31.5 99h62q1 -38 17 -56.5t52 -18.5q69 0 69 75h63q0 -62 -31.5 -99t-100.5 -37q-68 0 -99.5 37z" />
    <glyph glyph-name="abreve" unicode="&#x103;" horiz-adv-x="426" 
d="M98.5 11q-26.5 19 -41.5 50t-15 65q0 68 29 110.5t74 67.5t125 57v41q0 57 -11.5 80.5t-46.5 23.5q-61 0 -61 -82v-29l-106 4q2 96 44 141.5t130 45.5q83 0 120.5 -45.5t37.5 -137.5v-264q0 -65 10 -139h-98q-11 57 -14 85q-12 -39 -41.5 -66t-75.5 -27q-33 0 -59.5 19z
M241 100.5q20 16.5 29 31.5v164q-43 -24 -66.5 -41.5t-39 -40.5t-15.5 -55q0 -36 13 -55.5t38 -19.5q21 0 41 16.5zM119.5 678q-31.5 37 -31.5 99h62q1 -38 17 -56.5t52 -18.5q69 0 69 75h63q0 -62 -31.5 -99t-100.5 -37q-68 0 -99.5 37z" />
    <glyph glyph-name="Aogonek" unicode="&#x104;" horiz-adv-x="492" 
d="M191 810h109l173 -810h-107l-37 204h-165l-39 -204h-106zM314 285l-68 365l-67 -365h135zM330 -213.5q-37 17.5 -37 68.5q0 31 16.5 61.5t42.5 53t52 30.5h54q-34 -29 -59 -63.5t-25 -65.5q0 -48 80 -48q14 0 32 2l-18 -53q-17 -3 -36 -3q-65 0 -102 17.5z" />
    <glyph glyph-name="aogonek" unicode="&#x105;" horiz-adv-x="426" 
d="M98.5 11q-26.5 19 -41.5 50t-15 65q0 68 29 110.5t74 67.5t125 57v41q0 57 -11.5 80.5t-46.5 23.5q-61 0 -61 -82v-29l-106 4q2 96 44 141.5t130 45.5q83 0 120.5 -45.5t37.5 -137.5v-264q0 -65 10 -139h-98q-11 57 -14 85q-12 -39 -41.5 -66t-75.5 -27q-33 0 -59.5 19z
M241 100.5q20 16.5 29 31.5v164q-43 -24 -66.5 -41.5t-39 -40.5t-15.5 -55q0 -36 13 -55.5t38 -19.5q21 0 41 16.5zM243 -213.5q-37 17.5 -37 68.5q0 31 16.5 61.5t42.5 53t52 30.5h54q-34 -29 -59 -63.5t-25 -65.5q0 -48 80 -48q14 0 32 2l-18 -53q-17 -3 -36 -3
q-65 0 -102 17.5z" />
    <glyph glyph-name="Cacute" unicode="&#x106;" horiz-adv-x="515" 
d="M97 62.5q-49 71.5 -49 197.5v286q0 133 48 202t170 69q109 0 156.5 -59t47.5 -174v-64h-107v57q0 56 -5 86t-25.5 48t-65.5 18q-46 0 -68.5 -19.5t-29.5 -54t-7 -92.5v-321q0 -62 10 -97t32.5 -50t62.5 -15q43 0 64 19t26.5 52t5.5 90v60h107v-60q0 -121 -45.5 -185.5
t-158.5 -64.5q-120 0 -169 71.5zM289 1056h107l-112 -198h-54z" />
    <glyph glyph-name="cacute" unicode="&#x107;" horiz-adv-x="411" 
d="M107 19.5q-37 27.5 -50.5 77t-13.5 125.5v133q0 78 13.5 128t50.5 76.5t105 26.5q62 0 96.5 -20t48 -59.5t13.5 -102.5v-34h-97v35q0 57 -12.5 79.5t-47.5 22.5q-27 0 -40 -12t-18 -39t-5 -79v-182q0 -50 6 -76.5t19.5 -37t38.5 -10.5q37 0 48 24.5t11 75.5v47h97v-40
q0 -94 -34.5 -140t-123.5 -46q-68 0 -105 27.5zM237 824h107l-112 -198h-54z" />
    <glyph glyph-name="Ccircumflex" unicode="&#x108;" horiz-adv-x="515" 
d="M97 62.5q-49 71.5 -49 197.5v286q0 133 48 202t170 69q109 0 156.5 -59t47.5 -174v-64h-107v57q0 56 -5 86t-25.5 48t-65.5 18q-46 0 -68.5 -19.5t-29.5 -54t-7 -92.5v-321q0 -62 10 -97t32.5 -50t62.5 -15q43 0 64 19t26.5 52t5.5 90v60h107v-60q0 -121 -45.5 -185.5
t-158.5 -64.5q-120 0 -169 71.5zM203 1042h109l87 -175h-81l-61 121l-60 -121h-80z" />
    <glyph glyph-name="ccircumflex" unicode="&#x109;" horiz-adv-x="411" 
d="M107 19.5q-37 27.5 -50.5 77t-13.5 125.5v133q0 78 13.5 128t50.5 76.5t105 26.5q62 0 96.5 -20t48 -59.5t13.5 -102.5v-34h-97v35q0 57 -12.5 79.5t-47.5 22.5q-27 0 -40 -12t-18 -39t-5 -79v-182q0 -50 6 -76.5t19.5 -37t38.5 -10.5q37 0 48 24.5t11 75.5v47h97v-40
q0 -94 -34.5 -140t-123.5 -46q-68 0 -105 27.5zM151 810h109l87 -175h-81l-61 121l-60 -121h-80z" />
    <glyph glyph-name="Cdotaccent" unicode="&#x10a;" horiz-adv-x="515" 
d="M97 62.5q-49 71.5 -49 197.5v286q0 133 48 202t170 69q109 0 156.5 -59t47.5 -174v-64h-107v57q0 56 -5 86t-25.5 48t-65.5 18q-46 0 -68.5 -19.5t-29.5 -54t-7 -92.5v-321q0 -62 10 -97t32.5 -50t62.5 -15q43 0 64 19t26.5 52t5.5 90v60h107v-60q0 -121 -45.5 -185.5
t-158.5 -64.5q-120 0 -169 71.5zM204 1022h108v-119h-108v119z" />
    <glyph glyph-name="cdotaccent" unicode="&#x10b;" horiz-adv-x="411" 
d="M107 19.5q-37 27.5 -50.5 77t-13.5 125.5v133q0 78 13.5 128t50.5 76.5t105 26.5q62 0 96.5 -20t48 -59.5t13.5 -102.5v-34h-97v35q0 57 -12.5 79.5t-47.5 22.5q-27 0 -40 -12t-18 -39t-5 -79v-182q0 -50 6 -76.5t19.5 -37t38.5 -10.5q37 0 48 24.5t11 75.5v47h97v-40
q0 -94 -34.5 -140t-123.5 -46q-68 0 -105 27.5zM152 790h108v-119h-108v119z" />
    <glyph glyph-name="Ccaron" unicode="&#x10c;" horiz-adv-x="515" 
d="M97 62.5q-49 71.5 -49 197.5v286q0 133 48 202t170 69q109 0 156.5 -59t47.5 -174v-64h-107v57q0 56 -5 86t-25.5 48t-65.5 18q-46 0 -68.5 -19.5t-29.5 -54t-7 -92.5v-321q0 -62 10 -97t32.5 -50t62.5 -15q43 0 64 19t26.5 52t5.5 90v60h107v-60q0 -121 -45.5 -185.5
t-158.5 -64.5q-120 0 -169 71.5zM118 1042h82l58 -117l58 117h82l-88 -173h-105z" />
    <glyph glyph-name="ccaron" unicode="&#x10d;" horiz-adv-x="411" 
d="M107 19.5q-37 27.5 -50.5 77t-13.5 125.5v133q0 78 13.5 128t50.5 76.5t105 26.5q62 0 96.5 -20t48 -59.5t13.5 -102.5v-34h-97v35q0 57 -12.5 79.5t-47.5 22.5q-27 0 -40 -12t-18 -39t-5 -79v-182q0 -50 6 -76.5t19.5 -37t38.5 -10.5q37 0 48 24.5t11 75.5v47h97v-40
q0 -94 -34.5 -140t-123.5 -46q-68 0 -105 27.5zM66 810h82l58 -117l58 117h82l-88 -173h-105z" />
    <glyph glyph-name="Dcaron" unicode="&#x10e;" horiz-adv-x="527" 
d="M63 810h176q131 0 185.5 -60t54.5 -187v-298q0 -134 -53.5 -199.5t-177.5 -65.5h-185v810zM240 81q59 0 85.5 23t33 62.5t6.5 119.5v263q0 69 -8.5 105.5t-35.5 54t-84 17.5h-61v-645h64zM124 1042h82l58 -117l58 117h82l-88 -173h-105z" />
    <glyph glyph-name="dcaron" unicode="&#x10f;" horiz-adv-x="526" 
d="M78 46.5q-35 54.5 -35 180.5v112q0 115 30.5 181t111.5 66q51 0 96 -45v269h107v-810h-107v37q-42 -45 -93 -45q-75 0 -110 54.5zM281 98v379q-37 25 -68 25q-63 0 -63 -121v-163q0 -70 13 -106t52 -36q32 0 66 22zM435 610q27 9 42.5 31.5t15.5 53.5h-57v115h110v-113
q0 -53 -23 -84.5t-71 -48.5z" />
    <glyph glyph-name="Dcroat" unicode="&#x110;" horiz-adv-x="529" 
d="M65 388h-48v65h48v357h177q89 0 141 -27t74.5 -81t22.5 -139v-298q0 -134 -53 -199.5t-177 -65.5h-185v388zM242 81q59 0 85.5 23t33 62.5t6.5 119.5v263q0 69 -8.5 105.5t-35.5 54t-84 17.5h-60v-273h60v-65h-60v-307h63z" />
    <glyph glyph-name="dcroat" unicode="&#x111;" horiz-adv-x="454" 
d="M78 46.5q-35 54.5 -35 180.5v112q0 115 30.5 181t111.5 66q51 0 96 -45v138h-112v59h112v72h107v-72h59v-59h-59v-679h-107v37q-42 -45 -93 -45q-75 0 -110 54.5zM281 98v379q-37 25 -68 25q-63 0 -63 -121v-163q0 -70 13 -106t52 -36q32 0 66 22z" />
    <glyph glyph-name="Emacron" unicode="&#x112;" horiz-adv-x="407" 
d="M63 810h314v-84h-201v-268h163v-80h-163v-297h203v-81h-316v810zM128 982h192v-65h-192v65z" />
    <glyph glyph-name="emacron" unicode="&#x113;" horiz-adv-x="421" 
d="M110 17.5q-37 25.5 -52 75.5t-15 130v132q0 120 37.5 175.5t133.5 55.5q70 0 105.5 -29t47 -81.5t11.5 -141.5v-47h-228v-116q0 -53 15.5 -76.5t49.5 -23.5t46 23.5t12 71.5v35h104v-22q0 -91 -39 -139t-124 -48q-67 0 -104 25.5zM273 345v52q0 59 -11.5 84.5t-48.5 25.5
q-26 0 -39.5 -12t-18.5 -39.5t-5 -79.5v-31h123zM115 750h192v-65h-192v65z" />
    <glyph glyph-name="Ebreve" unicode="&#x114;" horiz-adv-x="407" 
d="M63 810h314v-84h-201v-268h163v-80h-163v-297h203v-81h-316v810zM124.5 910q-31.5 37 -31.5 99h62q1 -38 17 -56.5t52 -18.5q69 0 69 75h63q0 -62 -31.5 -99t-100.5 -37q-68 0 -99.5 37z" />
    <glyph glyph-name="ebreve" unicode="&#x115;" horiz-adv-x="421" 
d="M110 17.5q-37 25.5 -52 75.5t-15 130v132q0 120 37.5 175.5t133.5 55.5q70 0 105.5 -29t47 -81.5t11.5 -141.5v-47h-228v-116q0 -53 15.5 -76.5t49.5 -23.5t46 23.5t12 71.5v35h104v-22q0 -91 -39 -139t-124 -48q-67 0 -104 25.5zM273 345v52q0 59 -11.5 84.5t-48.5 25.5
q-26 0 -39.5 -12t-18.5 -39.5t-5 -79.5v-31h123zM111.5 678q-31.5 37 -31.5 99h62q1 -38 17 -56.5t52 -18.5q69 0 69 75h63q0 -62 -31.5 -99t-100.5 -37q-68 0 -99.5 37z" />
    <glyph glyph-name="Edotaccent" unicode="&#x116;" horiz-adv-x="407" 
d="M63 810h314v-84h-201v-268h163v-80h-163v-297h203v-81h-316v810zM170 1022h108v-119h-108v119z" />
    <glyph glyph-name="edotaccent" unicode="&#x117;" horiz-adv-x="421" 
d="M110 17.5q-37 25.5 -52 75.5t-15 130v132q0 120 37.5 175.5t133.5 55.5q70 0 105.5 -29t47 -81.5t11.5 -141.5v-47h-228v-116q0 -53 15.5 -76.5t49.5 -23.5t46 23.5t12 71.5v35h104v-22q0 -91 -39 -139t-124 -48q-67 0 -104 25.5zM273 345v52q0 59 -11.5 84.5t-48.5 25.5
q-26 0 -39.5 -12t-18.5 -39.5t-5 -79.5v-31h123zM157 790h108v-119h-108v119z" />
    <glyph glyph-name="Eogonek" unicode="&#x118;" horiz-adv-x="407" 
d="M63 810h314v-84h-201v-268h163v-80h-163v-297h203v-81h-316v810zM216 -213.5q-37 17.5 -37 68.5q0 31 16.5 61.5t42.5 53t52 30.5h54q-34 -29 -59 -63.5t-25 -65.5q0 -48 80 -48q14 0 32 2l-18 -53q-17 -3 -36 -3q-65 0 -102 17.5z" />
    <glyph glyph-name="eogonek" unicode="&#x119;" horiz-adv-x="421" 
d="M110 17.5q-37 25.5 -52 75.5t-15 130v132q0 120 37.5 175.5t133.5 55.5q70 0 105.5 -29t47 -81.5t11.5 -141.5v-47h-228v-116q0 -53 15.5 -76.5t49.5 -23.5t46 23.5t12 71.5v35h104v-22q0 -91 -39 -139t-124 -48q-67 0 -104 25.5zM273 345v52q0 59 -11.5 84.5t-48.5 25.5
q-26 0 -39.5 -12t-18.5 -39.5t-5 -79.5v-31h123zM149 -203.5q-37 17.5 -37 68.5q0 31 16.5 61.5t42.5 53t52 30.5h54q-34 -29 -59 -63.5t-25 -65.5q0 -48 80 -48q14 0 32 2l-18 -53q-17 -3 -36 -3q-65 0 -102 17.5z" />
    <glyph glyph-name="Ecaron" unicode="&#x11a;" horiz-adv-x="407" 
d="M63 810h314v-84h-201v-268h163v-80h-163v-297h203v-81h-316v810zM84 1042h82l58 -117l58 117h82l-88 -173h-105z" />
    <glyph glyph-name="ecaron" unicode="&#x11b;" horiz-adv-x="421" 
d="M110 17.5q-37 25.5 -52 75.5t-15 130v132q0 120 37.5 175.5t133.5 55.5q70 0 105.5 -29t47 -81.5t11.5 -141.5v-47h-228v-116q0 -53 15.5 -76.5t49.5 -23.5t46 23.5t12 71.5v35h104v-22q0 -91 -39 -139t-124 -48q-67 0 -104 25.5zM273 345v52q0 59 -11.5 84.5t-48.5 25.5
q-26 0 -39.5 -12t-18.5 -39.5t-5 -79.5v-31h123zM71 810h82l58 -117l58 117h82l-88 -173h-105z" />
    <glyph glyph-name="Gcircumflex" unicode="&#x11c;" horiz-adv-x="535" 
d="M97 59.5q-49 69.5 -49 206.5v271q0 94 19.5 154.5t67 93t130.5 32.5q112 0 161.5 -57t49.5 -179v-30h-106v25q0 58 -7 89.5t-29.5 47.5t-66.5 16q-47 0 -70 -21.5t-29.5 -57.5t-6.5 -96v-300q0 -93 22.5 -133.5t86.5 -40.5q63 0 86.5 44t23.5 141v56h-103v80h205v-401
h-71l-11 93q-38 -103 -144 -103q-110 0 -159 69.5zM213 1042h109l87 -175h-81l-61 121l-60 -121h-80z" />
    <glyph glyph-name="gcircumflex" unicode="&#x11d;" horiz-adv-x="435" 
d="M70 -152.5q-50 26.5 -50 82.5q0 38 23.5 66t59.5 45q-27 8 -41.5 25t-14.5 37q0 30 15 52t49 53q-34 26 -50.5 65.5t-16.5 106.5q0 101 41.5 153.5t121.5 52.5q46 0 75 -16t44 -48q7 11 29.5 29.5t48.5 30.5l16 7l27 -69q-20 -4 -55.5 -17t-42.5 -20q7 -18 12.5 -50
t5.5 -56q0 -95 -37 -147.5t-123 -52.5q-27 0 -55 7q-19 -28 -19 -44q0 -11 11.5 -17.5t36.5 -8.5l90 -8q68 -6 101 -41t33 -100q0 -144 -201 -144q-84 0 -134 26.5zM263 282q13 30 13 98q0 69 -13 100.5t-55 31.5t-56.5 -31.5t-14.5 -100.5q0 -62 14.5 -95t55.5 -33
q43 0 56 30zM296 -81.5q27 13.5 27 43.5q0 28 -17 41.5t-62 17.5l-91 8q-21 -21 -32 -37t-11 -35q0 -27 22.5 -39.5t79.5 -12.5t84 13.5zM163 810h109l87 -175h-81l-61 121l-60 -121h-80z" />
    <glyph glyph-name="Gbreve" unicode="&#x11e;" horiz-adv-x="535" 
d="M97 59.5q-49 69.5 -49 206.5v271q0 94 19.5 154.5t67 93t130.5 32.5q112 0 161.5 -57t49.5 -179v-30h-106v25q0 58 -7 89.5t-29.5 47.5t-66.5 16q-47 0 -70 -21.5t-29.5 -57.5t-6.5 -96v-300q0 -93 22.5 -133.5t86.5 -40.5q63 0 86.5 44t23.5 141v56h-103v80h205v-401
h-71l-11 93q-38 -103 -144 -103q-110 0 -159 69.5zM168.5 910q-31.5 37 -31.5 99h62q1 -38 17 -56.5t52 -18.5q69 0 69 75h63q0 -62 -31.5 -99t-100.5 -37q-68 0 -99.5 37z" />
    <glyph glyph-name="gbreve" unicode="&#x11f;" horiz-adv-x="435" 
d="M70 -152.5q-50 26.5 -50 82.5q0 38 23.5 66t59.5 45q-27 8 -41.5 25t-14.5 37q0 30 15 52t49 53q-34 26 -50.5 65.5t-16.5 106.5q0 101 41.5 153.5t121.5 52.5q46 0 75 -16t44 -48q7 11 29.5 29.5t48.5 30.5l16 7l27 -69q-20 -4 -55.5 -17t-42.5 -20q7 -18 12.5 -50
t5.5 -56q0 -95 -37 -147.5t-123 -52.5q-27 0 -55 7q-19 -28 -19 -44q0 -11 11.5 -17.5t36.5 -8.5l90 -8q68 -6 101 -41t33 -100q0 -144 -201 -144q-84 0 -134 26.5zM263 282q13 30 13 98q0 69 -13 100.5t-55 31.5t-56.5 -31.5t-14.5 -100.5q0 -62 14.5 -95t55.5 -33
q43 0 56 30zM296 -81.5q27 13.5 27 43.5q0 28 -17 41.5t-62 17.5l-91 8q-21 -21 -32 -37t-11 -35q0 -27 22.5 -39.5t79.5 -12.5t84 13.5zM118.5 678q-31.5 37 -31.5 99h62q1 -38 17 -56.5t52 -18.5q69 0 69 75h63q0 -62 -31.5 -99t-100.5 -37q-68 0 -99.5 37z" />
    <glyph glyph-name="Gdotaccent" unicode="&#x120;" horiz-adv-x="535" 
d="M97 59.5q-49 69.5 -49 206.5v271q0 94 19.5 154.5t67 93t130.5 32.5q112 0 161.5 -57t49.5 -179v-30h-106v25q0 58 -7 89.5t-29.5 47.5t-66.5 16q-47 0 -70 -21.5t-29.5 -57.5t-6.5 -96v-300q0 -93 22.5 -133.5t86.5 -40.5q63 0 86.5 44t23.5 141v56h-103v80h205v-401
h-71l-11 93q-38 -103 -144 -103q-110 0 -159 69.5zM214 1022h108v-119h-108v119z" />
    <glyph glyph-name="gdotaccent" unicode="&#x121;" horiz-adv-x="435" 
d="M70 -152.5q-50 26.5 -50 82.5q0 38 23.5 66t59.5 45q-27 8 -41.5 25t-14.5 37q0 30 15 52t49 53q-34 26 -50.5 65.5t-16.5 106.5q0 101 41.5 153.5t121.5 52.5q46 0 75 -16t44 -48q7 11 29.5 29.5t48.5 30.5l16 7l27 -69q-20 -4 -55.5 -17t-42.5 -20q7 -18 12.5 -50
t5.5 -56q0 -95 -37 -147.5t-123 -52.5q-27 0 -55 7q-19 -28 -19 -44q0 -11 11.5 -17.5t36.5 -8.5l90 -8q68 -6 101 -41t33 -100q0 -144 -201 -144q-84 0 -134 26.5zM263 282q13 30 13 98q0 69 -13 100.5t-55 31.5t-56.5 -31.5t-14.5 -100.5q0 -62 14.5 -95t55.5 -33
q43 0 56 30zM296 -81.5q27 13.5 27 43.5q0 28 -17 41.5t-62 17.5l-91 8q-21 -21 -32 -37t-11 -35q0 -27 22.5 -39.5t79.5 -12.5t84 13.5zM164 790h108v-119h-108v119z" />
    <glyph glyph-name="Gcommaaccent" unicode="&#x122;" horiz-adv-x="535" 
d="M97 59.5q-49 69.5 -49 206.5v271q0 94 19.5 154.5t67 93t130.5 32.5q112 0 161.5 -57t49.5 -179v-30h-106v25q0 58 -7 89.5t-29.5 47.5t-66.5 16q-47 0 -70 -21.5t-29.5 -57.5t-6.5 -96v-300q0 -93 22.5 -133.5t86.5 -40.5q63 0 86.5 44t23.5 141v56h-103v80h205v-401
h-71l-11 93q-38 -103 -144 -103q-110 0 -159 69.5zM213 -234q30 2 43 17t13 45h-55v109h109l-1 -103q-1 -60 -17.5 -89.5t-64.5 -31.5z" />
    <glyph glyph-name="gcommaaccent" unicode="&#x123;" horiz-adv-x="435" 
d="M70 -152.5q-50 26.5 -50 82.5q0 38 23.5 66t59.5 45q-27 8 -41.5 25t-14.5 37q0 30 15 52t49 53q-34 26 -50.5 65.5t-16.5 106.5q0 101 41.5 153.5t121.5 52.5q46 0 75 -16t44 -48q7 11 29.5 29.5t48.5 30.5l16 7l27 -69q-20 -4 -55.5 -17t-42.5 -20q7 -18 12.5 -50
t5.5 -56q0 -95 -37 -147.5t-123 -52.5q-27 0 -55 7q-19 -28 -19 -44q0 -11 11.5 -17.5t36.5 -8.5l90 -8q68 -6 101 -41t33 -100q0 -144 -201 -144q-84 0 -134 26.5zM263 282q13 30 13 98q0 69 -13 100.5t-55 31.5t-56.5 -31.5t-14.5 -100.5q0 -62 14.5 -95t55.5 -33
q43 0 56 30zM296 -81.5q27 13.5 27 43.5q0 28 -17 41.5t-62 17.5l-91 8q-21 -21 -32 -37t-11 -35q0 -27 22.5 -39.5t79.5 -12.5t84 13.5zM273 811q-30 -2 -43 -17t-13 -45h55v-109h-109l1 103q1 60 17.5 89.5t64.5 31.5z" />
    <glyph glyph-name="Hcircumflex" unicode="&#x124;" horiz-adv-x="561" 
d="M63 810h113v-350h208v350h113v-810h-113v379h-208v-379h-113v810zM226 1042h109l87 -175h-81l-61 121l-60 -121h-80z" />
    <glyph glyph-name="hcircumflex" unicode="&#x125;" horiz-adv-x="445" 
d="M57 810h107v-292q72 68 145 68q47 0 66.5 -34t19.5 -84v-468h-107v437q0 33 -10 49t-36 16q-35 0 -78 -38v-464h-107v810zM56 1042h109l87 -175h-81l-61 121l-60 -121h-80z" />
    <glyph glyph-name="Hbar" unicode="&#x126;" horiz-adv-x="561" 
d="M63 619h-47v58h47v133h113v-133h208v133h113v-133h47v-58h-47v-619h-113v379h-208v-379h-113v619zM384 460v159h-208v-159h208z" />
    <glyph glyph-name="hbar" unicode="&#x127;" horiz-adv-x="445" 
d="M57 690h-63v60h63v60h107v-60h122v-60h-122v-172q70 68 144 68q47 0 67 -34t20 -84v-468h-107v437q0 33 -10 49t-36 16q-35 0 -78 -38v-464h-107v690z" />
    <glyph glyph-name="Itilde" unicode="&#x128;" horiz-adv-x="248" 
d="M69 810h111v-810h-111v810zM163.5 939q-16.5 7 -37.5 20q-20 11 -32 16.5t-25 5.5q-18 0 -26 -9.5t-8 -31.5h-61q0 108 80 108q17 0 32.5 -6.5t35.5 -18.5t32.5 -17.5t26.5 -5.5q18 0 25.5 9.5t7.5 32.5h60q0 -51 -16.5 -80.5t-57.5 -29.5q-20 0 -36.5 7z" />
    <glyph glyph-name="itilde" unicode="&#x129;" horiz-adv-x="224" 
d="M61 578h107v-578h-107v578zM154.5 707q-16.5 7 -37.5 20q-20 11 -32 16.5t-25 5.5q-18 0 -26 -9.5t-8 -31.5h-61q0 108 80 108q17 0 32.5 -6.5t35.5 -18.5t32.5 -17.5t26.5 -5.5q18 0 25.5 9.5t7.5 32.5h60q0 -51 -16.5 -80.5t-57.5 -29.5q-20 0 -36.5 7z" />
    <glyph glyph-name="Imacron" unicode="&#x12a;" horiz-adv-x="248" 
d="M69 810h111v-810h-111v810zM28 982h192v-65h-192v65z" />
    <glyph glyph-name="imacron" unicode="&#x12b;" horiz-adv-x="224" 
d="M61 578h107v-578h-107v578zM19 750h192v-65h-192v65z" />
    <glyph glyph-name="Ibreve" unicode="&#x12c;" horiz-adv-x="248" 
d="M69 810h111v-810h-111v810zM24.5 910q-31.5 37 -31.5 99h62q1 -38 17 -56.5t52 -18.5q69 0 69 75h63q0 -62 -31.5 -99t-100.5 -37q-68 0 -99.5 37z" />
    <glyph glyph-name="ibreve" unicode="&#x12d;" horiz-adv-x="224" 
d="M61 578h107v-578h-107v578zM15.5 678q-31.5 37 -31.5 99h62q1 -38 17 -56.5t52 -18.5q69 0 69 75h63q0 -62 -31.5 -99t-100.5 -37q-68 0 -99.5 37z" />
    <glyph glyph-name="Iogonek" unicode="&#x12e;" horiz-adv-x="248" 
d="M69 810h111v-810h-111v810zM25 -213.5q-37 17.5 -37 68.5q0 31 16.5 61.5t42.5 53t52 30.5h54q-34 -29 -59 -63.5t-25 -65.5q0 -48 80 -48q14 0 32 2l-18 -53q-17 -3 -36 -3q-65 0 -102 17.5z" />
    <glyph glyph-name="iogonek" unicode="&#x12f;" horiz-adv-x="229" 
d="M61 776h107v-112h-107v112zM61 578h107v-578h-107v578zM15 -213.5q-37 17.5 -37 68.5q0 31 16.5 61.5t42.5 53t52 30.5h54q-34 -29 -59 -63.5t-25 -65.5q0 -48 80 -48q14 0 32 2l-18 -53q-17 -3 -36 -3q-65 0 -102 17.5z" />
    <glyph glyph-name="Idotaccent" unicode="&#x130;" horiz-adv-x="248" 
d="M69 810h111v-810h-111v810zM70 1022h108v-119h-108v119z" />
    <glyph glyph-name="dotlessi" unicode="&#x131;" horiz-adv-x="224" 
d="M61 578h107v-578h-107v578z" />
    <glyph glyph-name="IJ" unicode="&#x132;" horiz-adv-x="549" 
d="M69 810h111v-810h-111v810zM255 62q51 0 75.5 9.5t33.5 35t9 78.5v625h112v-627q0 -73 -15 -116.5t-53.5 -64.5t-107.5 -21h-54v81z" />
    <glyph glyph-name="ij" unicode="&#x133;" horiz-adv-x="459" 
d="M61 776h107v-112h-107v112zM61 578h107v-578h-107v578zM298 776h108v-112h-108v112zM210 -139v77q21 -3 28 -3q33 0 46.5 18.5t13.5 51.5v573h107v-584q0 -68 -37 -104t-103 -36q-39 0 -55 7z" />
    <glyph glyph-name="Jcircumflex" unicode="&#x134;" horiz-adv-x="301" 
d="M7 62q51 0 75.5 9.5t33.5 35t9 78.5v625h112v-627q0 -73 -15 -116.5t-53.5 -64.5t-107.5 -21h-54v81zM126 1042h109l87 -175h-81l-61 121l-60 -121h-80z" />
    <glyph glyph-name="jcircumflex" unicode="&#x135;" horiz-adv-x="230" 
d="M-19 -139v77q21 -3 28 -3q33 0 46.5 18.5t13.5 51.5v573h107v-584q0 -68 -37 -104t-103 -36q-39 0 -55 7zM68 810h109l87 -175h-81l-61 121l-60 -121h-80z" />
    <glyph glyph-name="Kcommaaccent" unicode="&#x136;" horiz-adv-x="495" 
d="M63 810h113v-382l186 382h105l-160 -357l186 -453h-110l-155 380l-52 -94v-286h-113v810zM193 -234q30 2 43 17t13 45h-55v109h109l-1 -103q-1 -60 -17.5 -89.5t-64.5 -31.5z" />
    <glyph glyph-name="kcommaaccent" unicode="&#x137;" horiz-adv-x="429" 
d="M56 811h107v-483l156 250h112l-136 -226l132 -352h-107l-108 296l-49 -74v-221h-107v810zM160 -234q30 2 43 17t13 45h-55v109h109l-1 -103q-1 -60 -17.5 -89.5t-64.5 -31.5z" />
    <glyph glyph-name="kgreenlandic" unicode="&#x138;" horiz-adv-x="430" 
d="M59 578h107v-254l152 254h108l-132 -221l132 -357h-107l-97 284l-56 -84v-200h-107v578z" />
    <glyph glyph-name="Lacute" unicode="&#x139;" horiz-adv-x="397" 
d="M63 810h113v-729h207v-81h-320v810zM151 1056h107l-112 -198h-54z" />
    <glyph glyph-name="lacute" unicode="&#x13a;" horiz-adv-x="229" 
d="M64 810h107v-810h-107v810zM149 1056h107l-112 -198h-54z" />
    <glyph glyph-name="Lcommaaccent" unicode="&#x13b;" horiz-adv-x="397" 
d="M63 810h113v-729h207v-81h-320v810zM168 -234q30 2 43 17t13 45h-55v109h109l-1 -103q-1 -60 -17.5 -89.5t-64.5 -31.5z" />
    <glyph glyph-name="lcommaaccent" unicode="&#x13c;" horiz-adv-x="229" 
d="M64 810h107v-810h-107v810zM63 -234q30 2 43 17t13 45h-55v109h109l-1 -103q-1 -60 -17.5 -89.5t-64.5 -31.5z" />
    <glyph glyph-name="Lcaron" unicode="&#x13d;" horiz-adv-x="397" 
d="M63 810h113v-729h207v-81h-320v810zM273 610q27 9 42.5 31.5t15.5 53.5h-57v115h110v-113q0 -53 -23 -84.5t-71 -48.5z" />
    <glyph glyph-name="lcaron" unicode="&#x13e;" horiz-adv-x="309" 
d="M64 810h107v-810h-107v810zM218 610q27 9 42.5 31.5t15.5 53.5h-57v115h110v-113q0 -53 -23 -84.5t-71 -48.5z" />
    <glyph glyph-name="Ldot" unicode="&#x13f;" horiz-adv-x="397" 
d="M63 810h113v-729h207v-81h-320v810zM279 491h78v-110h-78v110z" />
    <glyph glyph-name="ldot" unicode="&#x140;" horiz-adv-x="284" 
d="M64 810h107v-810h-107v810zM220 492h78v-110h-78v110z" />
    <glyph glyph-name="Lslash" unicode="&#x141;" horiz-adv-x="397" 
d="M63 377l-69 -38v87l69 38v346h113v-283l105 57v-86l-105 -58v-359h207v-81h-320v377z" />
    <glyph glyph-name="lslash" unicode="&#x142;" horiz-adv-x="267" 
d="M85 416l-68 -33v84l68 32v311h107v-262l61 30v-83l-61 -30v-465h-107v416z" />
    <glyph glyph-name="Nacute" unicode="&#x143;" horiz-adv-x="528" 
d="M63 810h77l230 -538v538h94v-810h-72l-233 553v-553h-96v810zM295 1056h107l-112 -198h-54z" />
    <glyph glyph-name="nacute" unicode="&#x144;" horiz-adv-x="439" 
d="M54 578h107v-57q69 65 141 65q47 0 67 -34t20 -84v-468h-107v437q0 33 -10 49t-36 16q-32 0 -75 -36v-466h-107v578zM251 824h107l-112 -198h-54z" />
    <glyph glyph-name="Ncommaaccent" unicode="&#x145;" horiz-adv-x="528" 
d="M63 810h77l230 -538v538h94v-810h-72l-233 553v-553h-96v810zM209 -234q30 2 43 17t13 45h-55v109h109l-1 -103q-1 -60 -17.5 -89.5t-64.5 -31.5z" />
    <glyph glyph-name="ncommaaccent" unicode="&#x146;" horiz-adv-x="439" 
d="M54 578h107v-57q69 65 141 65q47 0 67 -34t20 -84v-468h-107v437q0 33 -10 49t-36 16q-32 0 -75 -36v-466h-107v578zM165 -234q30 2 43 17t13 45h-55v109h109l-1 -103q-1 -60 -17.5 -89.5t-64.5 -31.5z" />
    <glyph glyph-name="Ncaron" unicode="&#x147;" horiz-adv-x="528" 
d="M63 810h77l230 -538v538h94v-810h-72l-233 553v-553h-96v810zM124 1042h82l58 -117l58 117h82l-88 -173h-105z" />
    <glyph glyph-name="ncaron" unicode="&#x148;" horiz-adv-x="439" 
d="M54 578h107v-57q69 65 141 65q47 0 67 -34t20 -84v-468h-107v437q0 33 -10 49t-36 16q-32 0 -75 -36v-466h-107v578zM80 810h82l58 -117l58 117h82l-88 -173h-105z" />
    <glyph glyph-name="napostrophe" unicode="&#x149;" horiz-adv-x="501" 
d="M10 650q27 9 42.5 31.5t15.5 53.5h-57v115h110v-113q0 -53 -23 -84.5t-71 -48.5zM125 578h107v-57q69 65 141 65q47 0 67 -34t20 -84v-468h-107v437q0 33 -10 49t-36 16q-32 0 -75 -36v-466h-107v578z" />
    <glyph glyph-name="Eng" unicode="&#x14a;" horiz-adv-x="531" 
d="M267 -106q50 0 72.5 10.5t29 33t6.5 71.5v33l-222 511v-553h-90v810h77l236 -538v538h88v-810q0 -64 -13.5 -103.5t-48 -59.5t-97.5 -20h-38v77z" />
    <glyph glyph-name="eng" unicode="&#x14b;" horiz-adv-x="388" 
d="M154 -103q48 0 73.5 10.5t35 31.5t9.5 56v442q0 33 -9.5 49t-36.5 16q-32 0 -75 -36v-466h-107v578h107v-57q69 65 142 65q47 0 66.5 -34t19.5 -84v-474q0 -87 -52.5 -132.5t-140.5 -45.5h-32v81z" />
    <glyph glyph-name="Omacron" unicode="&#x14c;" horiz-adv-x="539" 
d="M99.5 58.5q-51.5 67.5 -51.5 195.5v307q0 126 52 191t170 65t169.5 -65.5t51.5 -190.5v-308q0 -126 -52 -194t-169 -68q-119 0 -170.5 67.5zM355 117q22 37 22 112v355q0 74 -22 109.5t-85 35.5q-64 0 -86 -35.5t-22 -109.5v-355q0 -75 22 -112t86 -37q63 0 85 37z
M174 982h192v-65h-192v65z" />
    <glyph glyph-name="omacron" unicode="&#x14d;" horiz-adv-x="425" 
d="M82.5 46.5q-38.5 54.5 -38.5 158.5v168q0 104 38.5 158.5t130.5 54.5q91 0 129.5 -54.5t38.5 -158.5v-168q0 -104 -38.5 -158.5t-129.5 -54.5q-92 0 -130.5 54.5zM255 88q13 17 16 42t3 68v181q0 43 -3 68.5t-16 42.5t-42 17t-42.5 -17t-16.5 -42.5t-3 -68.5v-181
q0 -43 3 -68t16.5 -42t42.5 -17t42 17zM117 750h192v-65h-192v65z" />
    <glyph glyph-name="Obreve" unicode="&#x14e;" horiz-adv-x="539" 
d="M99.5 58.5q-51.5 67.5 -51.5 195.5v307q0 126 52 191t170 65t169.5 -65.5t51.5 -190.5v-308q0 -126 -52 -194t-169 -68q-119 0 -170.5 67.5zM355 117q22 37 22 112v355q0 74 -22 109.5t-85 35.5q-64 0 -86 -35.5t-22 -109.5v-355q0 -75 22 -112t86 -37q63 0 85 37z
M170.5 910q-31.5 37 -31.5 99h62q1 -38 17 -56.5t52 -18.5q69 0 69 75h63q0 -62 -31.5 -99t-100.5 -37q-68 0 -99.5 37z" />
    <glyph glyph-name="obreve" unicode="&#x14f;" horiz-adv-x="425" 
d="M82.5 46.5q-38.5 54.5 -38.5 158.5v168q0 104 38.5 158.5t130.5 54.5q91 0 129.5 -54.5t38.5 -158.5v-168q0 -104 -38.5 -158.5t-129.5 -54.5q-92 0 -130.5 54.5zM255 88q13 17 16 42t3 68v181q0 43 -3 68.5t-16 42.5t-42 17t-42.5 -17t-16.5 -42.5t-3 -68.5v-181
q0 -43 3 -68t16.5 -42t42.5 -17t42 17zM113.5 678q-31.5 37 -31.5 99h62q1 -38 17 -56.5t52 -18.5q69 0 69 75h63q0 -62 -31.5 -99t-100.5 -37q-68 0 -99.5 37z" />
    <glyph glyph-name="Ohungarumlaut" unicode="&#x150;" horiz-adv-x="539" 
d="M99.5 58.5q-51.5 67.5 -51.5 195.5v307q0 126 52 191t170 65t169.5 -65.5t51.5 -190.5v-308q0 -126 -52 -194t-169 -68q-119 0 -170.5 67.5zM355 117q22 37 22 112v355q0 74 -22 109.5t-85 35.5q-64 0 -86 -35.5t-22 -109.5v-355q0 -75 22 -112t86 -37q63 0 85 37z
M223 1043h88l-73 -171h-54zM368 1043h108l-111 -171h-55z" />
    <glyph glyph-name="ohungarumlaut" unicode="&#x151;" horiz-adv-x="425" 
d="M82.5 46.5q-38.5 54.5 -38.5 158.5v168q0 104 38.5 158.5t130.5 54.5q91 0 129.5 -54.5t38.5 -158.5v-168q0 -104 -38.5 -158.5t-129.5 -54.5q-92 0 -130.5 54.5zM255 88q13 17 16 42t3 68v181q0 43 -3 68.5t-16 42.5t-42 17t-42.5 -17t-16.5 -42.5t-3 -68.5v-181
q0 -43 3 -68t16.5 -42t42.5 -17t42 17zM166 811h88l-73 -171h-54zM311 811h108l-111 -171h-55z" />
    <glyph glyph-name="OE" unicode="&#x152;" horiz-adv-x="683" 
d="M146 27q-53 27 -75.5 81t-22.5 139v299q0 133 54 198.5t178 65.5h374v-84h-197v-267h160v-81h-160v-297h199v-81h-368q-89 0 -142 27zM344 84v645h-56q-59 0 -86 -22.5t-33.5 -62.5t-6.5 -119v-266q0 -68 8.5 -104t35.5 -53.5t84 -17.5h54z" />
    <glyph glyph-name="oe" unicode="&#x153;" horiz-adv-x="685" 
d="M95.5 46q-38.5 54 -38.5 157v172q0 103 37.5 157t126.5 54q86 0 122 -68q16 32 50 50t81 18q63 0 96.5 -27.5t45.5 -80t12 -138.5v-49h-232v-36q0 -87 12.5 -131t56.5 -44q56 0 56 82v39h107v-38q0 -89 -36.5 -130t-114.5 -41q-50 0 -83.5 18.5t-50.5 51.5
q-32 -70 -117 -70q-92 0 -130.5 54zM268.5 96.5q13.5 16.5 17 41t3.5 65.5v172q0 41 -3.5 66t-17 41.5t-42.5 16.5t-42 -16.5t-16.5 -41.5t-3.5 -66v-172q0 -41 3 -65.5t16.5 -41t42.5 -16.5t42.5 16.5zM521 345v31q0 59 -11.5 91t-50.5 32q-38 0 -50.5 -32.5t-12.5 -90.5
v-31h125z" />
    <glyph glyph-name="Racute" unicode="&#x154;" horiz-adv-x="519" 
d="M63 810h163q123 0 180.5 -50.5t57.5 -164.5q0 -156 -100 -189l115 -406h-109l-106 380h-88v-380h-113v810zM219 461q73 0 104.5 29t31.5 105q0 50 -11 78.5t-39 42t-79 13.5h-50v-268h43zM291 1056h107l-112 -198h-54z" />
    <glyph glyph-name="racute" unicode="&#x155;" horiz-adv-x="321" 
d="M57 578h107v-82q30 49 61.5 69t66.5 20q9 0 17 -1v-118q-32 12 -59 12q-26 0 -46.5 -12.5t-39.5 -43.5v-422h-107v578zM215 824h107l-112 -198h-54z" />
    <glyph glyph-name="Rcommaaccent" unicode="&#x156;" horiz-adv-x="519" 
d="M63 810h163q123 0 180.5 -50.5t57.5 -164.5q0 -156 -100 -189l115 -406h-109l-106 380h-88v-380h-113v810zM219 461q73 0 104.5 29t31.5 105q0 50 -11 78.5t-39 42t-79 13.5h-50v-268h43zM205 -234q30 2 43 17t13 45h-55v109h109l-1 -103q-1 -60 -17.5 -89.5t-64.5 -31.5
z" />
    <glyph glyph-name="rcommaaccent" unicode="&#x157;" horiz-adv-x="321" 
d="M57 578h107v-82q30 49 61.5 69t66.5 20q9 0 17 -1v-118q-32 12 -59 12q-26 0 -46.5 -12.5t-39.5 -43.5v-422h-107v578zM56 -234q30 2 43 17t13 45h-55v109h109l-1 -103q-1 -60 -17.5 -89.5t-64.5 -31.5z" />
    <glyph glyph-name="Rcaron" unicode="&#x158;" horiz-adv-x="519" 
d="M63 810h163q123 0 180.5 -50.5t57.5 -164.5q0 -156 -100 -189l115 -406h-109l-106 380h-88v-380h-113v810zM219 461q73 0 104.5 29t31.5 105q0 50 -11 78.5t-39 42t-79 13.5h-50v-268h43zM120 1042h82l58 -117l58 117h82l-88 -173h-105z" />
    <glyph glyph-name="rcaron" unicode="&#x159;" horiz-adv-x="321" 
d="M57 578h107v-82q30 49 61.5 69t66.5 20q9 0 17 -1v-118q-32 12 -59 12q-26 0 -46.5 -12.5t-39.5 -43.5v-422h-107v578zM44 810h82l58 -117l58 117h82l-88 -173h-105z" />
    <glyph glyph-name="Sacute" unicode="&#x15a;" horiz-adv-x="473" 
d="M98.5 54q-53.5 63 -59.5 173l100 27q5 -78 30.5 -126t84.5 -48q44 0 66.5 24.5t22.5 70.5q0 50 -21 83t-67 73l-136 120q-41 36 -59.5 77.5t-18.5 101.5q0 89 51 138t139 49q96 0 145 -51t59 -158l-96 -26q-5 71 -27.5 109.5t-80.5 38.5q-43 0 -66 -22.5t-23 -66.5
q0 -36 12 -60.5t41 -49.5l137 -120q53 -47 84.5 -102t31.5 -125q0 -89 -54 -141t-140 -52q-102 0 -155.5 63zM268 1056h107l-112 -198h-54z" />
    <glyph glyph-name="sacute" unicode="&#x15b;" horiz-adv-x="374" 
d="M74.5 36q-43.5 44 -49.5 118l89 27q8 -56 27.5 -83t55.5 -27q28 0 43.5 16.5t15.5 44.5q0 25 -11 45t-36 41l-99 85q-34 29 -52.5 61.5t-18.5 79.5q0 67 40 104.5t109 37.5q66 0 103.5 -42.5t43.5 -109.5l-72 -27q-7 49 -23 74.5t-48 25.5q-26 0 -41.5 -17t-15.5 -42
q0 -32 29 -58l102 -94q39 -36 60.5 -71t21.5 -85q0 -72 -43 -110t-117 -38q-70 0 -113.5 44zM218 824h107l-112 -198h-54z" />
    <glyph glyph-name="Scircumflex" unicode="&#x15c;" horiz-adv-x="473" 
d="M98.5 54q-53.5 63 -59.5 173l100 27q5 -78 30.5 -126t84.5 -48q44 0 66.5 24.5t22.5 70.5q0 50 -21 83t-67 73l-136 120q-41 36 -59.5 77.5t-18.5 101.5q0 89 51 138t139 49q96 0 145 -51t59 -158l-96 -26q-5 71 -27.5 109.5t-80.5 38.5q-43 0 -66 -22.5t-23 -66.5
q0 -36 12 -60.5t41 -49.5l137 -120q53 -47 84.5 -102t31.5 -125q0 -89 -54 -141t-140 -52q-102 0 -155.5 63zM182 1042h109l87 -175h-81l-61 121l-60 -121h-80z" />
    <glyph glyph-name="scircumflex" unicode="&#x15d;" horiz-adv-x="374" 
d="M74.5 36q-43.5 44 -49.5 118l89 27q8 -56 27.5 -83t55.5 -27q28 0 43.5 16.5t15.5 44.5q0 25 -11 45t-36 41l-99 85q-34 29 -52.5 61.5t-18.5 79.5q0 67 40 104.5t109 37.5q66 0 103.5 -42.5t43.5 -109.5l-72 -27q-7 49 -23 74.5t-48 25.5q-26 0 -41.5 -17t-15.5 -42
q0 -32 29 -58l102 -94q39 -36 60.5 -71t21.5 -85q0 -72 -43 -110t-117 -38q-70 0 -113.5 44zM132 810h109l87 -175h-81l-61 121l-60 -121h-80z" />
    <glyph glyph-name="Scedilla" unicode="&#x15e;" horiz-adv-x="473" 
d="M98.5 54q-53.5 63 -59.5 173l100 27q5 -78 30.5 -126t84.5 -48q44 0 66.5 24.5t22.5 70.5q0 50 -21 83t-67 73l-136 120q-41 36 -59.5 77.5t-18.5 101.5q0 89 51 138t139 49q96 0 145 -51t59 -158l-96 -26q-5 71 -27.5 109.5t-80.5 38.5q-43 0 -66 -22.5t-23 -66.5
q0 -36 12 -60.5t41 -49.5l137 -120q53 -47 84.5 -102t31.5 -125q0 -89 -54 -141t-140 -52q-102 0 -155.5 63zM183 -225v54q24 -7 51 -7t44 9.5t17 29.5q0 25 -20.5 37.5t-64.5 18.5v83h54v-56q50 0 80.5 -23.5t30.5 -62.5q0 -46 -34.5 -69.5t-90.5 -23.5q-29 0 -67 10z" />
    <glyph glyph-name="scedilla" unicode="&#x15f;" horiz-adv-x="374" 
d="M74.5 36q-43.5 44 -49.5 118l89 27q8 -56 27.5 -83t55.5 -27q28 0 43.5 16.5t15.5 44.5q0 25 -11 45t-36 41l-99 85q-34 29 -52.5 61.5t-18.5 79.5q0 67 40 104.5t109 37.5q66 0 103.5 -42.5t43.5 -109.5l-72 -27q-7 49 -23 74.5t-48 25.5q-26 0 -41.5 -17t-15.5 -42
q0 -32 29 -58l102 -94q39 -36 60.5 -71t21.5 -85q0 -72 -43 -110t-117 -38q-70 0 -113.5 44zM133 -225v54q24 -7 51 -7t44 9.5t17 29.5q0 25 -20.5 37.5t-64.5 18.5v83h54v-56q50 0 80.5 -23.5t30.5 -62.5q0 -46 -34.5 -69.5t-90.5 -23.5q-29 0 -67 10z" />
    <glyph glyph-name="Scaron" unicode="&#x160;" horiz-adv-x="473" 
d="M98.5 54q-53.5 63 -59.5 173l100 27q5 -78 30.5 -126t84.5 -48q44 0 66.5 24.5t22.5 70.5q0 50 -21 83t-67 73l-136 120q-41 36 -59.5 77.5t-18.5 101.5q0 89 51 138t139 49q96 0 145 -51t59 -158l-96 -26q-5 71 -27.5 109.5t-80.5 38.5q-43 0 -66 -22.5t-23 -66.5
q0 -36 12 -60.5t41 -49.5l137 -120q53 -47 84.5 -102t31.5 -125q0 -89 -54 -141t-140 -52q-102 0 -155.5 63zM97 1042h82l58 -117l58 117h82l-88 -173h-105z" />
    <glyph glyph-name="scaron" unicode="&#x161;" horiz-adv-x="374" 
d="M74.5 36q-43.5 44 -49.5 118l89 27q8 -56 27.5 -83t55.5 -27q28 0 43.5 16.5t15.5 44.5q0 25 -11 45t-36 41l-99 85q-34 29 -52.5 61.5t-18.5 79.5q0 67 40 104.5t109 37.5q66 0 103.5 -42.5t43.5 -109.5l-72 -27q-7 49 -23 74.5t-48 25.5q-26 0 -41.5 -17t-15.5 -42
q0 -32 29 -58l102 -94q39 -36 60.5 -71t21.5 -85q0 -72 -43 -110t-117 -38q-70 0 -113.5 44zM47 810h82l58 -117l58 117h82l-88 -173h-105z" />
    <glyph glyph-name="uni0162" unicode="&#x162;" horiz-adv-x="413" 
d="M152 726h-137v84h383v-84h-133v-726h-113v726zM152 -225v54q24 -7 51 -7t44 9.5t17 29.5q0 25 -20.5 37.5t-64.5 18.5v83h54v-56q50 0 80.5 -23.5t30.5 -62.5q0 -46 -34.5 -69.5t-90.5 -23.5q-29 0 -67 10z" />
    <glyph glyph-name="uni0163" unicode="&#x163;" horiz-adv-x="308" 
d="M83 130v377h-61v71h61v169h107v-169h93v-71h-93v-370q0 -35 11 -49t42 -14q20 0 39 3v-79q-40 -6 -74 -6q-125 0 -125 138zM154 -225v54q24 -7 51 -7t44 9.5t17 29.5q0 25 -20.5 37.5t-64.5 18.5v83h54v-56q50 0 80.5 -23.5t30.5 -62.5q0 -46 -34.5 -69.5t-90.5 -23.5
q-29 0 -67 10z" />
    <glyph glyph-name="Tcaron" unicode="&#x164;" horiz-adv-x="413" 
d="M152 726h-137v84h383v-84h-133v-726h-113v726zM66 1042h82l58 -117l58 117h82l-88 -173h-105z" />
    <glyph glyph-name="tcaron" unicode="&#x165;" horiz-adv-x="331" 
d="M83 130v377h-61v71h61v169h107v-169h93v-71h-93v-370q0 -35 11 -49t42 -14q20 0 39 3v-79q-40 -6 -74 -6q-125 0 -125 138zM232 665q27 9 42.5 31.5t15.5 53.5h-57v115h110v-113q0 -53 -23 -84.5t-71 -48.5z" />
    <glyph glyph-name="Tbar" unicode="&#x166;" horiz-adv-x="400" 
d="M265 726v-271h94v-64h-94v-391h-113v391h-111v64h111v271h-137v84h383v-84h-133z" />
    <glyph glyph-name="tbar" unicode="&#x167;" horiz-adv-x="244" 
d="M190 340v-203q0 -35 11 -49t42 -14q20 0 39 3v-79q-40 -6 -74 -6q-125 0 -125 138v210h-57v55h57v112h-61v71h61v169h107v-169h93v-71h-93v-112h100v-55h-100z" />
    <glyph glyph-name="Utilde" unicode="&#x168;" horiz-adv-x="543" 
d="M139.5 25q-47.5 34 -65.5 95t-18 153v537h108v-542q0 -92 21.5 -140t86.5 -48t86.5 48t21.5 140v542h107v-537q0 -92 -18 -153t-65 -95t-132 -34t-132.5 34zM311.5 939q-16.5 7 -37.5 20q-20 11 -32 16.5t-25 5.5q-18 0 -26 -9.5t-8 -31.5h-61q0 108 80 108
q17 0 32.5 -6.5t35.5 -18.5t32.5 -17.5t26.5 -5.5q18 0 25.5 9.5t7.5 32.5h60q0 -51 -16.5 -80.5t-57.5 -29.5q-20 0 -36.5 7z" />
    <glyph glyph-name="utilde" unicode="&#x169;" horiz-adv-x="440" 
d="M70 26q-20 34 -20 84v468h107v-436q0 -33 10 -49.5t36 -16.5q32 0 75 36v466h107v-578h-107v57q-69 -65 -141 -65q-47 0 -67 34zM259.5 707q-16.5 7 -37.5 20q-20 11 -32 16.5t-25 5.5q-18 0 -26 -9.5t-8 -31.5h-61q0 108 80 108q17 0 32.5 -6.5t35.5 -18.5t32.5 -17.5
t26.5 -5.5q18 0 25.5 9.5t7.5 32.5h60q0 -51 -16.5 -80.5t-57.5 -29.5q-20 0 -36.5 7z" />
    <glyph glyph-name="Umacron" unicode="&#x16a;" horiz-adv-x="543" 
d="M139.5 25q-47.5 34 -65.5 95t-18 153v537h108v-542q0 -92 21.5 -140t86.5 -48t86.5 48t21.5 140v542h107v-537q0 -92 -18 -153t-65 -95t-132 -34t-132.5 34zM176 982h192v-65h-192v65z" />
    <glyph glyph-name="umacron" unicode="&#x16b;" horiz-adv-x="440" 
d="M70 26q-20 34 -20 84v468h107v-436q0 -33 10 -49.5t36 -16.5q32 0 75 36v466h107v-578h-107v57q-69 -65 -141 -65q-47 0 -67 34zM124 750h192v-65h-192v65z" />
    <glyph glyph-name="Ubreve" unicode="&#x16c;" horiz-adv-x="543" 
d="M139.5 25q-47.5 34 -65.5 95t-18 153v537h108v-542q0 -92 21.5 -140t86.5 -48t86.5 48t21.5 140v542h107v-537q0 -92 -18 -153t-65 -95t-132 -34t-132.5 34zM172.5 910q-31.5 37 -31.5 99h62q1 -38 17 -56.5t52 -18.5q69 0 69 75h63q0 -62 -31.5 -99t-100.5 -37
q-68 0 -99.5 37z" />
    <glyph glyph-name="ubreve" unicode="&#x16d;" horiz-adv-x="440" 
d="M70 26q-20 34 -20 84v468h107v-436q0 -33 10 -49.5t36 -16.5q32 0 75 36v466h107v-578h-107v57q-69 -65 -141 -65q-47 0 -67 34zM120.5 678q-31.5 37 -31.5 99h62q1 -38 17 -56.5t52 -18.5q69 0 69 75h63q0 -62 -31.5 -99t-100.5 -37q-68 0 -99.5 37z" />
    <glyph glyph-name="Uring" unicode="&#x16e;" horiz-adv-x="543" 
d="M139.5 25q-47.5 34 -65.5 95t-18 153v537h108v-542q0 -92 21.5 -140t86.5 -48t86.5 48t21.5 140v542h107v-537q0 -92 -18 -153t-65 -95t-132 -34t-132.5 34zM191 858.5q-31 30.5 -31 81.5t30.5 81t81.5 30t81.5 -30t30.5 -81t-31 -81.5t-81 -30.5t-81 30.5zM314 897.5
q16 15.5 16 42.5t-15.5 42.5t-42.5 15.5t-42.5 -15t-15.5 -43q0 -27 15.5 -42.5t42.5 -15.5q26 0 42 15.5z" />
    <glyph glyph-name="uring" unicode="&#x16f;" horiz-adv-x="440" 
d="M70 26q-20 34 -20 84v468h107v-436q0 -33 10 -49.5t36 -16.5q32 0 75 36v466h107v-578h-107v57q-69 -65 -141 -65q-47 0 -67 34zM139 626.5q-31 30.5 -31 81.5t30.5 81t81.5 30t81.5 -30t30.5 -81t-31 -81.5t-81 -30.5t-81 30.5zM262 665.5q16 15.5 16 42.5t-15.5 42.5
t-42.5 15.5t-42.5 -15t-15.5 -43q0 -27 15.5 -42.5t42.5 -15.5q26 0 42 15.5z" />
    <glyph glyph-name="Uhungarumlaut" unicode="&#x170;" horiz-adv-x="543" 
d="M139.5 25q-47.5 34 -65.5 95t-18 153v537h108v-542q0 -92 21.5 -140t86.5 -48t86.5 48t21.5 140v542h107v-537q0 -92 -18 -153t-65 -95t-132 -34t-132.5 34zM225 1043h88l-73 -171h-54zM370 1043h108l-111 -171h-55z" />
    <glyph glyph-name="uhungarumlaut" unicode="&#x171;" horiz-adv-x="440" 
d="M70 26q-20 34 -20 84v468h107v-436q0 -33 10 -49.5t36 -16.5q32 0 75 36v466h107v-578h-107v57q-69 -65 -141 -65q-47 0 -67 34zM173 811h88l-73 -171h-54zM318 811h108l-111 -171h-55z" />
    <glyph glyph-name="Uogonek" unicode="&#x172;" horiz-adv-x="543" 
d="M139.5 25q-47.5 34 -65.5 95t-18 153v537h108v-542q0 -92 21.5 -140t86.5 -48t86.5 48t21.5 140v542h107v-537q0 -92 -18 -153t-65 -95t-132 -34t-132.5 34zM212 -213.5q-37 17.5 -37 68.5q0 31 16.5 61.5t42.5 53t52 30.5h54q-34 -29 -59 -63.5t-25 -65.5q0 -48 80 -48
q14 0 32 2l-18 -53q-17 -3 -36 -3q-65 0 -102 17.5z" />
    <glyph glyph-name="uogonek" unicode="&#x173;" horiz-adv-x="440" 
d="M70 26q-20 34 -20 84v468h107v-436q0 -33 10 -49.5t36 -16.5q32 0 75 36v466h107v-578h-107v57q-69 -65 -141 -65q-47 0 -67 34zM232 -213.5q-37 17.5 -37 68.5q0 31 16.5 61.5t42.5 53t52 30.5h54q-34 -29 -59 -63.5t-25 -65.5q0 -48 80 -48q14 0 32 2l-18 -53
q-17 -3 -36 -3q-65 0 -102 17.5z" />
    <glyph glyph-name="Wcircumflex" unicode="&#x174;" horiz-adv-x="729" 
d="M36 810h94l87 -582l109 579h80l110 -582l85 585h92l-130 -810h-82l-113 600l-114 -600h-86zM310 1042h109l87 -175h-81l-61 121l-60 -121h-80z" />
    <glyph glyph-name="wcircumflex" unicode="&#x175;" horiz-adv-x="588" 
d="M28 578h88l60 -426l77 426h82l77 -424l60 424h88l-96 -578h-90l-79 408l-78 -408h-96zM239 810h109l87 -175h-81l-61 121l-60 -121h-80z" />
    <glyph glyph-name="Ycircumflex" unicode="&#x176;" horiz-adv-x="481" 
d="M187 286l-175 524h105l124 -391l122 391h106l-174 -524v-286h-108v286zM186 1042h109l87 -175h-81l-61 121l-60 -121h-80z" />
    <glyph glyph-name="ycircumflex" unicode="&#x177;" horiz-adv-x="392" 
d="M45 -63q60 0 82.5 9t22.5 34q0 12 -22 106l-116 492h108l78 -432l75 432h108l-138 -610q-14 -61 -59 -87t-126 -26h-13v82zM141 810h109l87 -175h-81l-61 121l-60 -121h-80z" />
    <glyph glyph-name="Ydieresis" unicode="&#x178;" horiz-adv-x="481" 
d="M187 286l-175 524h105l124 -391l122 391h106l-174 -524v-286h-108v286zM101 1042h108v-111h-108v111zM273 1042h108v-111h-108v111z" />
    <glyph glyph-name="Zacute" unicode="&#x179;" horiz-adv-x="417" 
d="M38 81l238 648h-223v81h343v-49l-251 -680h251v-81h-358v81zM240 1056h107l-112 -198h-54z" />
    <glyph glyph-name="zacute" unicode="&#x17a;" horiz-adv-x="347" 
d="M32 72l177 426h-159v80h274v-58l-178 -439h174v-81h-288v72zM205 824h107l-112 -198h-54z" />
    <glyph glyph-name="Zdotaccent" unicode="&#x17b;" horiz-adv-x="417" 
d="M38 81l238 648h-223v81h343v-49l-251 -680h251v-81h-358v81zM155 1022h108v-119h-108v119z" />
    <glyph glyph-name="zdotaccent" unicode="&#x17c;" horiz-adv-x="347" 
d="M32 72l177 426h-159v80h274v-58l-178 -439h174v-81h-288v72zM120 790h108v-119h-108v119z" />
    <glyph glyph-name="Zcaron" unicode="&#x17d;" horiz-adv-x="417" 
d="M38 81l238 648h-223v81h343v-49l-251 -680h251v-81h-358v81zM69 1042h82l58 -117l58 117h82l-88 -173h-105z" />
    <glyph glyph-name="zcaron" unicode="&#x17e;" horiz-adv-x="347" 
d="M32 72l177 426h-159v80h274v-58l-178 -439h174v-81h-288v72zM34 810h82l58 -117l58 117h82l-88 -173h-105z" />
    <glyph glyph-name="longs" unicode="&#x17f;" horiz-adv-x="287" 
d="M88 499h-69v79h69v30q0 60 9 96.5t36.5 56.5t79.5 20q35 0 70 -7v-78q-20 5 -40 5q-29 0 -38.5 -18.5t-9.5 -56.5v-626h-107v499z" />
    <glyph glyph-name="uni018F" unicode="&#x18f;" horiz-adv-x="535" 
d="M95.5 58.5q-51.5 67.5 -51.5 195.5v167h329v163q0 75 -21.5 110t-85.5 35t-86 -35.5t-22 -109.5v-70h-114v47q0 126 51 191t171 65q118 0 169.5 -65.5t51.5 -190.5v-308q0 -126 -52 -194t-169 -68q-119 0 -170.5 67.5zM351 117q22 37 22 112v103h-215v-103q0 -75 22 -112
t86 -37q63 0 85 37z" />
    <glyph glyph-name="florin" unicode="&#x192;" horiz-adv-x="380" 
d="M-1 -113l8 79q28 -5 39 -5q29 0 40.5 18.5t16.5 56.5l48 463h-66v79h75l4 36q5 57 18.5 92.5t43 55t81.5 19.5q23 0 68 -5l-8 -80q-8 1 -20 3t-18 2q-29 0 -41.5 -18.5t-16.5 -56.5l-4 -48h76v-79h-85l-48 -451q-6 -58 -19 -93.5t-42.5 -54.5t-81.5 -19q-28 0 -68 6z" />
    <glyph glyph-name="Ohorn" unicode="&#x1a0;" horiz-adv-x="539" 
d="M99.5 58.5q-51.5 67.5 -51.5 195.5v307q0 126 52 191t170 65t169.5 -65.5t51.5 -190.5v-308q0 -126 -52 -194t-169 -68q-119 0 -170.5 67.5zM355 117q22 37 22 112v355q0 74 -22 109.5t-85 35.5q-64 0 -86 -35.5t-22 -109.5v-355q0 -75 22 -112t86 -37q63 0 85 37z
M314 810h20q29 0 41.5 18t12.5 56h83q0 -65 -34.5 -97.5t-100.5 -32.5h-22v56z" />
    <glyph glyph-name="ohorn" unicode="&#x1a1;" horiz-adv-x="425" 
d="M82.5 46.5q-38.5 54.5 -38.5 158.5v168q0 104 38.5 158.5t130.5 54.5q91 0 129.5 -54.5t38.5 -158.5v-168q0 -104 -38.5 -158.5t-129.5 -54.5q-92 0 -130.5 54.5zM255 88q13 17 16 42t3 68v181q0 43 -3 68.5t-16 42.5t-42 17t-42.5 -17t-16.5 -42.5t-3 -68.5v-181
q0 -43 3 -68t16.5 -42t42.5 -17t42 17zM234 578h10q29 0 41.5 18t12.5 56h83q0 -65 -34.5 -97.5t-100.5 -32.5h-12v56z" />
    <glyph glyph-name="Uhorn" unicode="&#x1af;" horiz-adv-x="543" 
d="M139.5 25q-47.5 34 -65.5 95t-18 153v537h108v-542q0 -92 21.5 -140t86.5 -48t86.5 48t21.5 140v542h107v-537q0 -92 -18 -153t-65 -95t-132 -34t-132.5 34zM412 810h10q29 0 41.5 18t12.5 56h83q0 -65 -34.5 -97.5t-100.5 -32.5h-12v56z" />
    <glyph glyph-name="uhorn" unicode="&#x1b0;" horiz-adv-x="440" 
d="M70 26q-20 34 -20 84v468h107v-436q0 -33 10 -49.5t36 -16.5q32 0 75 36v466h107v-578h-107v57q-69 -65 -141 -65q-47 0 -67 34zM293 578h10q29 0 41.5 18t12.5 56h83q0 -65 -34.5 -97.5t-100.5 -32.5h-12v56z" />
    <glyph glyph-name="uni01B7" unicode="&#x1b7;" horiz-adv-x="456" 
d="M382 429q46 -68 46 -200q0 -113 -48.5 -175.5t-151.5 -62.5q-97 0 -147.5 54.5t-50.5 153.5v27h106v-18q0 -61 20 -94.5t72 -33.5q54 0 73.5 37.5t19.5 111.5q0 108 -33 156t-118 48h-85v66l171 230h-209v81h345v-49l-189 -264h19q114 0 160 -68z" />
    <glyph glyph-name="uni01C4" unicode="&#x1c4;" horiz-adv-x="944" 
d="M63 810h176q131 0 185.5 -60t54.5 -187v-298q0 -134 -53.5 -199.5t-177.5 -65.5h-185v810zM240 81q59 0 85.5 23t33 62.5t6.5 119.5v263q0 69 -8.5 105.5t-35.5 54t-84 17.5h-61v-645h64zM565 81l238 648h-223v81h343v-49l-251 -680h251v-81h-358v81zM596 1042h82
l58 -117l58 117h82l-88 -173h-105z" />
    <glyph glyph-name="uni01C5" unicode="&#x1c5;" horiz-adv-x="874" 
d="M63 810h176q131 0 185.5 -60t54.5 -187v-298q0 -134 -53.5 -199.5t-177.5 -65.5h-185v810zM240 81q59 0 85.5 23t33 62.5t6.5 119.5v263q0 69 -8.5 105.5t-35.5 54t-84 17.5h-61v-645h64zM559 72l177 426h-159v80h274v-58l-178 -439h174v-81h-288v72zM561 810h82l58 -117
l58 117h82l-88 -173h-105z" />
    <glyph glyph-name="uni01C6" unicode="&#x1c6;" horiz-adv-x="789" 
d="M78 46.5q-35 54.5 -35 180.5v112q0 115 30.5 181t111.5 66q51 0 96 -45v269h107v-810h-107v37q-42 -45 -93 -45q-75 0 -110 54.5zM281 98v379q-37 25 -68 25q-63 0 -63 -121v-163q0 -70 13 -106t52 -36q32 0 66 22zM474 72l177 426h-159v80h274v-58l-178 -439h174v-81
h-288v72zM476 810h82l58 -117l58 117h82l-88 -173h-105z" />
    <glyph glyph-name="uni01C7" unicode="&#x1c7;" horiz-adv-x="698" 
d="M63 810h113v-729h207v-81h-320v810zM404 62q51 0 75.5 9.5t33.5 35t9 78.5v625h112v-627q0 -73 -15 -116.5t-53.5 -64.5t-107.5 -21h-54v81z" />
    <glyph glyph-name="uni01C8" unicode="&#x1c8;" horiz-adv-x="627" 
d="M63 810h113v-729h207v-81h-320v810zM466 776h108v-112h-108v112zM378 -139v77q21 -3 28 -3q33 0 46.5 18.5t13.5 51.5v573h107v-584q0 -68 -37 -104t-103 -36q-39 0 -55 7z" />
    <glyph glyph-name="uni01C9" unicode="&#x1c9;" horiz-adv-x="459" 
d="M64 810h107v-810h-107v810zM298 776h108v-112h-108v112zM210 -139v77q21 -3 28 -3q33 0 46.5 18.5t13.5 51.5v573h107v-584q0 -68 -37 -104t-103 -36q-39 0 -55 7z" />
    <glyph glyph-name="uni01CA" unicode="&#x1ca;" horiz-adv-x="829" 
d="M63 810h77l230 -538v538h94v-810h-72l-233 553v-553h-96v810zM535 62q51 0 75.5 9.5t33.5 35t9 78.5v625h112v-627q0 -73 -15 -116.5t-53.5 -64.5t-107.5 -21h-54v81z" />
    <glyph glyph-name="uni01CB" unicode="&#x1cb;" horiz-adv-x="758" 
d="M63 810h77l230 -538v538h94v-810h-72l-233 553v-553h-96v810zM597 776h108v-112h-108v112zM509 -139v77q21 -3 28 -3q33 0 46.5 18.5t13.5 51.5v573h107v-584q0 -68 -37 -104t-103 -36q-39 0 -55 7z" />
    <glyph glyph-name="uni01CC" unicode="&#x1cc;" horiz-adv-x="669" 
d="M54 578h107v-57q69 65 141 65q47 0 67 -34t20 -84v-468h-107v437q0 33 -10 49t-36 16q-32 0 -75 -36v-466h-107v578zM508 776h108v-112h-108v112zM420 -139v77q21 -3 28 -3q33 0 46.5 18.5t13.5 51.5v573h107v-584q0 -68 -37 -104t-103 -36q-39 0 -55 7z" />
    <glyph glyph-name="uni01CD" unicode="&#x1cd;" horiz-adv-x="492" 
d="M191 810h109l173 -810h-107l-37 204h-165l-39 -204h-106zM314 285l-68 365l-67 -365h135zM106 1042h82l58 -117l58 117h82l-88 -173h-105z" />
    <glyph glyph-name="uni01CE" unicode="&#x1ce;" horiz-adv-x="426" 
d="M98.5 11q-26.5 19 -41.5 50t-15 65q0 68 29 110.5t74 67.5t125 57v41q0 57 -11.5 80.5t-46.5 23.5q-61 0 -61 -82v-29l-106 4q2 96 44 141.5t130 45.5q83 0 120.5 -45.5t37.5 -137.5v-264q0 -65 10 -139h-98q-11 57 -14 85q-12 -39 -41.5 -66t-75.5 -27q-33 0 -59.5 19z
M241 100.5q20 16.5 29 31.5v164q-43 -24 -66.5 -41.5t-39 -40.5t-15.5 -55q0 -36 13 -55.5t38 -19.5q21 0 41 16.5zM79 810h82l58 -117l58 117h82l-88 -173h-105z" />
    <glyph glyph-name="uni01D3" unicode="&#x1d3;" horiz-adv-x="543" 
d="M139.5 25q-47.5 34 -65.5 95t-18 153v537h108v-542q0 -92 21.5 -140t86.5 -48t86.5 48t21.5 140v542h107v-537q0 -92 -18 -153t-65 -95t-132 -34t-132.5 34zM132 1042h82l58 -117l58 117h82l-88 -173h-105z" />
    <glyph glyph-name="uni01D4" unicode="&#x1d4;" horiz-adv-x="440" 
d="M70 26q-20 34 -20 84v468h107v-436q0 -33 10 -49.5t36 -16.5q32 0 75 36v466h107v-578h-107v57q-69 -65 -141 -65q-47 0 -67 34zM80 810h82l58 -117l58 117h82l-88 -173h-105z" />
    <glyph glyph-name="uni01E4" unicode="&#x1e4;" horiz-adv-x="535" 
d="M537 208h-55v-208h-71l-11 93q-38 -103 -144 -103q-110 0 -159 69.5t-49 206.5v271q0 94 19.5 154.5t67 93t130.5 32.5q112 0 161.5 -57t49.5 -179v-30h-106v25q0 58 -7 89.5t-29.5 47.5t-66.5 16q-47 0 -70 -21.5t-29.5 -57.5t-6.5 -96v-300q0 -93 22.5 -133.5
t86.5 -40.5q53 0 78 31t30 97h-64v65h66v48h-103v80h205v-128h55v-65z" />
    <glyph glyph-name="uni01E5" unicode="&#x1e5;" horiz-adv-x="435" 
d="M365 72q33 -29 39 -83h36v-51h-37q-18 -117 -199 -117q-84 0 -134 26.5t-50 82.5v8h-35v51h53q22 31 65 52q-27 8 -41.5 25t-14.5 37q0 30 15 52t49 53q-34 26 -50.5 65.5t-16.5 106.5q0 101 41.5 153.5t121.5 52.5q46 0 75 -16t44 -48q7 11 29.5 29.5t48.5 30.5l16 7
l27 -69q-20 -4 -55.5 -17t-42.5 -20q7 -18 12.5 -50t5.5 -56q0 -95 -37 -147.5t-123 -52.5q-27 0 -55 7q-19 -28 -19 -44q0 -11 11.5 -17.5t36.5 -8.5l90 -8q61 -5 94 -34zM151.5 480.5q-14.5 -31.5 -14.5 -100.5q0 -62 14.5 -95t55.5 -33q43 0 56 30t13 98q0 69 -13 100.5
t-55 31.5t-56.5 -31.5zM119 -11h199q-7 14 -24.5 21.5t-49.5 10.5l-91 8q-26 -26 -34 -40zM317 -62h-204q7 -17 30 -25t69 -8q88 0 105 33z" />
    <glyph glyph-name="Gcaron" unicode="&#x1e6;" horiz-adv-x="535" 
d="M97 59.5q-49 69.5 -49 206.5v271q0 94 19.5 154.5t67 93t130.5 32.5q112 0 161.5 -57t49.5 -179v-30h-106v25q0 58 -7 89.5t-29.5 47.5t-66.5 16q-47 0 -70 -21.5t-29.5 -57.5t-6.5 -96v-300q0 -93 22.5 -133.5t86.5 -40.5q63 0 86.5 44t23.5 141v56h-103v80h205v-401
h-71l-11 93q-38 -103 -144 -103q-110 0 -159 69.5zM128 1042h82l58 -117l58 117h82l-88 -173h-105z" />
    <glyph glyph-name="gcaron" unicode="&#x1e7;" horiz-adv-x="435" 
d="M70 -152.5q-50 26.5 -50 82.5q0 38 23.5 66t59.5 45q-27 8 -41.5 25t-14.5 37q0 30 15 52t49 53q-34 26 -50.5 65.5t-16.5 106.5q0 101 41.5 153.5t121.5 52.5q46 0 75 -16t44 -48q7 11 29.5 29.5t48.5 30.5l16 7l27 -69q-20 -4 -55.5 -17t-42.5 -20q7 -18 12.5 -50
t5.5 -56q0 -95 -37 -147.5t-123 -52.5q-27 0 -55 7q-19 -28 -19 -44q0 -11 11.5 -17.5t36.5 -8.5l90 -8q68 -6 101 -41t33 -100q0 -144 -201 -144q-84 0 -134 26.5zM263 282q13 30 13 98q0 69 -13 100.5t-55 31.5t-56.5 -31.5t-14.5 -100.5q0 -62 14.5 -95t55.5 -33
q43 0 56 30zM296 -81.5q27 13.5 27 43.5q0 28 -17 41.5t-62 17.5l-91 8q-21 -21 -32 -37t-11 -35q0 -27 22.5 -39.5t79.5 -12.5t84 13.5zM78 810h82l58 -117l58 117h82l-88 -173h-105z" />
    <glyph glyph-name="uni01E8" unicode="&#x1e8;" horiz-adv-x="495" 
d="M63 810h113v-382l186 382h105l-160 -357l186 -453h-110l-155 380l-52 -94v-286h-113v810zM108 1042h82l58 -117l58 117h82l-88 -173h-105z" />
    <glyph glyph-name="uni01E9" unicode="&#x1e9;" horiz-adv-x="429" 
d="M56 811h107v-483l156 250h112l-136 -226l132 -352h-107l-108 296l-49 -74v-221h-107v810zM144 991h82l58 -117l58 117h82l-88 -173h-105z" />
    <glyph glyph-name="uni01EA" unicode="&#x1ea;" horiz-adv-x="539" 
d="M99.5 58.5q-51.5 67.5 -51.5 195.5v307q0 126 52 191t170 65t169.5 -65.5t51.5 -190.5v-308q0 -126 -52 -194t-169 -68q-119 0 -170.5 67.5zM355 117q22 37 22 112v355q0 74 -22 109.5t-85 35.5q-64 0 -86 -35.5t-22 -109.5v-355q0 -75 22 -112t86 -37q63 0 85 37z
M210 -213.5q-37 17.5 -37 68.5q0 31 16.5 61.5t42.5 53t52 30.5h54q-34 -29 -59 -63.5t-25 -65.5q0 -48 80 -48q14 0 32 2l-18 -53q-17 -3 -36 -3q-65 0 -102 17.5z" />
    <glyph glyph-name="uni01EB" unicode="&#x1eb;" horiz-adv-x="425" 
d="M82.5 46.5q-38.5 54.5 -38.5 158.5v168q0 104 38.5 158.5t130.5 54.5q91 0 129.5 -54.5t38.5 -158.5v-168q0 -104 -38.5 -158.5t-129.5 -54.5q-92 0 -130.5 54.5zM255 88q13 17 16 42t3 68v181q0 43 -3 68.5t-16 42.5t-42 17t-42.5 -17t-16.5 -42.5t-3 -68.5v-181
q0 -43 3 -68t16.5 -42t42.5 -17t42 17zM163 -205.5q-37 17.5 -37 68.5q0 31 16.5 61.5t42.5 53t52 30.5h54q-34 -29 -59 -63.5t-25 -65.5q0 -48 80 -48q14 0 32 2l-18 -53q-17 -3 -36 -3q-65 0 -102 17.5z" />
    <glyph glyph-name="uni01EE" unicode="&#x1ee;" horiz-adv-x="456" 
d="M382 429q46 -68 46 -200q0 -113 -48.5 -175.5t-151.5 -62.5q-97 0 -147.5 54.5t-50.5 153.5v27h106v-18q0 -61 20 -94.5t72 -33.5q54 0 73.5 37.5t19.5 111.5q0 108 -33 156t-118 48h-85v66l171 230h-209v81h345v-49l-189 -264h19q114 0 160 -68zM88 1042h82l58 -117
l58 117h82l-88 -173h-105z" />
    <glyph glyph-name="uni01EF" unicode="&#x1ef;" horiz-adv-x="458" 
d="M428 42q0 -113 -48.5 -175.5t-151.5 -62.5q-97 0 -147.5 54.5t-50.5 153.5v27h106v-18q0 -61 20 -94.5t72 -33.5q54 0 73.5 37.5t19.5 111.5q0 91 -26.5 134t-96.5 43h-101v69l159 210h-194v80h323v-58l-166 -229h9q200 0 200 -249zM89 810h82l58 -117l58 117h82
l-88 -173h-105z" />
    <glyph glyph-name="uni01F1" unicode="&#x1f1;" horiz-adv-x="944" 
d="M63 810h176q131 0 185.5 -60t54.5 -187v-298q0 -134 -53.5 -199.5t-177.5 -65.5h-185v810zM240 81q59 0 85.5 23t33 62.5t6.5 119.5v263q0 69 -8.5 105.5t-35.5 54t-84 17.5h-61v-645h64zM565 81l238 648h-223v81h343v-49l-251 -680h251v-81h-358v81z" />
    <glyph glyph-name="uni01F2" unicode="&#x1f2;" horiz-adv-x="874" 
d="M63 810h176q131 0 185.5 -60t54.5 -187v-298q0 -134 -53.5 -199.5t-177.5 -65.5h-185v810zM240 81q59 0 85.5 23t33 62.5t6.5 119.5v263q0 69 -8.5 105.5t-35.5 54t-84 17.5h-61v-645h64zM559 72l177 426h-159v80h274v-58l-178 -439h174v-81h-288v72z" />
    <glyph glyph-name="uni01F3" unicode="&#x1f3;" horiz-adv-x="789" 
d="M78 46.5q-35 54.5 -35 180.5v112q0 115 30.5 181t111.5 66q51 0 96 -45v269h107v-810h-107v37q-42 -45 -93 -45q-75 0 -110 54.5zM281 98v379q-37 25 -68 25q-63 0 -63 -121v-163q0 -70 13 -106t52 -36q32 0 66 22zM474 72l177 426h-159v80h274v-58l-178 -439h174v-81
h-288v72z" />
    <glyph glyph-name="uni01F4" unicode="&#x1f4;" horiz-adv-x="535" 
d="M97 59.5q-49 69.5 -49 206.5v271q0 94 19.5 154.5t67 93t130.5 32.5q112 0 161.5 -57t49.5 -179v-30h-106v25q0 58 -7 89.5t-29.5 47.5t-66.5 16q-47 0 -70 -21.5t-29.5 -57.5t-6.5 -96v-300q0 -93 22.5 -133.5t86.5 -40.5q63 0 86.5 44t23.5 141v56h-103v80h205v-401
h-71l-11 93q-38 -103 -144 -103q-110 0 -159 69.5zM299 1056h107l-112 -198h-54z" />
    <glyph glyph-name="uni01F5" unicode="&#x1f5;" horiz-adv-x="435" 
d="M70 -152.5q-50 26.5 -50 82.5q0 38 23.5 66t59.5 45q-27 8 -41.5 25t-14.5 37q0 30 15 52t49 53q-34 26 -50.5 65.5t-16.5 106.5q0 101 41.5 153.5t121.5 52.5q46 0 75 -16t44 -48q7 11 29.5 29.5t48.5 30.5l16 7l27 -69q-20 -4 -55.5 -17t-42.5 -20q7 -18 12.5 -50
t5.5 -56q0 -95 -37 -147.5t-123 -52.5q-27 0 -55 7q-19 -28 -19 -44q0 -11 11.5 -17.5t36.5 -8.5l90 -8q68 -6 101 -41t33 -100q0 -144 -201 -144q-84 0 -134 26.5zM263 282q13 30 13 98q0 69 -13 100.5t-55 31.5t-56.5 -31.5t-14.5 -100.5q0 -62 14.5 -95t55.5 -33
q43 0 56 30zM296 -81.5q27 13.5 27 43.5q0 28 -17 41.5t-62 17.5l-91 8q-21 -21 -32 -37t-11 -35q0 -27 22.5 -39.5t79.5 -12.5t84 13.5zM249 824h107l-112 -198h-54z" />
    <glyph glyph-name="Aringacute" unicode="&#x1fa;" horiz-adv-x="492" 
d="M191 810h109l173 -810h-107l-37 204h-165l-39 -204h-106zM314 285l-68 365l-67 -365h135zM165 858.5q-31 30.5 -31 81.5t30.5 81t81.5 30t81.5 -30t30.5 -81t-31 -81.5t-81 -30.5t-81 30.5zM288 897.5q16 15.5 16 42.5t-15.5 42.5t-42.5 15.5t-42.5 -15t-15.5 -43
q0 -27 15.5 -42.5t42.5 -15.5q26 0 42 15.5zM277 1297h107l-112 -198h-54z" />
    <glyph glyph-name="aringacute" unicode="&#x1fb;" horiz-adv-x="426" 
d="M98.5 11q-26.5 19 -41.5 50t-15 65q0 68 29 110.5t74 67.5t125 57v41q0 57 -11.5 80.5t-46.5 23.5q-61 0 -61 -82v-29l-106 4q2 96 44 141.5t130 45.5q83 0 120.5 -45.5t37.5 -137.5v-264q0 -65 10 -139h-98q-11 57 -14 85q-12 -39 -41.5 -66t-75.5 -27q-33 0 -59.5 19z
M241 100.5q20 16.5 29 31.5v164q-43 -24 -66.5 -41.5t-39 -40.5t-15.5 -55q0 -36 13 -55.5t38 -19.5q21 0 41 16.5zM138 626.5q-31 30.5 -31 81.5t30.5 81t81.5 30t81.5 -30t30.5 -81t-31 -81.5t-81 -30.5t-81 30.5zM261 665.5q16 15.5 16 42.5t-15.5 42.5t-42.5 15.5
t-42.5 -15t-15.5 -43q0 -27 15.5 -42.5t42.5 -15.5q26 0 42 15.5zM250 1065h107l-112 -198h-54z" />
    <glyph glyph-name="AEacute" unicode="&#x1fc;" horiz-adv-x="635" 
d="M290 810h315v-82h-205v-268h147v-81h-147v-297h205v-82h-313v205h-149l-86 -205h-108zM292 286v319l-119 -319h119zM377 1056h107l-112 -198h-54z" />
    <glyph glyph-name="aeacute" unicode="&#x1fd;" horiz-adv-x="651" 
d="M608 201v-24q0 -89 -38 -137t-116 -48q-66 0 -98.5 30.5t-41.5 86.5q-28 -117 -134 -117q-68 0 -103 37t-35 97q0 75 39 117t115 63l78 21v75q0 51 -13 76.5t-48 25.5q-63 0 -63 -95h-106q1 82 45.5 129.5t123.5 47.5q42 0 71 -20.5t42 -54.5q15 34 51.5 54.5t84.5 20.5
q70 0 105.5 -35.5t35.5 -97.5q0 -53 -20.5 -84t-52 -46.5t-78.5 -25.5l-71 -15v-127q0 -36 13 -57t46 -21q34 0 47.5 26t13.5 73v25h107zM381 340l55 13q37 9 53 27t16 56q0 28 -14 45.5t-45 17.5q-36 0 -50.5 -26.5t-14.5 -75.5v-57zM274 265l-46 -15q-79 -26 -79 -101
q0 -34 14.5 -54t43.5 -20q67 0 67 96v94zM356 824h107l-112 -198h-54z" />
    <glyph glyph-name="Oslashacute" unicode="&#x1fe;" horiz-adv-x="540" 
d="M491 561v-308q0 -126 -52 -194t-169 -68q-53 0 -89 13l-21 -78l-39 12l22 83q-50 30 -72.5 88.5t-22.5 144.5v307q0 126 52 191t170 65q45 0 83 -11l20 74l40 -10l-21 -79q99 -54 99 -230zM174 137l155 580q-22 12 -59 12q-64 0 -86 -35.5t-22 -109.5v-355q0 -60 12 -92z
M377 584q0 67 -15 97l-156 -585q24 -16 64 -16q63 0 85 37t22 112v355zM301 1056h107l-112 -198h-54z" />
    <glyph glyph-name="oslashacute" unicode="&#x1ff;" horiz-adv-x="424" 
d="M368.5 477.5q12.5 -43.5 12.5 -104.5v-168q0 -104 -38.5 -158.5t-129.5 -54.5q-47 0 -80 15l-37 -102l-32 11l39 109q-59 49 -59 180v168q0 104 38.5 158.5t130.5 54.5q47 0 82 -16l35 98l37 -12l-39 -108q28 -27 40.5 -70.5zM151 163l112 314q-14 30 -50 30
q-29 0 -42.5 -17t-16.5 -42.5t-3 -68.5v-181v-35zM274 379v19l-109 -302q15 -25 48 -25q29 0 42 17t16 42t3 68v181zM243 824h107l-112 -198h-54z" />
    <glyph glyph-name="uni0200" unicode="&#x200;" horiz-adv-x="492" 
d="M191 810h109l173 -810h-107l-37 204h-165l-39 -204h-106zM314 285l-68 365l-67 -365h135zM49 1042h108l58 -170h-54zM215 1042h88l40 -170h-54z" />
    <glyph glyph-name="uni0201" unicode="&#x201;" horiz-adv-x="426" 
d="M98.5 11q-26.5 19 -41.5 50t-15 65q0 68 29 110.5t74 67.5t125 57v41q0 57 -11.5 80.5t-46.5 23.5q-61 0 -61 -82v-29l-106 4q2 96 44 141.5t130 45.5q83 0 120.5 -45.5t37.5 -137.5v-264q0 -65 10 -139h-98q-11 57 -14 85q-12 -39 -41.5 -66t-75.5 -27q-33 0 -59.5 19z
M241 100.5q20 16.5 29 31.5v164q-43 -24 -66.5 -41.5t-39 -40.5t-15.5 -55q0 -36 13 -55.5t38 -19.5q21 0 41 16.5zM22 810h108l58 -170h-54zM188 810h88l40 -170h-54z" />
    <glyph glyph-name="uni0202" unicode="&#x202;" horiz-adv-x="492" 
d="M191 810h109l173 -810h-107l-37 204h-165l-39 -204h-106zM314 285l-68 365l-67 -365h135zM143.5 1003q28.5 39 102.5 39t103 -39.5t29 -109.5h-63q0 48 -15.5 68t-53.5 20q-37 0 -52.5 -20.5t-16.5 -67.5h-63q1 71 29.5 110z" />
    <glyph glyph-name="uni0203" unicode="&#x203;" horiz-adv-x="426" 
d="M98.5 11q-26.5 19 -41.5 50t-15 65q0 68 29 110.5t74 67.5t125 57v41q0 57 -11.5 80.5t-46.5 23.5q-61 0 -61 -82v-29l-106 4q2 96 44 141.5t130 45.5q83 0 120.5 -45.5t37.5 -137.5v-264q0 -65 10 -139h-98q-11 57 -14 85q-12 -39 -41.5 -66t-75.5 -27q-33 0 -59.5 19z
M241 100.5q20 16.5 29 31.5v164q-43 -24 -66.5 -41.5t-39 -40.5t-15.5 -55q0 -36 13 -55.5t38 -19.5q21 0 41 16.5zM116.5 771q28.5 39 102.5 39t103 -39.5t29 -109.5h-63q0 48 -15.5 68t-53.5 20q-37 0 -52.5 -20.5t-16.5 -67.5h-63q1 71 29.5 110z" />
    <glyph glyph-name="uni0204" unicode="&#x204;" horiz-adv-x="407" 
d="M63 810h314v-84h-201v-268h163v-80h-163v-297h203v-81h-316v810zM27 1042h108l58 -170h-54zM193 1042h88l40 -170h-54z" />
    <glyph glyph-name="uni0205" unicode="&#x205;" horiz-adv-x="421" 
d="M110 17.5q-37 25.5 -52 75.5t-15 130v132q0 120 37.5 175.5t133.5 55.5q70 0 105.5 -29t47 -81.5t11.5 -141.5v-47h-228v-116q0 -53 15.5 -76.5t49.5 -23.5t46 23.5t12 71.5v35h104v-22q0 -91 -39 -139t-124 -48q-67 0 -104 25.5zM273 345v52q0 59 -11.5 84.5t-48.5 25.5
q-26 0 -39.5 -12t-18.5 -39.5t-5 -79.5v-31h123zM14 810h108l58 -170h-54zM180 810h88l40 -170h-54z" />
    <glyph glyph-name="uni0206" unicode="&#x206;" horiz-adv-x="407" 
d="M63 810h314v-84h-201v-268h163v-80h-163v-297h203v-81h-316v810zM121.5 1003q28.5 39 102.5 39t103 -39.5t29 -109.5h-63q0 48 -15.5 68t-53.5 20q-37 0 -52.5 -20.5t-16.5 -67.5h-63q1 71 29.5 110z" />
    <glyph glyph-name="uni0207" unicode="&#x207;" horiz-adv-x="421" 
d="M110 17.5q-37 25.5 -52 75.5t-15 130v132q0 120 37.5 175.5t133.5 55.5q70 0 105.5 -29t47 -81.5t11.5 -141.5v-47h-228v-116q0 -53 15.5 -76.5t49.5 -23.5t46 23.5t12 71.5v35h104v-22q0 -91 -39 -139t-124 -48q-67 0 -104 25.5zM273 345v52q0 59 -11.5 84.5t-48.5 25.5
q-26 0 -39.5 -12t-18.5 -39.5t-5 -79.5v-31h123zM108.5 771q28.5 39 102.5 39t103 -39.5t29 -109.5h-63q0 48 -15.5 68t-53.5 20q-37 0 -52.5 -20.5t-16.5 -67.5h-63q1 71 29.5 110z" />
    <glyph glyph-name="uni0208" unicode="&#x208;" horiz-adv-x="248" 
d="M69 810h111v-810h-111v810zM-73 1042h108l58 -170h-54zM93 1042h88l40 -170h-54z" />
    <glyph glyph-name="uni0209" unicode="&#x209;" horiz-adv-x="224" 
d="M61 578h107v-578h-107v578zM-82 810h108l58 -170h-54zM84 810h88l40 -170h-54z" />
    <glyph glyph-name="uni020A" unicode="&#x20a;" horiz-adv-x="248" 
d="M69 810h111v-810h-111v810zM21.5 1003q28.5 39 102.5 39t103 -39.5t29 -109.5h-63q0 48 -15.5 68t-53.5 20q-37 0 -52.5 -20.5t-16.5 -67.5h-63q1 71 29.5 110z" />
    <glyph glyph-name="uni020B" unicode="&#x20b;" horiz-adv-x="224" 
d="M61 578h107v-578h-107v578zM12.5 771q28.5 39 102.5 39t103 -39.5t29 -109.5h-63q0 48 -15.5 68t-53.5 20q-37 0 -52.5 -20.5t-16.5 -67.5h-63q1 71 29.5 110z" />
    <glyph glyph-name="uni020C" unicode="&#x20c;" horiz-adv-x="539" 
d="M99.5 58.5q-51.5 67.5 -51.5 195.5v307q0 126 52 191t170 65t169.5 -65.5t51.5 -190.5v-308q0 -126 -52 -194t-169 -68q-119 0 -170.5 67.5zM355 117q22 37 22 112v355q0 74 -22 109.5t-85 35.5q-64 0 -86 -35.5t-22 -109.5v-355q0 -75 22 -112t86 -37q63 0 85 37z
M73 1042h108l58 -170h-54zM239 1042h88l40 -170h-54z" />
    <glyph glyph-name="uni020D" unicode="&#x20d;" horiz-adv-x="425" 
d="M82.5 46.5q-38.5 54.5 -38.5 158.5v168q0 104 38.5 158.5t130.5 54.5q91 0 129.5 -54.5t38.5 -158.5v-168q0 -104 -38.5 -158.5t-129.5 -54.5q-92 0 -130.5 54.5zM255 88q13 17 16 42t3 68v181q0 43 -3 68.5t-16 42.5t-42 17t-42.5 -17t-16.5 -42.5t-3 -68.5v-181
q0 -43 3 -68t16.5 -42t42.5 -17t42 17zM16 810h108l58 -170h-54zM182 810h88l40 -170h-54z" />
    <glyph glyph-name="uni020E" unicode="&#x20e;" horiz-adv-x="539" 
d="M99.5 58.5q-51.5 67.5 -51.5 195.5v307q0 126 52 191t170 65t169.5 -65.5t51.5 -190.5v-308q0 -126 -52 -194t-169 -68q-119 0 -170.5 67.5zM355 117q22 37 22 112v355q0 74 -22 109.5t-85 35.5q-64 0 -86 -35.5t-22 -109.5v-355q0 -75 22 -112t86 -37q63 0 85 37z
M167.5 1003q28.5 39 102.5 39t103 -39.5t29 -109.5h-63q0 48 -15.5 68t-53.5 20q-37 0 -52.5 -20.5t-16.5 -67.5h-63q1 71 29.5 110z" />
    <glyph glyph-name="uni020F" unicode="&#x20f;" horiz-adv-x="425" 
d="M82.5 46.5q-38.5 54.5 -38.5 158.5v168q0 104 38.5 158.5t130.5 54.5q91 0 129.5 -54.5t38.5 -158.5v-168q0 -104 -38.5 -158.5t-129.5 -54.5q-92 0 -130.5 54.5zM255 88q13 17 16 42t3 68v181q0 43 -3 68.5t-16 42.5t-42 17t-42.5 -17t-16.5 -42.5t-3 -68.5v-181
q0 -43 3 -68t16.5 -42t42.5 -17t42 17zM110.5 771q28.5 39 102.5 39t103 -39.5t29 -109.5h-63q0 48 -15.5 68t-53.5 20q-37 0 -52.5 -20.5t-16.5 -67.5h-63q1 71 29.5 110z" />
    <glyph glyph-name="uni0210" unicode="&#x210;" horiz-adv-x="519" 
d="M63 810h163q123 0 180.5 -50.5t57.5 -164.5q0 -156 -100 -189l115 -406h-109l-106 380h-88v-380h-113v810zM219 461q73 0 104.5 29t31.5 105q0 50 -11 78.5t-39 42t-79 13.5h-50v-268h43zM63 1042h108l58 -170h-54zM229 1042h88l40 -170h-54z" />
    <glyph glyph-name="uni0211" unicode="&#x211;" horiz-adv-x="321" 
d="M57 578h107v-82q30 49 61.5 69t66.5 20q9 0 17 -1v-118q-32 12 -59 12q-26 0 -46.5 -12.5t-39.5 -43.5v-422h-107v578zM-13 810h108l58 -170h-54zM153 810h88l40 -170h-54z" />
    <glyph glyph-name="uni0212" unicode="&#x212;" horiz-adv-x="519" 
d="M63 810h163q123 0 180.5 -50.5t57.5 -164.5q0 -156 -100 -189l115 -406h-109l-106 380h-88v-380h-113v810zM219 461q73 0 104.5 29t31.5 105q0 50 -11 78.5t-39 42t-79 13.5h-50v-268h43zM157.5 1003q28.5 39 102.5 39t103 -39.5t29 -109.5h-63q0 48 -15.5 68t-53.5 20
q-37 0 -52.5 -20.5t-16.5 -67.5h-63q1 71 29.5 110z" />
    <glyph glyph-name="uni0213" unicode="&#x213;" horiz-adv-x="321" 
d="M57 578h107v-82q30 49 61.5 69t66.5 20q9 0 17 -1v-118q-32 12 -59 12q-26 0 -46.5 -12.5t-39.5 -43.5v-422h-107v578zM81.5 771q28.5 39 102.5 39t103 -39.5t29 -109.5h-63q0 48 -15.5 68t-53.5 20q-37 0 -52.5 -20.5t-16.5 -67.5h-63q1 71 29.5 110z" />
    <glyph glyph-name="uni0214" unicode="&#x214;" horiz-adv-x="543" 
d="M139.5 25q-47.5 34 -65.5 95t-18 153v537h108v-542q0 -92 21.5 -140t86.5 -48t86.5 48t21.5 140v542h107v-537q0 -92 -18 -153t-65 -95t-132 -34t-132.5 34zM75 1042h108l58 -170h-54zM241 1042h88l40 -170h-54z" />
    <glyph glyph-name="uni0215" unicode="&#x215;" horiz-adv-x="440" 
d="M70 26q-20 34 -20 84v468h107v-436q0 -33 10 -49.5t36 -16.5q32 0 75 36v466h107v-578h-107v57q-69 -65 -141 -65q-47 0 -67 34zM23 810h108l58 -170h-54zM189 810h88l40 -170h-54z" />
    <glyph glyph-name="uni0216" unicode="&#x216;" horiz-adv-x="543" 
d="M139.5 25q-47.5 34 -65.5 95t-18 153v537h108v-542q0 -92 21.5 -140t86.5 -48t86.5 48t21.5 140v542h107v-537q0 -92 -18 -153t-65 -95t-132 -34t-132.5 34zM169.5 1003q28.5 39 102.5 39t103 -39.5t29 -109.5h-63q0 48 -15.5 68t-53.5 20q-37 0 -52.5 -20.5t-16.5 -67.5
h-63q1 71 29.5 110z" />
    <glyph glyph-name="uni0217" unicode="&#x217;" horiz-adv-x="440" 
d="M70 26q-20 34 -20 84v468h107v-436q0 -33 10 -49.5t36 -16.5q32 0 75 36v466h107v-578h-107v57q-69 -65 -141 -65q-47 0 -67 34zM117.5 771q28.5 39 102.5 39t103 -39.5t29 -109.5h-63q0 48 -15.5 68t-53.5 20q-37 0 -52.5 -20.5t-16.5 -67.5h-63q1 71 29.5 110z" />
    <glyph glyph-name="Scommaaccent" unicode="&#x218;" horiz-adv-x="473" 
d="M98.5 54q-53.5 63 -59.5 173l100 27q5 -78 30.5 -126t84.5 -48q44 0 66.5 24.5t22.5 70.5q0 50 -21 83t-67 73l-136 120q-41 36 -59.5 77.5t-18.5 101.5q0 89 51 138t139 49q96 0 145 -51t59 -158l-96 -26q-5 71 -27.5 109.5t-80.5 38.5q-43 0 -66 -22.5t-23 -66.5
q0 -36 12 -60.5t41 -49.5l137 -120q53 -47 84.5 -102t31.5 -125q0 -89 -54 -141t-140 -52q-102 0 -155.5 63zM182 -234q30 2 43 17t13 45h-55v109h109l-1 -103q-1 -60 -17.5 -89.5t-64.5 -31.5z" />
    <glyph glyph-name="scommaaccent" unicode="&#x219;" horiz-adv-x="374" 
d="M74.5 36q-43.5 44 -49.5 118l89 27q8 -56 27.5 -83t55.5 -27q28 0 43.5 16.5t15.5 44.5q0 25 -11 45t-36 41l-99 85q-34 29 -52.5 61.5t-18.5 79.5q0 67 40 104.5t109 37.5q66 0 103.5 -42.5t43.5 -109.5l-72 -27q-7 49 -23 74.5t-48 25.5q-26 0 -41.5 -17t-15.5 -42
q0 -32 29 -58l102 -94q39 -36 60.5 -71t21.5 -85q0 -72 -43 -110t-117 -38q-70 0 -113.5 44zM132 -234q30 2 43 17t13 45h-55v109h109l-1 -103q-1 -60 -17.5 -89.5t-64.5 -31.5z" />
    <glyph glyph-name="uni021A" unicode="&#x21a;" horiz-adv-x="413" 
d="M152 726h-137v84h383v-84h-133v-726h-113v726zM151 -234q30 2 43 17t13 45h-55v109h109l-1 -103q-1 -60 -17.5 -89.5t-64.5 -31.5z" />
    <glyph glyph-name="uni021B" unicode="&#x21b;" horiz-adv-x="308" 
d="M83 130v377h-61v71h61v169h107v-169h93v-71h-93v-370q0 -35 11 -49t42 -14q20 0 39 3v-79q-40 -6 -74 -6q-125 0 -125 138zM153 -234q30 2 43 17t13 45h-55v109h109l-1 -103q-1 -60 -17.5 -89.5t-64.5 -31.5z" />
    <glyph glyph-name="uni021E" unicode="&#x21e;" horiz-adv-x="561" 
d="M63 810h113v-350h208v350h113v-810h-113v379h-208v-379h-113v810zM141 1042h82l58 -117l58 117h82l-88 -173h-105z" />
    <glyph glyph-name="uni021F" unicode="&#x21f;" horiz-adv-x="445" 
d="M57 810h107v-292q72 68 145 68q47 0 66.5 -34t19.5 -84v-468h-107v437q0 33 -10 49t-36 16q-35 0 -78 -38v-464h-107v810zM149 986h82l58 -117l58 117h82l-88 -173h-105z" />
    <glyph glyph-name="uni022A" unicode="&#x22a;" horiz-adv-x="539" 
d="M99.5 58.5q-51.5 67.5 -51.5 195.5v307q0 126 52 191t170 65t169.5 -65.5t51.5 -190.5v-308q0 -126 -52 -194t-169 -68q-119 0 -170.5 67.5zM355 117q22 37 22 112v355q0 74 -22 109.5t-85 35.5q-64 0 -86 -35.5t-22 -109.5v-355q0 -75 22 -112t86 -37q63 0 85 37z
M130 1042h108v-111h-108v111zM302 1042h108v-111h-108v111zM174 1214h192v-65h-192v65z" />
    <glyph glyph-name="uni022B" unicode="&#x22b;" horiz-adv-x="425" 
d="M82.5 46.5q-38.5 54.5 -38.5 158.5v168q0 104 38.5 158.5t130.5 54.5q91 0 129.5 -54.5t38.5 -158.5v-168q0 -104 -38.5 -158.5t-129.5 -54.5q-92 0 -130.5 54.5zM255 88q13 17 16 42t3 68v181q0 43 -3 68.5t-16 42.5t-42 17t-42.5 -17t-16.5 -42.5t-3 -68.5v-181
q0 -43 3 -68t16.5 -42t42.5 -17t42 17zM73 810h108v-111h-108v111zM245 810h108v-111h-108v111zM117 982h192v-65h-192v65z" />
    <glyph glyph-name="uni022C" unicode="&#x22c;" horiz-adv-x="539" 
d="M99.5 58.5q-51.5 67.5 -51.5 195.5v307q0 126 52 191t170 65t169.5 -65.5t51.5 -190.5v-308q0 -126 -52 -194t-169 -68q-119 0 -170.5 67.5zM355 117q22 37 22 112v355q0 74 -22 109.5t-85 35.5q-64 0 -86 -35.5t-22 -109.5v-355q0 -75 22 -112t86 -37q63 0 85 37z
M309.5 939q-16.5 7 -37.5 20q-20 11 -32 16.5t-25 5.5q-18 0 -26 -9.5t-8 -31.5h-61q0 108 80 108q17 0 32.5 -6.5t35.5 -18.5t32.5 -17.5t26.5 -5.5q18 0 25.5 9.5t7.5 32.5h60q0 -51 -16.5 -80.5t-57.5 -29.5q-20 0 -36.5 7zM174 1220h192v-65h-192v65z" />
    <glyph glyph-name="uni022D" unicode="&#x22d;" horiz-adv-x="425" 
d="M82.5 46.5q-38.5 54.5 -38.5 158.5v168q0 104 38.5 158.5t130.5 54.5q91 0 129.5 -54.5t38.5 -158.5v-168q0 -104 -38.5 -158.5t-129.5 -54.5q-92 0 -130.5 54.5zM255 88q13 17 16 42t3 68v181q0 43 -3 68.5t-16 42.5t-42 17t-42.5 -17t-16.5 -42.5t-3 -68.5v-181
q0 -43 3 -68t16.5 -42t42.5 -17t42 17zM252.5 707q-16.5 7 -37.5 20q-20 11 -32 16.5t-25 5.5q-18 0 -26 -9.5t-8 -31.5h-61q0 108 80 108q17 0 32.5 -6.5t35.5 -18.5t32.5 -17.5t26.5 -5.5q18 0 25.5 9.5t7.5 32.5h60q0 -51 -16.5 -80.5t-57.5 -29.5q-20 0 -36.5 7z
M117 988h192v-65h-192v65z" />
    <glyph glyph-name="uni0230" unicode="&#x230;" horiz-adv-x="539" 
d="M99.5 58.5q-51.5 67.5 -51.5 195.5v307q0 126 52 191t170 65t169.5 -65.5t51.5 -190.5v-308q0 -126 -52 -194t-169 -68q-119 0 -170.5 67.5zM355 117q22 37 22 112v355q0 74 -22 109.5t-85 35.5q-64 0 -86 -35.5t-22 -109.5v-355q0 -75 22 -112t86 -37q63 0 85 37z
M216 1022h108v-119h-108v119zM174 1194h192v-65h-192v65z" />
    <glyph glyph-name="uni0231" unicode="&#x231;" horiz-adv-x="425" 
d="M82.5 46.5q-38.5 54.5 -38.5 158.5v168q0 104 38.5 158.5t130.5 54.5q91 0 129.5 -54.5t38.5 -158.5v-168q0 -104 -38.5 -158.5t-129.5 -54.5q-92 0 -130.5 54.5zM255 88q13 17 16 42t3 68v181q0 43 -3 68.5t-16 42.5t-42 17t-42.5 -17t-16.5 -42.5t-3 -68.5v-181
q0 -43 3 -68t16.5 -42t42.5 -17t42 17zM159 790h108v-119h-108v119zM117 962h192v-65h-192v65z" />
    <glyph glyph-name="uni0232" unicode="&#x232;" horiz-adv-x="481" 
d="M187 286l-175 524h105l124 -391l122 391h106l-174 -524v-286h-108v286zM145 982h192v-65h-192v65z" />
    <glyph glyph-name="uni0233" unicode="&#x233;" horiz-adv-x="392" 
d="M45 -63q60 0 82.5 9t22.5 34q0 12 -22 106l-116 492h108l78 -432l75 432h108l-138 -610q-14 -61 -59 -87t-126 -26h-13v82zM100 750h192v-65h-192v65z" />
    <glyph glyph-name="uni0237" unicode="&#x237;" horiz-adv-x="230" 
d="M-19 -139v77q21 -3 28 -3q33 0 46.5 18.5t13.5 51.5v573h107v-584q0 -68 -37 -104t-103 -36q-39 0 -55 7z" />
    <glyph glyph-name="uni0259" unicode="&#x259;" horiz-adv-x="421" 
d="M101.5 20q-35.5 29 -47 81.5t-11.5 141.5v47h228v112q0 51 -12.5 78t-50.5 27q-35 0 -47.5 -23.5t-12.5 -70.5v-35h-104v22q0 90 39 138t124 48q67 0 104 -25.5t52 -75.5t15 -129v-134q0 -120 -37.5 -175.5t-133.5 -55.5q-70 0 -105.5 29zM247.5 82q13.5 12 18.5 39.5
t5 79.5v31h-123v-52q0 -59 11.5 -84.5t48.5 -25.5q26 0 39.5 12z" />
    <glyph glyph-name="uni0292" unicode="&#x292;" horiz-adv-x="458" 
d="M428 42q0 -113 -48.5 -175.5t-151.5 -62.5q-97 0 -147.5 54.5t-50.5 153.5v27h106v-18q0 -61 20 -94.5t72 -33.5q54 0 73.5 37.5t19.5 111.5q0 91 -26.5 134t-96.5 43h-101v69l159 210h-194v80h323v-58l-166 -229h9q200 0 200 -249z" />
    <glyph glyph-name="uni02BC" unicode="&#x2bc;" horiz-adv-x="366" 
d="M20 810h97l-39 -248h-58v248z" />
    <glyph glyph-name="circumflex" unicode="&#x2c6;" horiz-adv-x="343" 
d="M117 810h109l87 -188h-81l-61 134l-60 -134h-80z" />
    <glyph glyph-name="caron" unicode="&#x2c7;" horiz-adv-x="337" 
d="M30 810h81l58 -117l58 117h81l-87 -173h-105z" />
    <glyph glyph-name="uni02C9" unicode="&#x2c9;" horiz-adv-x="284" 
d="M46 810h192v-65h-192v65z" />
    <glyph glyph-name="breve" unicode="&#x2d8;" horiz-adv-x="348" 
d="M71.5 700q-28.5 39 -28.5 110h62q1 -48 16.5 -68t52.5 -20t53 20.5t16 67.5h63q0 -71 -28.5 -110t-103.5 -39q-74 0 -102.5 39z" />
    <glyph glyph-name="dotaccent" unicode="&#x2d9;" horiz-adv-x="172" 
d="M32 765h109v-112h-109v112z" />
    <glyph glyph-name="ring" unicode="&#x2da;" horiz-adv-x="289" 
d="M64 626.5q-31 30.5 -31 81.5t30.5 81t81.5 30q50 0 80.5 -30t30.5 -81t-30.5 -81.5t-80.5 -30.5t-81 30.5zM186.5 665.5q15.5 15.5 15.5 42.5t-15.5 42.5t-41.5 15.5q-27 0 -42.5 -15t-15.5 -43q0 -27 15.5 -42.5t42.5 -15.5q26 0 41.5 15.5z" />
    <glyph glyph-name="ogonek" unicode="&#x2db;" horiz-adv-x="353" 
d="M117 -213.5q-37 17.5 -37 68.5q0 31 16.5 61.5t42.5 53t52 30.5h54q-34 -29 -59 -63.5t-25 -65.5q0 -48 80 -48q14 0 32 2l-18 -53q-17 -3 -36 -3q-65 0 -102 17.5z" />
    <glyph glyph-name="tilde" unicode="&#x2dc;" horiz-adv-x="424" 
d="M243 707.5q-19 7.5 -45 21.5q-3 2 -15.5 8t-21.5 9t-15 3q-12 0 -17.5 -9.5t-5.5 -31.5h-61q0 111 86 108q18 0 37 -7.5t47 -21.5q14 -7 26.5 -13t19.5 -6q12 0 17.5 9.5t5.5 32.5h60q0 -110 -81 -110q-18 0 -37 7.5z" />
    <glyph glyph-name="hungarumlaut" unicode="&#x2dd;" horiz-adv-x="400" 
d="M93 811h88l-73 -171h-54zM238 811h108l-111 -171h-55z" />
    <glyph glyph-name="gravecomb" unicode="&#x300;" 
d="M-136 824h107l57 -198h-53z" />
    <glyph glyph-name="acutecomb" unicode="&#x301;" 
d="M31 824h107l-112 -198h-54z" />
    <glyph glyph-name="uni0302" unicode="&#x302;" 
d="M-55 810h109l87 -175h-81l-61 121l-60 -121h-80z" />
    <glyph glyph-name="tildecomb" unicode="&#x303;" 
d="M39.5 707q-16.5 7 -37.5 20q-20 11 -32 16.5t-25 5.5q-18 0 -26 -9.5t-8 -31.5h-61q0 108 80 108q17 0 32.5 -6.5t35.5 -18.5t32.5 -17.5t26.5 -5.5q18 0 25.5 9.5t7.5 32.5h60q0 -51 -16.5 -80.5t-57.5 -29.5q-20 0 -36.5 7z" />
    <glyph glyph-name="uni0304" unicode="&#x304;" 
d="M-96 750h192v-65h-192v65z" />
    <glyph glyph-name="uni0306" unicode="&#x306;" 
d="M-100.5 678q-31.5 37 -31.5 99h62q1 -38 17 -56.5t52 -18.5q69 0 69 75h63q0 -62 -31.5 -99t-100.5 -37q-68 0 -99.5 37z" />
    <glyph glyph-name="uni0307" unicode="&#x307;" 
d="M-54 790h108v-119h-108v119z" />
    <glyph glyph-name="uni0308" unicode="&#x308;" 
d="M-140 810h108v-111h-108v111zM32 810h108v-111h-108v111z" />
    <glyph glyph-name="hookabovecomb" unicode="&#x309;" 
d="M-33 676q33 14 49 27t16 31q0 20 -17 29.5t-44 9.5t-51 -7v54q39 10 81 10q49 0 80 -22t31 -65q0 -41 -28 -64.5t-83 -42.5z" />
    <glyph glyph-name="uni030A" unicode="&#x30a;" 
d="M-81 626.5q-31 30.5 -31 81.5t30.5 81t81.5 30t81.5 -30t30.5 -81t-31 -81.5t-81 -30.5t-81 30.5zM42 665.5q16 15.5 16 42.5t-15.5 42.5t-42.5 15.5t-42.5 -15t-15.5 -43q0 -27 15.5 -42.5t42.5 -15.5q26 0 42 15.5z" />
    <glyph glyph-name="uni030B" unicode="&#x30b;" 
d="M-47 811h88l-73 -171h-54zM98 811h108l-111 -171h-55z" />
    <glyph glyph-name="uni030C" unicode="&#x30c;" 
d="M-140 810h82l58 -117l58 117h82l-88 -173h-105z" />
    <glyph glyph-name="uni030F" unicode="&#x30f;" 
d="M-197 810h108l58 -170h-54zM-31 810h88l40 -170h-54z" />
    <glyph glyph-name="uni0311" unicode="&#x311;" 
d="M-102.5 771q28.5 39 102.5 39t103 -39.5t29 -109.5h-63q0 48 -15.5 68t-53.5 20q-37 0 -52.5 -20.5t-16.5 -67.5h-63q1 71 29.5 110z" />
    <glyph glyph-name="uni0312" unicode="&#x312;" 
d="M55 811q-30 -2 -43 -17t-13 -45h55v-109h-109l1 103q1 60 17.5 89.5t64.5 31.5z" />
    <glyph glyph-name="uni031B" unicode="&#x31b;" 
d="M-10 578h10q29 0 41.5 18t12.5 56h83q0 -65 -34.5 -97.5t-100.5 -32.5h-12v56z" />
    <glyph glyph-name="dotbelowcomb" unicode="&#x323;" 
d="M-54 -63h108v-113h-108v113z" />
    <glyph glyph-name="uni0324" unicode="&#x324;" 
d="M-140 -63h108v-111h-108v111zM32 -63h108v-111h-108v111z" />
    <glyph glyph-name="uni0326" unicode="&#x326;" 
d="M-55 -234q30 2 43 17t13 45h-55v109h109l-1 -103q-1 -60 -17.5 -89.5t-64.5 -31.5z" />
    <glyph glyph-name="uni0327" unicode="&#x327;" 
d="M-54 -225v54q24 -7 51 -7t44 9.5t17 29.5q0 25 -20.5 37.5t-64.5 18.5v83h54v-56q50 0 80.5 -23.5t30.5 -62.5q0 -46 -34.5 -69.5t-90.5 -23.5q-29 0 -67 10z" />
    <glyph glyph-name="uni0328" unicode="&#x328;" 
d="M-100 -213.5q-37 17.5 -37 68.5q0 31 16.5 61.5t42.5 53t52 30.5h54q-34 -29 -59 -63.5t-25 -65.5q0 -48 80 -48q14 0 32 2l-18 -53q-17 -3 -36 -3q-65 0 -102 17.5z" />
    <glyph glyph-name="uni032E" unicode="&#x32e;" 
d="M-100.5 -200q-31.5 37 -31.5 99h62q1 -38 17 -56.5t52 -18.5q69 0 69 75h63q0 -62 -31.5 -99t-100.5 -37q-68 0 -99.5 37z" />
    <glyph glyph-name="uni0331" unicode="&#x331;" 
d="M-96 -127h192v-65h-192v65z" />
    <glyph glyph-name="uni0335" unicode="&#x335;" 
d="M-96 390h192v-65h-192v65z" />
    <glyph glyph-name="Pi" unicode="&#x3a0;" horiz-adv-x="558" 
d="M63 810h432v-810h-108v729h-217v-729h-107v810z" />
    <glyph glyph-name="pi" unicode="&#x3c0;" horiz-adv-x="527" 
d="M340.5 26.5q-38.5 35.5 -38.5 114.5v357h-113v-498h-106v498h-66v80h471v-80h-79v-322q0 -44 6 -65t21.5 -29t46.5 -8l-7 -83q-97 0 -135.5 35.5z" />
    <glyph glyph-name="uni0400" unicode="&#x400;" horiz-adv-x="407" 
d="M63 810h314v-84h-201v-268h163v-80h-163v-297h203v-81h-316v810zM88 1056h107l57 -198h-53z" />
    <glyph glyph-name="uni0401" unicode="&#x401;" horiz-adv-x="407" 
d="M63 810h314v-84h-201v-268h163v-80h-163v-297h203v-81h-316v810zM84 1042h108v-111h-108v111zM256 1042h108v-111h-108v111z" />
    <glyph glyph-name="uni0402" unicode="&#x402;" horiz-adv-x="547" 
d="M126 726h-116v84h356v-84h-129v-287q18 16 44.5 25t56.5 9q42 0 79.5 -17.5t61.5 -54.5t24 -91v-97q0 -110 -47 -161.5t-139 -51.5h-18v81q57 0 77 35.5t20 96.5v94q0 38 -21.5 64t-61.5 26q-35 0 -76 -21v-376h-111v726z" />
    <glyph glyph-name="uni0403" unicode="&#x403;" horiz-adv-x="386" 
d="M63 810h308v-84h-195v-726h-113v810zM224 1056h107l-112 -198h-54z" />
    <glyph glyph-name="uni0404" unicode="&#x404;" horiz-adv-x="503" 
d="M97 62.5q-49 71.5 -49 197.5v286q0 133 48 202t170 69q109 0 156.5 -59t47.5 -174v-29h-107v22q0 56 -5 86t-25.5 48t-65.5 18q-46 0 -68.5 -19.5t-29.5 -54t-7 -92.5v-104h200v-78h-200v-139q0 -62 10 -97t32.5 -50t62.5 -15q43 0 64 19t26.5 52t5.5 90v33h107v-33
q0 -121 -45.5 -185.5t-158.5 -64.5q-120 0 -169 71.5z" />
    <glyph glyph-name="uni0405" unicode="&#x405;" horiz-adv-x="473" 
d="M98.5 54q-53.5 63 -59.5 173l100 27q5 -78 30.5 -126t84.5 -48q44 0 66.5 24.5t22.5 70.5q0 50 -21 83t-67 73l-136 120q-41 36 -59.5 77.5t-18.5 101.5q0 89 51 138t139 49q96 0 145 -51t59 -158l-96 -26q-5 71 -27.5 109.5t-80.5 38.5q-43 0 -66 -22.5t-23 -66.5
q0 -36 12 -60.5t41 -49.5l137 -120q53 -47 84.5 -102t31.5 -125q0 -89 -54 -141t-140 -52q-102 0 -155.5 63z" />
    <glyph glyph-name="uni0406" unicode="&#x406;" horiz-adv-x="248" 
d="M69 810h111v-810h-111v810z" />
    <glyph glyph-name="uni0407" unicode="&#x407;" horiz-adv-x="248" 
d="M69 810h111v-810h-111v810zM-16 1042h108v-111h-108v111zM156 1042h108v-111h-108v111z" />
    <glyph glyph-name="uni0408" unicode="&#x408;" horiz-adv-x="301" 
d="M7 62q51 0 75.5 9.5t33.5 35t9 78.5v625h112v-627q0 -73 -15 -116.5t-53.5 -64.5t-107.5 -21h-54v81z" />
    <glyph glyph-name="uni0409" unicode="&#x409;" horiz-adv-x="836" 
d="M14 0v84q43 -3 68.5 19.5t40 81.5t22.5 172l25 453h358v-337h15q92 0 148 -21t84 -72t28 -143q0 -125 -61 -181t-193 -56h-134v726h-145l-22 -369q-7 -129 -29 -207t-65.5 -115.5t-117.5 -35.5zM549 81q54 0 85.5 12t47 46t15.5 99q0 56 -14 89t-46.5 48.5t-89.5 15.5
h-19v-310h21z" />
    <glyph glyph-name="uni040A" unicode="&#x40a;" horiz-adv-x="782" 
d="M63 811h113v-339h189v339h114v-338h16q92 0 147.5 -21t83.5 -72t28 -143q0 -125 -61 -181t-193 -56h-135v391h-189v-391h-113v811zM500 81q54 0 85.5 12t47 46t15.5 99q0 56 -14 89t-46 48.5t-89 15.5h-20v-310h21z" />
    <glyph glyph-name="uni040B" unicode="&#x40b;" horiz-adv-x="568" 
d="M116 726h-117v84h359v-84h-128v-290q63 15 114 15q90 0 132.5 -46t42.5 -142v-263h-114v263q0 59 -19 86.5t-64 27.5q-41 0 -92 -12v-365h-114v726z" />
    <glyph glyph-name="uni040C" unicode="&#x40c;" horiz-adv-x="508" 
d="M63 810h113v-360h42l145 360h113l-160 -385l180 -425h-113l-164 395h-43v-395h-113v810zM285 1056h107l-112 -198h-54z" />
    <glyph glyph-name="uni040D" unicode="&#x40d;" horiz-adv-x="545" 
d="M63 810h100v-561l237 561h81v-810h-99v570l-235 -570h-84v810zM146 1056h107l57 -198h-53z" />
    <glyph glyph-name="uni040E" unicode="&#x40e;" horiz-adv-x="452" 
d="M53 -36q27 -3 47 -3q49 0 67.5 16t18.5 51q0 20 -7 62l-160 720h107l68 -345l41 -257l36 255l61 347h108l-145 -722l-8 -45q-13 -71 -25.5 -103t-47.5 -48.5t-108 -16.5q-13 0 -53 2v87zM126.5 910q-31.5 37 -31.5 99h62q1 -38 17 -56.5t52 -18.5q69 0 69 75h63
q0 -62 -31.5 -99t-100.5 -37q-68 0 -99.5 37z" />
    <glyph glyph-name="uni040F" unicode="&#x40f;" horiz-adv-x="547" 
d="M226 0h-163v810h113v-729h195v729h112v-810h-158l-7 -147h-85z" />
    <glyph glyph-name="uni0410" unicode="&#x410;" horiz-adv-x="492" 
d="M191 810h109l173 -810h-107l-37 204h-165l-39 -204h-106zM314 285l-68 365l-67 -365h135z" />
    <glyph glyph-name="uni0411" unicode="&#x411;" horiz-adv-x="494" 
d="M63 810h348v-82h-235v-255h25q92 0 148 -21t84 -72t28 -143q0 -125 -61 -181t-193 -56h-144v810zM208 81q54 0 84.5 12t46 46t15.5 99q0 57 -13.5 89.5t-46 48t-89.5 15.5h-29v-310h32z" />
    <glyph glyph-name="uni0412" unicode="&#x412;" horiz-adv-x="524" 
d="M63 810h186q110 0 163 -49.5t53 -153.5q0 -155 -116 -171q72 -17 105 -67.5t33 -137.5q0 -109 -51.5 -170t-156.5 -61h-216v810zM243 472q70 0 97 30.5t27 104.5q0 54 -16.5 79.5t-49.5 32.5t-98 7h-27v-254h67zM252 81q50 0 77.5 15.5t38.5 47.5t11 87q0 78 -32 116.5
t-104 38.5h-67v-305h76z" />
    <glyph glyph-name="uni0413" unicode="&#x413;" horiz-adv-x="386" 
d="M63 810h308v-84h-195v-726h-113v810z" />
    <glyph glyph-name="uni0414" unicode="&#x414;" horiz-adv-x="627" 
d="M11 81h37q35 29 58.5 73t42 142.5t26.5 273.5l13 240h339v-729h78v-228h-87l-9 147h-402l-9 -147h-87v228zM415 81v645h-131l-8 -183q-7 -169 -24 -260t-39 -128.5t-60 -73.5h262z" />
    <glyph glyph-name="uni0415" unicode="&#x415;" horiz-adv-x="407" 
d="M63 810h314v-84h-201v-268h163v-80h-163v-297h203v-81h-316v810z" />
    <glyph glyph-name="uni0416" unicode="&#x416;" horiz-adv-x="676" 
d="M192 414l-169 396h109l152 -391h6v391h96v-391h7l151 391h110l-170 -396l189 -414h-111l-168 405h-8v-405h-96v405h-7l-169 -405h-110z" />
    <glyph glyph-name="uni0417" unicode="&#x417;" horiz-adv-x="480" 
d="M92.5 45.5q-50.5 54.5 -50.5 153.5v27h106q0 -20 1 -28q2 -57 21.5 -87.5t69.5 -30.5q54 0 73.5 37t19.5 111q0 69 -30 108t-104 44q-8 1 -31 1v86q22 0 29 1q75 4 105.5 38.5t30.5 101.5q0 58 -23 90t-75 32q-51 0 -75 -31.5t-28 -89.5v-26h-107v27q0 97 54 152t152 55
q99 0 154 -56t55 -153q0 -72 -31 -118.5t-85 -61.5q55 -18 85.5 -68.5t30.5 -131.5q0 -237 -200 -237q-97 0 -147.5 54.5z" />
    <glyph glyph-name="uni0418" unicode="&#x418;" horiz-adv-x="545" 
d="M63 810h100v-561l237 561h81v-810h-99v570l-235 -570h-84v810z" />
    <glyph glyph-name="uni0419" unicode="&#x419;" horiz-adv-x="545" 
d="M63 810h100v-561l237 561h81v-810h-99v570l-235 -570h-84v810zM182.5 910q-31.5 37 -31.5 99h62q1 -38 17 -56.5t52 -18.5q69 0 69 75h63q0 -62 -31.5 -99t-100.5 -37q-68 0 -99.5 37z" />
    <glyph glyph-name="uni041A" unicode="&#x41a;" horiz-adv-x="508" 
d="M63 810h113v-360h42l145 360h113l-160 -385l180 -425h-113l-164 395h-43v-395h-113v810z" />
    <glyph glyph-name="uni041B" unicode="&#x41b;" horiz-adv-x="581" 
d="M2 84q43 -1 67 16t40 80t25 199l27 431h356v-810h-113v726h-146l-19 -347q-8 -136 -27 -216t-62 -122t-122 -42q-17 0 -26 1v84z" />
    <glyph glyph-name="uni041C" unicode="&#x41c;" horiz-adv-x="660" 
d="M76 810h111l143 -657l144 657h110l15 -810h-91l-9 588l-137 -588h-64l-136 588l-9 -588h-92z" />
    <glyph glyph-name="uni041D" unicode="&#x41d;" horiz-adv-x="561" 
d="M63 810h113v-350h208v350h113v-810h-113v379h-208v-379h-113v810z" />
    <glyph glyph-name="uni041E" unicode="&#x41e;" horiz-adv-x="539" 
d="M99.5 58.5q-51.5 67.5 -51.5 195.5v307q0 126 52 191t170 65t169.5 -65.5t51.5 -190.5v-308q0 -126 -52 -194t-169 -68q-119 0 -170.5 67.5zM355 117q22 37 22 112v355q0 74 -22 109.5t-85 35.5q-64 0 -86 -35.5t-22 -109.5v-355q0 -75 22 -112t86 -37q63 0 85 37z" />
    <glyph glyph-name="uni041F" unicode="&#x41f;" horiz-adv-x="572" 
d="M63 810h446v-810h-113v729h-220v-729h-113v810z" />
    <glyph glyph-name="uni0420" unicode="&#x420;" horiz-adv-x="480" 
d="M63 810h201q105 0 152.5 -57t47.5 -167q0 -99 -51 -154t-148 -55h-89v-377h-113v810zM228 458q50 0 77.5 11t39.5 38t12 78q0 62 -9 91t-35.5 41t-83.5 12h-53v-271h52z" />
    <glyph glyph-name="uni0421" unicode="&#x421;" horiz-adv-x="515" 
d="M97 62.5q-49 71.5 -49 197.5v286q0 133 48 202t170 69q109 0 156.5 -59t47.5 -174v-64h-107v57q0 56 -5 86t-25.5 48t-65.5 18q-46 0 -68.5 -19.5t-29.5 -54t-7 -92.5v-321q0 -62 10 -97t32.5 -50t62.5 -15q43 0 64 19t26.5 52t5.5 90v60h107v-60q0 -121 -45.5 -185.5
t-158.5 -64.5q-120 0 -169 71.5z" />
    <glyph glyph-name="uni0422" unicode="&#x422;" horiz-adv-x="413" 
d="M152 726h-137v84h383v-84h-133v-726h-113v726z" />
    <glyph glyph-name="uni0423" unicode="&#x423;" horiz-adv-x="452" 
d="M53 -36q27 -3 47 -3q49 0 67.5 16t18.5 51q0 20 -7 62l-160 720h107l68 -345l41 -257l36 255l61 347h108l-145 -722l-8 -45q-13 -71 -25.5 -103t-47.5 -48.5t-108 -16.5q-13 0 -53 2v87z" />
    <glyph glyph-name="uni0424" unicode="&#x424;" horiz-adv-x="662" 
d="M273 100q-21 -3 -35 -3q-96 0 -143 47.5t-47 166.5v202q0 116 44.5 166t131.5 50q29 0 49 -2v156h113v-156q26 2 51 2q88 0 132.5 -50t44.5 -166v-202q0 -115 -43 -164.5t-120 -49.5q-32 0 -65 3v-136h-113v136zM273 167v492q-24 2 -35 2q-34 0 -52.5 -13t-26.5 -44.5
t-8 -90.5v-202q0 -62 7 -92t26.5 -42t60.5 -12q16 0 28 2zM477.5 177q18.5 12 26 43t7.5 91v202q0 61 -7 91.5t-26 43.5t-57 13q-15 0 -35 -2v-492q18 -2 37 -2q36 0 54.5 12z" />
    <glyph glyph-name="uni0425" unicode="&#x425;" horiz-adv-x="482" 
d="M182 424l-166 386h105l123 -286l112 286h105l-170 -395l178 -415h-105l-132 305l-114 -305h-105z" />
    <glyph glyph-name="uni0426" unicode="&#x426;" horiz-adv-x="622" 
d="M500 0h-437v810h113v-729h230v729h113v-729h77v-228h-87z" />
    <glyph glyph-name="uni0427" unicode="&#x427;" horiz-adv-x="550" 
d="M373 374q-66 -15 -119 -15q-104 0 -154.5 46.5t-50.5 141.5v263h114v-263q0 -59 26 -86.5t87 -27.5q43 0 97 12v365h114v-810h-114v374z" />
    <glyph glyph-name="uni0428" unicode="&#x428;" horiz-adv-x="750" 
d="M63 810h113v-728h146v728h113v-728h139v728h113v-810h-624v810z" />
    <glyph glyph-name="uni0429" unicode="&#x429;" horiz-adv-x="790" 
d="M668 0h-605v810h113v-729h146v729h113v-729h139v729h114v-729h77v-228h-88z" />
    <glyph glyph-name="uni042A" unicode="&#x42a;" horiz-adv-x="567" 
d="M136 724h-131v86h244v-337h31q92 0 148.5 -21t84.5 -72t28 -143q0 -124 -61.5 -180.5t-193.5 -56.5h-150v724zM287 81q54 0 85 12t46.5 46t15.5 99q0 56 -14 89t-46.5 48.5t-89.5 15.5h-35v-310h38z" />
    <glyph glyph-name="uni042B" unicode="&#x42b;" horiz-adv-x="728" 
d="M63 810h113v-337h32q92 0 147.5 -21t83.5 -72t28 -143q0 -125 -61 -181t-193 -56h-150v810zM551 810h113v-810h-113v810zM213 81q54 0 85.5 12t47 46t15.5 99q0 56 -14 89t-46.5 48.5t-89.5 15.5h-35v-310h37z" />
    <glyph glyph-name="uni042C" unicode="&#x42c;" horiz-adv-x="494" 
d="M63 810h113v-337h32q92 0 147.5 -21t83.5 -72t28 -143q0 -125 -61 -181t-193 -56h-150v810zM213 81q54 0 85.5 12t47 46t15.5 99q0 56 -14 89t-46.5 48.5t-89.5 15.5h-35v-310h37z" />
    <glyph glyph-name="uni042D" unicode="&#x42d;" horiz-adv-x="519" 
d="M96.5 61q-47.5 59 -47.5 174v40h107v-32q0 -55 5 -85.5t26 -49t66 -18.5t67.5 20t29.5 55t7 93v128h-142v74h142v118q0 62 -10 97t-32.5 50t-61.5 15q-43 0 -64 -19t-27 -52t-6 -90v-35h-107v36q0 121 46 185t159 64q120 0 168.5 -71.5t48.5 -197.5v-286q0 -134 -48 -203
t-169 -69q-110 0 -157.5 59z" />
    <glyph glyph-name="uni042E" unicode="&#x42e;" horiz-adv-x="719" 
d="M308 59q-47 68 -47 197v115h-92v-371h-106v810h106v-353h92v101q0 128 46.5 193.5t158.5 65.5q111 0 158 -66t47 -193v-302q0 -128 -47 -196.5t-158 -68.5t-158 68zM547.5 117q21.5 37 21.5 112v355q0 74 -21 109.5t-82 35.5t-82.5 -35.5t-21.5 -109.5v-355
q0 -75 21.5 -112t82.5 -37q60 0 81.5 37z" />
    <glyph glyph-name="uni042F" unicode="&#x42f;" horiz-adv-x="545" 
d="M183 364q-56 25 -87.5 81t-31.5 141q0 224 254 224h164v-810h-113v336h-64l-26 1l-140 -337h-126zM369 417v312h-45q-78 0 -115.5 -33.5t-37.5 -108.5q0 -88 36 -129t120 -41h42z" />
    <glyph glyph-name="uni0430" unicode="&#x430;" horiz-adv-x="426" 
d="M98.5 11q-26.5 19 -41.5 50t-15 65q0 68 29 110.5t74 67.5t125 57v41q0 57 -11.5 80.5t-46.5 23.5q-61 0 -61 -82v-29l-106 4q2 96 44 141.5t130 45.5q83 0 120.5 -45.5t37.5 -137.5v-264q0 -65 10 -139h-98q-11 57 -14 85q-12 -39 -41.5 -66t-75.5 -27q-33 0 -59.5 19z
M241 100.5q20 16.5 29 31.5v164q-43 -24 -66.5 -41.5t-39 -40.5t-15.5 -55q0 -36 13 -55.5t38 -19.5q21 0 41 16.5z" />
    <glyph glyph-name="uni0431" unicode="&#x431;" horiz-adv-x="438" 
d="M94.5 43.5q-42.5 51.5 -42.5 148.5v340q0 76 11.5 123.5t36 75.5t65.5 45q30 12 93 28q36 9 59.5 16.5t48.5 22.5l22 -89q-22 -13 -47 -21t-60 -16q-5 -1 -33 -8t-50 -17q-30 -15 -45.5 -44t-15.5 -77v-93q21 20 57.5 36t68.5 16q59 0 95.5 -49t36.5 -158v-110
q0 -87 -22.5 -135.5t-62 -67t-97.5 -18.5q-76 0 -118.5 51.5zM272.5 96q14.5 25 14.5 84v175q0 55 -11.5 78.5t-39.5 23.5q-33 0 -77 -30v-238q0 -64 15 -91t51 -27q33 0 47.5 25z" />
    <glyph glyph-name="uni0432" unicode="&#x432;" horiz-adv-x="415" 
d="M54 578h162q83 0 119.5 -40t36.5 -103q0 -46 -17 -76.5t-59 -43.5q49 -10 69.5 -50t20.5 -97q0 -82 -37 -125t-128 -43h-167v578zM211 345q33 0 50 19t17 63q0 39 -20 56t-58 17h-41v-155h52zM197 81q40 0 62 19t22 72q0 43 -10 63.5t-26 26.5t-43 6h-43v-187h38z" />
    <glyph glyph-name="uni0433" unicode="&#x433;" horiz-adv-x="290" 
d="M54 578h233v-77h-126v-501h-107v578z" />
    <glyph glyph-name="uni0434" unicode="&#x434;" horiz-adv-x="496" 
d="M2 71q44 33 74 82t48 134t19 215l2 76h261v-502h70v-223h-78l-9 147h-300l-9 -147h-78v218zM303 76v425h-75l-2 -21q-1 -134 -17 -215.5t-41 -122.5t-62 -66h197z" />
    <glyph glyph-name="uni0435" unicode="&#x435;" horiz-adv-x="421" 
d="M110 17.5q-37 25.5 -52 75.5t-15 130v132q0 120 37.5 175.5t133.5 55.5q70 0 105.5 -29t47 -81.5t11.5 -141.5v-47h-228v-116q0 -53 15.5 -76.5t49.5 -23.5t46 23.5t12 71.5v35h104v-22q0 -91 -39 -139t-124 -48q-67 0 -104 25.5zM273 345v52q0 59 -11.5 84.5t-48.5 25.5
q-26 0 -39.5 -12t-18.5 -39.5t-5 -79.5v-31h123z" />
    <glyph glyph-name="uni0436" unicode="&#x436;" horiz-adv-x="579" 
d="M149 295l-136 283h102l123 -278h8v278h88v-278h8l122 278h102l-136 -283l145 -295h-99l-134 284h-8v-284h-88v284h-9l-134 -284h-99z" />
    <glyph glyph-name="uni0437" unicode="&#x437;" horiz-adv-x="375" 
d="M73.5 35.5q-37.5 45.5 -37.5 141.5h91q0 -58 16.5 -84.5t48.5 -26.5q36 0 46.5 26t10.5 81q0 38 -10.5 56t-34.5 24.5t-72 6.5v76q68 0 92.5 20t24.5 70q0 41 -17 61t-46 20q-33 0 -49.5 -20.5t-16.5 -74.5h-91q0 93 41.5 133.5t119.5 40.5q75 0 113.5 -45t38.5 -109
q0 -68 -29 -98t-68 -34q29 -6 49 -16.5t34.5 -40t14.5 -85.5q0 -83 -38 -125.5t-115 -42.5q-79 0 -116.5 45.5z" />
    <glyph glyph-name="uni0438" unicode="&#x438;" horiz-adv-x="457" 
d="M54 578h90v-389l174 389h84v-578h-88v392l-173 -392h-87v578z" />
    <glyph glyph-name="uni0439" unicode="&#x439;" horiz-adv-x="457" 
d="M54 578h90v-389l174 389h84v-578h-88v392l-173 -392h-87v578zM131.5 678q-31.5 37 -31.5 99h62q1 -38 17 -56.5t52 -18.5q69 0 69 75h63q0 -62 -31.5 -99t-100.5 -37q-68 0 -99.5 37z" />
    <glyph glyph-name="uni043A" unicode="&#x43a;" horiz-adv-x="415" 
d="M54 578h107v-244h30l109 244h110l-121 -280l123 -298h-112l-109 270h-30v-270h-107v578z" />
    <glyph glyph-name="uni043B" unicode="&#x43b;" horiz-adv-x="485" 
d="M17 76q40 0 58.5 21.5t26 70.5t13.5 159l13 251h303v-578h-107v497h-102l-9 -170q-7 -139 -23 -207.5t-52.5 -96.5t-108.5 -28h-12v81z" />
    <glyph glyph-name="uni043C" unicode="&#x43c;" horiz-adv-x="529" 
d="M57 578h79l128 -355l129 355h79l6 -578h-90v345l-107 -288h-33l-107 286v-343h-90z" />
    <glyph glyph-name="uni043D" unicode="&#x43d;" horiz-adv-x="459" 
d="M54 578h107v-243h137v243h107v-578h-107v257h-137v-257h-107v578z" />
    <glyph glyph-name="uni043E" unicode="&#x43e;" horiz-adv-x="425" 
d="M82.5 46.5q-38.5 54.5 -38.5 158.5v168q0 104 38.5 158.5t130.5 54.5q91 0 129.5 -54.5t38.5 -158.5v-168q0 -104 -38.5 -158.5t-129.5 -54.5q-92 0 -130.5 54.5zM255 88q13 17 16 42t3 68v181q0 43 -3 68.5t-16 42.5t-42 17t-42.5 -17t-16.5 -42.5t-3 -68.5v-181
q0 -43 3 -68t16.5 -42t42.5 -17t42 17z" />
    <glyph glyph-name="uni043F" unicode="&#x43f;" horiz-adv-x="444" 
d="M54 578h336v-578h-107v497h-122v-497h-107v578z" />
    <glyph glyph-name="uni0440" unicode="&#x440;" horiz-adv-x="446" 
d="M54 578h107v-46q47 54 110 54q79 0 105.5 -67.5t26.5 -149.5v-140q0 -106 -32.5 -171.5t-111.5 -65.5q-51 0 -98 51v-233h-107v768zM285.5 113.5q10.5 37.5 10.5 115.5v140q0 64 -12 98.5t-50 34.5q-37 0 -73 -30v-370q35 -26 77 -26q37 0 47.5 37.5z" />
    <glyph glyph-name="uni0441" unicode="&#x441;" horiz-adv-x="411" 
d="M107 19.5q-37 27.5 -50.5 77t-13.5 125.5v133q0 78 13.5 128t50.5 76.5t105 26.5q62 0 96.5 -20t48 -59.5t13.5 -102.5v-34h-97v35q0 57 -12.5 79.5t-47.5 22.5q-27 0 -40 -12t-18 -39t-5 -79v-182q0 -50 6 -76.5t19.5 -37t38.5 -10.5q37 0 48 24.5t11 75.5v47h97v-40
q0 -94 -34.5 -140t-123.5 -46q-68 0 -105 27.5z" />
    <glyph glyph-name="uni0442" unicode="&#x442;" horiz-adv-x="346" 
d="M119 498h-108v80h324v-80h-109v-498h-107v498z" />
    <glyph glyph-name="uni0443" unicode="&#x443;" horiz-adv-x="392" 
d="M45 -63q60 0 82.5 9t22.5 34q0 12 -22 106l-116 492h108l78 -432l75 432h108l-138 -610q-14 -61 -59 -87t-126 -26h-13v82z" />
    <glyph glyph-name="uni0444" unicode="&#x444;" horiz-adv-x="606" 
d="M253 32h-10q-83 0 -141.5 47.5t-58.5 173.5v104q0 106 55 158.5t142 52.5h13v242h99v-242h17q86 0 140 -52t54 -159v-104q0 -126 -57 -173.5t-140 -47.5h-14v-222h-99v222zM253 108v390h-10q-51 0 -77 -27t-26 -98v-119q0 -83 25.5 -114.5t80.5 -31.5h7zM358 108
q55 0 81.5 31.5t26.5 114.5v119q0 71 -26.5 98t-78.5 27h-9v-390h6z" />
    <glyph glyph-name="uni0445" unicode="&#x445;" horiz-adv-x="389" 
d="M139 304l-127 274h102l85 -183l75 183h105l-132 -287l134 -291h-102l-91 196l-78 -196h-101z" />
    <glyph glyph-name="uni0446" unicode="&#x446;" horiz-adv-x="485" 
d="M390 0h-336v578h107v-502h139v502h107v-502h70v-223h-78z" />
    <glyph glyph-name="uni0447" unicode="&#x447;" horiz-adv-x="433" 
d="M271 229q-50 -6 -77 -6q-73 0 -115 32t-42 112v211h107v-212q0 -34 16 -50.5t59 -16.5q20 0 52 5v274h107v-578h-107v229z" />
    <glyph glyph-name="uni0448" unicode="&#x448;" horiz-adv-x="625" 
d="M54 578h103v-502h102v502h103v-502h102v502h103v-578h-513v578z" />
    <glyph glyph-name="uni0449" unicode="&#x449;" horiz-adv-x="664" 
d="M550 0h-496v578h103v-502h102v502h103v-502h102v502h103v-502h70v-223h-78z" />
    <glyph glyph-name="uni044A" unicode="&#x44a;" horiz-adv-x="480" 
d="M116 499h-120v79h227v-239h17q83 -1 129 -15t67.5 -50.5t21.5 -103.5q0 -64 -22 -100.5t-71.5 -53t-135.5 -16.5h-113v499zM229 63q52 0 80 9t40 32t12 67q0 40 -10.5 62t-38 32.5t-79.5 10.5h-10v-213h6z" />
    <glyph glyph-name="uni044B" unicode="&#x44b;" horiz-adv-x="623" 
d="M54 578h107v-239h17q83 -1 129 -15.5t67.5 -50.5t21.5 -103q0 -64 -22 -100.5t-71.5 -53t-135.5 -16.5h-113v578zM462 578h107v-578h-107v578zM167 63q52 0 80.5 9t40.5 32t12 67q0 40 -11 62t-38 32t-79 11h-11v-213h6z" />
    <glyph glyph-name="uni044C" unicode="&#x44c;" horiz-adv-x="415" 
d="M54 578h107v-239h17q83 -1 129 -15.5t67.5 -50.5t21.5 -103q0 -64 -22 -100.5t-71.5 -53t-135.5 -16.5h-113v578zM167 63q52 0 80.5 9t40.5 32t12 67q0 40 -11 62t-38 32t-79 11h-11v-213h6z" />
    <glyph glyph-name="uni044D" unicode="&#x44d;" horiz-adv-x="412" 
d="M103.5 11.5q-34.5 19.5 -48 58.5t-13.5 101v17h97v-17q0 -56 13 -78.5t47 -22.5q27 0 40.5 12.5t18 39.5t4.5 78v59h-138v60h138v63q0 50 -5.5 76.5t-19 37t-38.5 10.5q-37 0 -48.5 -24.5t-11.5 -73.5v-28h-97v21q0 93 35 138.5t124 45.5q68 0 105 -27.5t50 -76.5
t13 -126v-133q0 -78 -13.5 -127.5t-50.5 -76t-105 -26.5q-62 0 -96.5 19.5z" />
    <glyph glyph-name="uni044E" unicode="&#x44e;" horiz-adv-x="573" 
d="M261.5 46q-33.5 54 -33.5 159v49h-80v-254h-94v578h94v-253h80v48q0 105 33.5 159t116.5 54t116.5 -54t33.5 -159v-168q0 -105 -33.5 -159t-116.5 -54t-116.5 54zM416 88q12 17 15 42t3 68v181q0 43 -3 68.5t-15 42.5t-38 17t-38 -17t-15 -42.5t-3 -68.5v-181
q0 -43 3 -68t15 -42t38 -17t38 17z" />
    <glyph glyph-name="uni044F" unicode="&#x44f;" horiz-adv-x="432" 
d="M119 245q-79 30 -79 159q0 62 21.5 100t71 56t132.5 18h112v-578h-106v228q-17 0 -51 2l-95 -230h-115zM271 290v227h-11q-70 -1 -97 -26t-27 -87q0 -59 26.5 -86t96.5 -28h12z" />
    <glyph glyph-name="uni0450" unicode="&#x450;" horiz-adv-x="421" 
d="M110 17.5q-37 25.5 -52 75.5t-15 130v132q0 120 37.5 175.5t133.5 55.5q70 0 105.5 -29t47 -81.5t11.5 -141.5v-47h-228v-116q0 -53 15.5 -76.5t49.5 -23.5t46 23.5t12 71.5v35h104v-22q0 -91 -39 -139t-124 -48q-67 0 -104 25.5zM273 345v52q0 59 -11.5 84.5t-48.5 25.5
q-26 0 -39.5 -12t-18.5 -39.5t-5 -79.5v-31h123zM75 824h107l57 -198h-53z" />
    <glyph glyph-name="uni0451" unicode="&#x451;" horiz-adv-x="421" 
d="M110 17.5q-37 25.5 -52 75.5t-15 130v132q0 120 37.5 175.5t133.5 55.5q70 0 105.5 -29t47 -81.5t11.5 -141.5v-47h-228v-116q0 -53 15.5 -76.5t49.5 -23.5t46 23.5t12 71.5v35h104v-22q0 -91 -39 -139t-124 -48q-67 0 -104 25.5zM273 345v52q0 59 -11.5 84.5t-48.5 25.5
q-26 0 -39.5 -12t-18.5 -39.5t-5 -79.5v-31h123zM71 810h108v-111h-108v111zM243 810h108v-111h-108v111z" />
    <glyph glyph-name="uni0452" unicode="&#x452;" horiz-adv-x="457" 
d="M380 464.5q26 -28.5 26 -69.5v-293q0 -107 -12.5 -157.5t-50 -71t-118.5 -20.5h-34v71h12q43 0 62 9t26.5 41t7.5 106v289q0 28 -9.5 41t-36.5 13q-22 0 -49 -10.5t-34 -15.5v-397h-107v617h-73v64h73v129h107v-129h142v-64h-142v-165q15 11 49.5 26t77.5 15
q57 0 83 -28.5z" />
    <glyph glyph-name="uni0453" unicode="&#x453;" horiz-adv-x="290" 
d="M54 578h233v-77h-126v-501h-107v578zM206 824h107l-112 -198h-54z" />
    <glyph glyph-name="uni0454" unicode="&#x454;" horiz-adv-x="397" 
d="M107 19.5q-37 27.5 -50 76.5t-13 126v133q0 78 13.5 128t50.5 76.5t104 26.5q62 0 96.5 -20t48.5 -59t14 -102v-16h-97v16q0 57 -12.5 79.5t-47.5 22.5q-27 0 -40 -12t-18 -39t-5 -79v-48h142v-70h-142v-64q0 -50 6 -76.5t19.5 -37t38.5 -10.5q37 0 48 24.5t11 75.5v27
h97v-20q0 -94 -35 -140t-123 -46q-69 0 -106 27.5z" />
    <glyph glyph-name="uni0455" unicode="&#x455;" horiz-adv-x="374" 
d="M74.5 36q-43.5 44 -49.5 118l89 27q8 -56 27.5 -83t55.5 -27q28 0 43.5 16.5t15.5 44.5q0 25 -11 45t-36 41l-99 85q-34 29 -52.5 61.5t-18.5 79.5q0 67 40 104.5t109 37.5q66 0 103.5 -42.5t43.5 -109.5l-72 -27q-7 49 -23 74.5t-48 25.5q-26 0 -41.5 -17t-15.5 -42
q0 -32 29 -58l102 -94q39 -36 60.5 -71t21.5 -85q0 -72 -43 -110t-117 -38q-70 0 -113.5 44z" />
    <glyph glyph-name="uni0456" unicode="&#x456;" horiz-adv-x="229" 
d="M61 776h107v-112h-107v112zM61 578h107v-578h-107v578z" />
    <glyph glyph-name="uni0457" unicode="&#x457;" horiz-adv-x="224" 
d="M61 578h107v-578h-107v578zM-25 810h108v-111h-108v111zM147 810h108v-111h-108v111z" />
    <glyph glyph-name="uni0458" unicode="&#x458;" horiz-adv-x="230" 
d="M69 776h108v-112h-108v112zM-19 -139v77q21 -3 28 -3q33 0 46.5 18.5t13.5 51.5v573h107v-584q0 -68 -37 -104t-103 -36q-39 0 -55 7z" />
    <glyph glyph-name="uni0459" unicode="&#x459;" horiz-adv-x="659" 
d="M5 75q40 0 59 22.5t26.5 71.5t13.5 153l13 256h302v-244h16q75 0 117.5 -15t61.5 -50.5t19 -100.5q0 -62 -20 -98t-65.5 -52.5t-124.5 -17.5h-110v497h-103l-10 -190q-7 -137 -26.5 -203.5t-55 -87.5t-102.5 -21h-11v80zM425 63q44 0 68 9.5t34 32.5t10 64q0 38 -9 59.5
t-33 32t-70 10.5h-6v-208h6z" />
    <glyph glyph-name="uni045A" unicode="&#x45a;" horiz-adv-x="630" 
d="M54 578h107v-239h122v239h107v-244h14q78 -1 121.5 -15.5t63.5 -49.5t20 -101q0 -62 -20.5 -98t-66.5 -52.5t-126 -17.5h-113v267h-122v-267h-107v578zM400 63q44 1 68 10.5t34.5 32t10.5 63.5q0 38 -9.5 59t-33.5 31.5t-69 11.5h-11v-208h10z" />
    <glyph glyph-name="uni045B" unicode="&#x45b;" horiz-adv-x="457" 
d="M380 464.5q26 -28.5 26 -69.5v-395h-107v369q0 28 -9.5 41t-36.5 13q-17 0 -47 -11t-36 -15v-397h-107v617h-73v64h73v129h107v-129h142v-64h-142v-165q15 11 49.5 26t77.5 15q57 0 83 -28.5z" />
    <glyph glyph-name="uni045C" unicode="&#x45c;" horiz-adv-x="415" 
d="M54 578h107v-244h30l109 244h110l-121 -280l123 -298h-112l-109 270h-30v-270h-107v578zM259 824h107l-112 -198h-54z" />
    <glyph glyph-name="uni045D" unicode="&#x45d;" horiz-adv-x="457" 
d="M54 578h90v-389l174 389h84v-578h-88v392l-173 -392h-87v578zM95 824h107l57 -198h-53z" />
    <glyph glyph-name="uni045E" unicode="&#x45e;" horiz-adv-x="392" 
d="M45 -63q60 0 82.5 9t22.5 34q0 12 -22 106l-116 492h108l78 -432l75 432h108l-138 -610q-14 -61 -59 -87t-126 -26h-13v82zM98.5 678q-31.5 37 -31.5 99h62q1 -38 17 -56.5t52 -18.5q69 0 69 75h63q0 -62 -31.5 -99t-100.5 -37q-68 0 -99.5 37z" />
    <glyph glyph-name="uni045F" unicode="&#x45f;" horiz-adv-x="446" 
d="M181 0h-127v578h107v-502h124v502h107v-578h-124l-6 -147h-72z" />
    <glyph glyph-name="uni0462" unicode="&#x462;" horiz-adv-x="530" 
d="M391.5 452q55.5 -21 83.5 -72t28 -143q0 -125 -61 -181t-193 -56h-150v591h-101v86h101v133h113v-133h161v-86h-161v-118h32q92 0 147.5 -21zM334.5 93q31.5 12 47 46t15.5 99q0 56 -14 89t-46.5 48.5t-89.5 15.5h-35v-310h37q54 0 85.5 12z" />
    <glyph glyph-name="uni0463" unicode="&#x463;" horiz-adv-x="429" 
d="M321 323.5q46 -14.5 67.5 -50.5t21.5 -103q0 -64 -22 -100.5t-71.5 -53t-135.5 -16.5h-113v499h-78v79h78v232h107v-232h142v-79h-142v-160h17q83 -1 129 -15.5zM261.5 72q28.5 9 40.5 32t12 67q0 40 -11 62t-38 32t-79 11h-11v-213h6q52 0 80.5 9z" />
    <glyph glyph-name="uni046A" unicode="&#x46a;" horiz-adv-x="655" 
d="M652 0h-110l-158 405h-8v-405h-96v405h-7l-159 -405h-110l222 510l-165 300h529l-163 -303zM435 725h-219l112 -207z" />
    <glyph glyph-name="uni046B" unicode="&#x46b;" horiz-adv-x="530" 
d="M526 0h-99l-113 262h-5v-262h-88v262h-5l-113 -262h-99l168 345l-138 233h458l-135 -232zM265 349l86 154h-176z" />
    <glyph glyph-name="uni0490" unicode="&#x490;" horiz-adv-x="377" 
d="M63 810h238v108h71v-192h-196v-726h-113v810z" />
    <glyph glyph-name="uni0491" unicode="&#x491;" horiz-adv-x="296" 
d="M55 578h174v94h59v-171h-126v-501h-107v578z" />
    <glyph glyph-name="uni0492" unicode="&#x492;" horiz-adv-x="409" 
d="M194 729v-267h135v-86h-135v-376h-113v376h-81v86h81v348h313v-81h-200z" />
    <glyph glyph-name="uni0493" unicode="&#x493;" horiz-adv-x="372" 
d="M188 499v-147h131v-79h-131v-273h-107v273h-81v79h81v226h283v-79h-176z" />
    <glyph glyph-name="uni0496" unicode="&#x496;" horiz-adv-x="705" 
d="M705 81v-228h-87l-6 147h-50l-168 405h-8v-405h-96v405h-7l-169 -405h-110l188 414l-169 396h109l152 -391h6v391h96v-391h7l151 391h110l-170 -396l152 -333h69z" />
    <glyph glyph-name="uni0497" unicode="&#x497;" horiz-adv-x="597" 
d="M603 76v-223h-78l-9 147h-40l-134 284h-8v-284h-88v284h-9l-134 -284h-99l145 295l-136 283h102l123 -278h8v278h88v-278h8l122 278h102l-136 -283l108 -219h65z" />
    <glyph glyph-name="uni049A" unicode="&#x49a;" horiz-adv-x="525" 
d="M525 81v-228h-87l-6 147h-49l-155 380l-52 -94v-286h-113v810h113v-382l186 382h105l-160 -357l153 -372h65z" />
    <glyph glyph-name="uni049B" unicode="&#x49b;" horiz-adv-x="438" 
d="M444 76v-223h-78l-9 147h-57l-109 270h-30v-270h-107v578h107v-244h30l109 244h110l-121 -280l92 -222h63z" />
    <glyph glyph-name="uni04A2" unicode="&#x4a2;" horiz-adv-x="570" 
d="M560 81v-228h-87l-6 147h-83v379h-208v-379h-113v810h113v-350h208v350h113v-729h63z" />
    <glyph glyph-name="uni04A3" unicode="&#x4a3;" horiz-adv-x="485" 
d="M475 76v-223h-78l-9 147h-90v257h-137v-257h-107v578h107v-243h137v243h107v-502h70z" />
    <glyph glyph-name="uni04AE" unicode="&#x4ae;" horiz-adv-x="481" 
d="M187 286l-175 524h105l124 -391l122 391h106l-174 -524v-286h-108v286z" />
    <glyph glyph-name="uni04AF" unicode="&#x4af;" horiz-adv-x="388" 
d="M146 35l-134 543h108l78 -383l75 383h108l-138 -539v-210h-97v206z" />
    <glyph glyph-name="uni04B0" unicode="&#x4b0;" horiz-adv-x="477" 
d="M311 334h126v-77h-142v-257h-108v257h-142v77h126l-159 476h105l124 -391l122 391h106z" />
    <glyph glyph-name="uni04B1" unicode="&#x4b1;" horiz-adv-x="393" 
d="M248 57h99v-71h-104v-157h-97v157h-105v71h100l-129 521h108l78 -383l75 383h108z" />
    <glyph glyph-name="uni04BA" unicode="&#x4ba;" horiz-adv-x="550" 
d="M177 436q66 15 119 15q105 0 155 -46t50 -142v-263h-114v263q0 59 -26 86.5t-87 27.5q-43 0 -97 -12v-365h-114v810h114v-374z" />
    <glyph glyph-name="uni04BB" unicode="&#x4bb;" horiz-adv-x="445" 
d="M57 810h107v-292q72 68 145 68q47 0 66.5 -34t19.5 -84v-468h-107v437q0 33 -10 49t-36 16q-35 0 -78 -38v-464h-107v810z" />
    <glyph glyph-name="uni04C9" unicode="&#x4c9;" horiz-adv-x="570" 
d="M560 81l-50 -228h-87l26 147h-65v379h-208v-379h-113v810h113v-350h208v350h113v-729h63z" />
    <glyph glyph-name="uni04CA" unicode="&#x4ca;" horiz-adv-x="485" 
d="M475 76l-50 -223h-78l24 147h-73v257h-137v-257h-107v578h107v-243h137v243h107v-502h70z" />
    <glyph glyph-name="uni04D8" unicode="&#x4d8;" horiz-adv-x="535" 
d="M95.5 58.5q-51.5 67.5 -51.5 195.5v167h329v163q0 75 -21.5 110t-85.5 35t-86 -35.5t-22 -109.5v-70h-114v47q0 126 51 191t171 65q118 0 169.5 -65.5t51.5 -190.5v-308q0 -126 -52 -194t-169 -68q-119 0 -170.5 67.5zM351 117q22 37 22 112v103h-215v-103q0 -75 22 -112
t86 -37q63 0 85 37z" />
    <glyph glyph-name="uni04D9" unicode="&#x4d9;" horiz-adv-x="421" 
d="M101.5 20q-35.5 29 -47 81.5t-11.5 141.5v47h228v112q0 51 -12.5 78t-50.5 27q-35 0 -47.5 -23.5t-12.5 -70.5v-35h-104v22q0 90 39 138t124 48q67 0 104 -25.5t52 -75.5t15 -129v-134q0 -120 -37.5 -175.5t-133.5 -55.5q-70 0 -105.5 29zM247.5 82q13.5 12 18.5 39.5
t5 79.5v31h-123v-52q0 -59 11.5 -84.5t48.5 -25.5q26 0 39.5 12z" />
    <glyph glyph-name="uni04E8" unicode="&#x4e8;" horiz-adv-x="540" 
d="M439.5 751.5q51.5 -65.5 51.5 -190.5v-308q0 -126 -52 -194t-169 -68q-119 0 -170.5 67.5t-51.5 195.5v307q0 126 52 191t170 65t169.5 -65.5zM184 693.5q-22 -35.5 -22 -109.5v-137h215v137q0 74 -22 109.5t-85 35.5q-64 0 -86 -35.5zM355 117q22 37 22 112v141h-215
v-141q0 -75 22 -112t86 -37q63 0 85 37z" />
    <glyph glyph-name="uni04E9" unicode="&#x4e9;" horiz-adv-x="424" 
d="M342.5 531.5q38.5 -54.5 38.5 -158.5v-168q0 -104 -38.5 -158.5t-129.5 -54.5q-92 0 -130.5 54.5t-38.5 158.5v168q0 104 38.5 158.5t130.5 54.5q91 0 129.5 -54.5zM170.5 490q-13.5 -17 -16.5 -42.5t-3 -68.5v-45h123v45q0 43 -3 68.5t-16 42.5t-42 17t-42.5 -17z
M255 88q13 17 16 42t3 68v69h-123v-69q0 -43 3 -68t16.5 -42t42.5 -17t42 17z" />
    <glyph glyph-name="uni1E02" unicode="&#x1e02;" horiz-adv-x="524" 
d="M63 810h186q110 0 163 -49.5t53 -153.5q0 -155 -116 -171q72 -17 105 -67.5t33 -137.5q0 -109 -51.5 -170t-156.5 -61h-216v810zM243 472q70 0 97 30.5t27 104.5q0 54 -16.5 79.5t-49.5 32.5t-98 7h-27v-254h67zM252 81q50 0 77.5 15.5t38.5 47.5t11 87q0 78 -32 116.5
t-104 38.5h-67v-305h76zM208 1022h108v-119h-108v119z" />
    <glyph glyph-name="uni1E03" unicode="&#x1e03;" horiz-adv-x="447" 
d="M163 42v-42h-107v810h107v-278q47 54 109 54q79 0 105.5 -67.5t26.5 -149.5v-140q0 -237 -143 -237q-52 0 -98 50zM286.5 113.5q10.5 37.5 10.5 115.5v140q0 64 -12 98.5t-50 34.5q-35 0 -72 -29v-371q33 -26 76 -26q37 0 47.5 37.5zM56 1022h108v-119h-108v119z" />
    <glyph glyph-name="uni1E0A" unicode="&#x1e0a;" horiz-adv-x="527" 
d="M63 810h176q131 0 185.5 -60t54.5 -187v-298q0 -134 -53.5 -199.5t-177.5 -65.5h-185v810zM240 81q59 0 85.5 23t33 62.5t6.5 119.5v263q0 69 -8.5 105.5t-35.5 54t-84 17.5h-61v-645h64zM210 1022h108v-119h-108v119z" />
    <glyph glyph-name="uni1E0B" unicode="&#x1e0b;" horiz-adv-x="442" 
d="M78 46.5q-35 54.5 -35 180.5v112q0 115 30.5 181t111.5 66q51 0 96 -45v269h107v-810h-107v37q-42 -45 -93 -45q-75 0 -110 54.5zM281 98v379q-37 25 -68 25q-63 0 -63 -121v-163q0 -70 13 -106t52 -36q32 0 66 22zM281 1022h108v-119h-108v119z" />
    <glyph glyph-name="uni1E1E" unicode="&#x1e1e;" horiz-adv-x="391" 
d="M63 810h313v-81h-200v-270h155v-80h-155v-379h-113v810zM142 1022h108v-119h-108v119z" />
    <glyph glyph-name="uni1E1F" unicode="&#x1e1f;" horiz-adv-x="287" 
d="M88 499h-69v79h69v30q0 60 9 96.5t36.5 56.5t79.5 20q35 0 70 -7v-78q-20 5 -40 5q-29 0 -38.5 -18.5t-9.5 -56.5v-48h88v-79h-88v-499h-107v499zM142 988h108v-119h-108v119z" />
    <glyph glyph-name="uni1E40" unicode="&#x1e40;" horiz-adv-x="660" 
d="M76 810h111l143 -657l144 657h110l15 -810h-91l-9 588l-137 -588h-64l-136 588l-9 -588h-92zM276 1022h108v-119h-108v119z" />
    <glyph glyph-name="uni1E41" unicode="&#x1e41;" horiz-adv-x="680" 
d="M54 578h99v-55q29 32 63.5 48.5t72.5 16.5q74 0 94 -73q60 73 144 73q45 0 73.5 -33t28.5 -101v-454h-98v447q0 40 -13 55.5t-37 15.5q-22 0 -46 -12.5t-44 -34.5v-17v-454h-98v447q0 40 -13 55.5t-37 15.5q-21 0 -45 -12.5t-45 -34.5v-471h-99v578zM286 790h108v-119
h-108v119z" />
    <glyph glyph-name="uni1E56" unicode="&#x1e56;" horiz-adv-x="480" 
d="M63 810h201q105 0 152.5 -57t47.5 -167q0 -99 -51 -154t-148 -55h-89v-377h-113v810zM228 458q50 0 77.5 11t39.5 38t12 78q0 62 -9 91t-35.5 41t-83.5 12h-53v-271h52zM186 1022h108v-119h-108v119z" />
    <glyph glyph-name="uni1E57" unicode="&#x1e57;" horiz-adv-x="446" 
d="M54 578h107v-46q47 54 110 54q79 0 105.5 -67.5t26.5 -149.5v-140q0 -106 -32.5 -171.5t-111.5 -65.5q-51 0 -98 51v-233h-107v768zM285.5 113.5q10.5 37.5 10.5 115.5v140q0 64 -12 98.5t-50 34.5q-37 0 -73 -30v-370q35 -26 77 -26q37 0 47.5 37.5zM169 790h108v-119
h-108v119z" />
    <glyph glyph-name="uni1E60" unicode="&#x1e60;" horiz-adv-x="473" 
d="M98.5 54q-53.5 63 -59.5 173l100 27q5 -78 30.5 -126t84.5 -48q44 0 66.5 24.5t22.5 70.5q0 50 -21 83t-67 73l-136 120q-41 36 -59.5 77.5t-18.5 101.5q0 89 51 138t139 49q96 0 145 -51t59 -158l-96 -26q-5 71 -27.5 109.5t-80.5 38.5q-43 0 -66 -22.5t-23 -66.5
q0 -36 12 -60.5t41 -49.5l137 -120q53 -47 84.5 -102t31.5 -125q0 -89 -54 -141t-140 -52q-102 0 -155.5 63zM183 1022h108v-119h-108v119z" />
    <glyph glyph-name="uni1E61" unicode="&#x1e61;" horiz-adv-x="374" 
d="M74.5 36q-43.5 44 -49.5 118l89 27q8 -56 27.5 -83t55.5 -27q28 0 43.5 16.5t15.5 44.5q0 25 -11 45t-36 41l-99 85q-34 29 -52.5 61.5t-18.5 79.5q0 67 40 104.5t109 37.5q66 0 103.5 -42.5t43.5 -109.5l-72 -27q-7 49 -23 74.5t-48 25.5q-26 0 -41.5 -17t-15.5 -42
q0 -32 29 -58l102 -94q39 -36 60.5 -71t21.5 -85q0 -72 -43 -110t-117 -38q-70 0 -113.5 44zM133 790h108v-119h-108v119z" />
    <glyph glyph-name="uni1E6A" unicode="&#x1e6a;" horiz-adv-x="413" 
d="M152 726h-137v84h383v-84h-133v-726h-113v726zM152 1022h108v-119h-108v119z" />
    <glyph glyph-name="uni1E6B" unicode="&#x1e6b;" horiz-adv-x="308" 
d="M83 130v377h-61v71h61v169h107v-169h93v-71h-93v-370q0 -35 11 -49t42 -14q20 0 39 3v-79q-40 -6 -74 -6q-125 0 -125 138zM83 959h108v-119h-108v119z" />
    <glyph glyph-name="Wgrave" unicode="&#x1e80;" horiz-adv-x="729" 
d="M36 810h94l87 -582l109 579h80l110 -582l85 585h92l-130 -810h-82l-113 600l-114 -600h-86zM229 1056h107l57 -198h-53z" />
    <glyph glyph-name="wgrave" unicode="&#x1e81;" horiz-adv-x="588" 
d="M28 578h88l60 -426l77 426h82l77 -424l60 424h88l-96 -578h-90l-79 408l-78 -408h-96zM158 824h107l57 -198h-53z" />
    <glyph glyph-name="Wacute" unicode="&#x1e82;" horiz-adv-x="729" 
d="M36 810h94l87 -582l109 579h80l110 -582l85 585h92l-130 -810h-82l-113 600l-114 -600h-86zM396 1056h107l-112 -198h-54z" />
    <glyph glyph-name="wacute" unicode="&#x1e83;" horiz-adv-x="588" 
d="M28 578h88l60 -426l77 426h82l77 -424l60 424h88l-96 -578h-90l-79 408l-78 -408h-96zM325 824h107l-112 -198h-54z" />
    <glyph glyph-name="Wdieresis" unicode="&#x1e84;" horiz-adv-x="729" 
d="M36 810h94l87 -582l109 579h80l110 -582l85 585h92l-130 -810h-82l-113 600l-114 -600h-86zM225 1042h108v-111h-108v111zM397 1042h108v-111h-108v111z" />
    <glyph glyph-name="wdieresis" unicode="&#x1e85;" horiz-adv-x="588" 
d="M28 578h88l60 -426l77 426h82l77 -424l60 424h88l-96 -578h-90l-79 408l-78 -408h-96zM154 810h108v-111h-108v111zM326 810h108v-111h-108v111z" />
    <glyph glyph-name="uni1E9E" unicode="&#x1e9e;" horiz-adv-x="539" 
d="M509 230q0 -123 -51 -181t-150 -58h-54v81h34q58 0 85.5 36t27.5 119q0 84 -27.5 121.5t-85.5 37.5h-24v86l133 244q-37 13 -88 13q-140 0 -140 -167v-562h-113v557q0 121 61.5 190.5t186.5 69.5q96 0 176 -41v-89l-128 -236q157 -22 157 -221z" />
    <glyph glyph-name="uni1EA0" unicode="&#x1ea0;" horiz-adv-x="492" 
d="M191 810h109l173 -810h-107l-37 204h-165l-39 -204h-106zM314 285l-68 365l-67 -365h135zM192 -63h108v-113h-108v113z" />
    <glyph glyph-name="uni1EA1" unicode="&#x1ea1;" horiz-adv-x="426" 
d="M98.5 11q-26.5 19 -41.5 50t-15 65q0 68 29 110.5t74 67.5t125 57v41q0 57 -11.5 80.5t-46.5 23.5q-61 0 -61 -82v-29l-106 4q2 96 44 141.5t130 45.5q83 0 120.5 -45.5t37.5 -137.5v-264q0 -65 10 -139h-98q-11 57 -14 85q-12 -39 -41.5 -66t-75.5 -27q-33 0 -59.5 19z
M241 100.5q20 16.5 29 31.5v164q-43 -24 -66.5 -41.5t-39 -40.5t-15.5 -55q0 -36 13 -55.5t38 -19.5q21 0 41 16.5zM159 -63h108v-113h-108v113z" />
    <glyph glyph-name="uni1EA2" unicode="&#x1ea2;" horiz-adv-x="492" 
d="M191 810h109l173 -810h-107l-37 204h-165l-39 -204h-106zM314 285l-68 365l-67 -365h135zM213 908q33 14 49 27t16 31q0 20 -17 29.5t-44 9.5t-51 -7v54q39 10 81 10q49 0 80 -22t31 -65q0 -41 -28 -64.5t-83 -42.5z" />
    <glyph glyph-name="uni1EA3" unicode="&#x1ea3;" horiz-adv-x="426" 
d="M98.5 11q-26.5 19 -41.5 50t-15 65q0 68 29 110.5t74 67.5t125 57v41q0 57 -11.5 80.5t-46.5 23.5q-61 0 -61 -82v-29l-106 4q2 96 44 141.5t130 45.5q83 0 120.5 -45.5t37.5 -137.5v-264q0 -65 10 -139h-98q-11 57 -14 85q-12 -39 -41.5 -66t-75.5 -27q-33 0 -59.5 19z
M241 100.5q20 16.5 29 31.5v164q-43 -24 -66.5 -41.5t-39 -40.5t-15.5 -55q0 -36 13 -55.5t38 -19.5q21 0 41 16.5zM186 676q33 14 49 27t16 31q0 20 -17 29.5t-44 9.5t-51 -7v54q39 10 81 10q49 0 80 -22t31 -65q0 -41 -28 -64.5t-83 -42.5z" />
    <glyph glyph-name="uni1EA4" unicode="&#x1ea4;" horiz-adv-x="492" 
d="M191 810h109l173 -810h-107l-37 204h-165l-39 -204h-106zM314 285l-68 365l-67 -365h135zM426 1086h93l-80 -115h-66zM191 1022h109l87 -155h-81l-61 101l-60 -101h-80z" />
    <glyph glyph-name="uni1EA5" unicode="&#x1ea5;" horiz-adv-x="426" 
d="M98.5 11q-26.5 19 -41.5 50t-15 65q0 68 29 110.5t74 67.5t125 57v41q0 57 -11.5 80.5t-46.5 23.5q-61 0 -61 -82v-29l-106 4q2 96 44 141.5t130 45.5q83 0 120.5 -45.5t37.5 -137.5v-264q0 -65 10 -139h-98q-11 57 -14 85q-12 -39 -41.5 -66t-75.5 -27q-33 0 -59.5 19z
M241 100.5q20 16.5 29 31.5v164q-43 -24 -66.5 -41.5t-39 -40.5t-15.5 -55q0 -36 13 -55.5t38 -19.5q21 0 41 16.5zM399 854h93l-80 -115h-66zM164 790h109l87 -155h-81l-61 101l-60 -101h-80z" />
    <glyph glyph-name="uni1EA6" unicode="&#x1ea6;" horiz-adv-x="492" 
d="M191 810h109l173 -810h-107l-37 204h-165l-39 -204h-106zM314 285l-68 365l-67 -365h135zM318 1086h93l53 -115h-66zM191 1022h109l87 -155h-81l-61 101l-60 -101h-80z" />
    <glyph glyph-name="uni1EA7" unicode="&#x1ea7;" horiz-adv-x="426" 
d="M98.5 11q-26.5 19 -41.5 50t-15 65q0 68 29 110.5t74 67.5t125 57v41q0 57 -11.5 80.5t-46.5 23.5q-61 0 -61 -82v-29l-106 4q2 96 44 141.5t130 45.5q83 0 120.5 -45.5t37.5 -137.5v-264q0 -65 10 -139h-98q-11 57 -14 85q-12 -39 -41.5 -66t-75.5 -27q-33 0 -59.5 19z
M241 100.5q20 16.5 29 31.5v164q-43 -24 -66.5 -41.5t-39 -40.5t-15.5 -55q0 -36 13 -55.5t38 -19.5q21 0 41 16.5zM291 854h93l53 -115h-66zM164 790h109l87 -155h-81l-61 101l-60 -101h-80z" />
    <glyph glyph-name="uni1EA8" unicode="&#x1ea8;" horiz-adv-x="492" 
d="M191 810h109l173 -810h-107l-37 204h-165l-39 -204h-106zM314 285l-68 365l-67 -365h135zM363 989q25 14 36.5 27t11.5 31q0 20 -13.5 29.5t-35.5 9.5q-25 0 -46 -7v54q34 10 73 10q45 0 73.5 -22t28.5 -65q0 -41 -24 -64.5t-70 -42.5zM191 1022h109l87 -155h-81l-61 101
l-60 -101h-80z" />
    <glyph glyph-name="uni1EA9" unicode="&#x1ea9;" horiz-adv-x="426" 
d="M98.5 11q-26.5 19 -41.5 50t-15 65q0 68 29 110.5t74 67.5t125 57v41q0 57 -11.5 80.5t-46.5 23.5q-61 0 -61 -82v-29l-106 4q2 96 44 141.5t130 45.5q83 0 120.5 -45.5t37.5 -137.5v-264q0 -65 10 -139h-98q-11 57 -14 85q-12 -39 -41.5 -66t-75.5 -27q-33 0 -59.5 19z
M241 100.5q20 16.5 29 31.5v164q-43 -24 -66.5 -41.5t-39 -40.5t-15.5 -55q0 -36 13 -55.5t38 -19.5q21 0 41 16.5zM336 757q25 14 36.5 27t11.5 31q0 20 -13.5 29.5t-35.5 9.5q-25 0 -46 -7v54q34 10 73 10q45 0 73.5 -22t28.5 -65q0 -41 -24 -64.5t-70 -42.5zM164 790h109
l87 -155h-81l-61 101l-60 -101h-80z" />
    <glyph glyph-name="uni1EAA" unicode="&#x1eaa;" horiz-adv-x="492" 
d="M191 810h109l173 -810h-107l-37 204h-165l-39 -204h-106zM314 285l-68 365l-67 -365h135zM191 1022h109l87 -155h-81l-61 101l-60 -101h-80zM285.5 1075q-16.5 7 -37.5 20q-20 11 -32 16.5t-25 5.5q-18 0 -26 -9.5t-8 -31.5h-61q0 108 80 108q17 0 32.5 -6.5t35.5 -18.5
t32.5 -17.5t26.5 -5.5q18 0 25.5 9.5t7.5 32.5h60q0 -51 -16.5 -80.5t-57.5 -29.5q-20 0 -36.5 7z" />
    <glyph glyph-name="uni1EAB" unicode="&#x1eab;" horiz-adv-x="426" 
d="M98.5 11q-26.5 19 -41.5 50t-15 65q0 68 29 110.5t74 67.5t125 57v41q0 57 -11.5 80.5t-46.5 23.5q-61 0 -61 -82v-29l-106 4q2 96 44 141.5t130 45.5q83 0 120.5 -45.5t37.5 -137.5v-264q0 -65 10 -139h-98q-11 57 -14 85q-12 -39 -41.5 -66t-75.5 -27q-33 0 -59.5 19z
M241 100.5q20 16.5 29 31.5v164q-43 -24 -66.5 -41.5t-39 -40.5t-15.5 -55q0 -36 13 -55.5t38 -19.5q21 0 41 16.5zM164 790h109l87 -155h-81l-61 101l-60 -101h-80zM258.5 843q-16.5 7 -37.5 20q-20 11 -32 16.5t-25 5.5q-18 0 -26 -9.5t-8 -31.5h-61q0 108 80 108
q17 0 32.5 -6.5t35.5 -18.5t32.5 -17.5t26.5 -5.5q18 0 25.5 9.5t7.5 32.5h60q0 -51 -16.5 -80.5t-57.5 -29.5q-20 0 -36.5 7z" />
    <glyph glyph-name="uni1EAC" unicode="&#x1eac;" horiz-adv-x="492" 
d="M191 810h109l173 -810h-107l-37 204h-165l-39 -204h-106zM314 285l-68 365l-67 -365h135zM191 1022h109l87 -155h-81l-61 101l-60 -101h-80zM192 -63h108v-113h-108v113z" />
    <glyph glyph-name="uni1EAD" unicode="&#x1ead;" horiz-adv-x="426" 
d="M98.5 11q-26.5 19 -41.5 50t-15 65q0 68 29 110.5t74 67.5t125 57v41q0 57 -11.5 80.5t-46.5 23.5q-61 0 -61 -82v-29l-106 4q2 96 44 141.5t130 45.5q83 0 120.5 -45.5t37.5 -137.5v-264q0 -65 10 -139h-98q-11 57 -14 85q-12 -39 -41.5 -66t-75.5 -27q-33 0 -59.5 19z
M241 100.5q20 16.5 29 31.5v164q-43 -24 -66.5 -41.5t-39 -40.5t-15.5 -55q0 -36 13 -55.5t38 -19.5q21 0 41 16.5zM159 -63h108v-113h-108v113zM164 790h109l87 -155h-81l-61 101l-60 -101h-80z" />
    <glyph glyph-name="uni1EAE" unicode="&#x1eae;" horiz-adv-x="492" 
d="M191 810h109l173 -810h-107l-37 204h-165l-39 -204h-106zM314 285l-68 365l-67 -365h135zM259 1157h107l-107 -118h-64zM146.5 891q-31.5 37 -31.5 99h62q1 -38 17 -56.5t52 -18.5q69 0 69 75h63q0 -62 -31.5 -99t-100.5 -37q-68 0 -99.5 37z" />
    <glyph glyph-name="uni1EAF" unicode="&#x1eaf;" horiz-adv-x="426" 
d="M98.5 11q-26.5 19 -41.5 50t-15 65q0 68 29 110.5t74 67.5t125 57v41q0 57 -11.5 80.5t-46.5 23.5q-61 0 -61 -82v-29l-106 4q2 96 44 141.5t130 45.5q83 0 120.5 -45.5t37.5 -137.5v-264q0 -65 10 -139h-98q-11 57 -14 85q-12 -39 -41.5 -66t-75.5 -27q-33 0 -59.5 19z
M241 100.5q20 16.5 29 31.5v164q-43 -24 -66.5 -41.5t-39 -40.5t-15.5 -55q0 -36 13 -55.5t38 -19.5q21 0 41 16.5zM232 925h107l-107 -118h-64zM119.5 659q-31.5 37 -31.5 99h62q1 -38 17 -56.5t52 -18.5q69 0 69 75h63q0 -62 -31.5 -99t-100.5 -37q-68 0 -99.5 37z" />
    <glyph glyph-name="uni1EB0" unicode="&#x1eb0;" horiz-adv-x="492" 
d="M191 810h109l173 -810h-107l-37 204h-165l-39 -204h-106zM314 285l-68 365l-67 -365h135zM122 1157h107l64 -118h-64zM146.5 891q-31.5 37 -31.5 99h62q1 -38 17 -56.5t52 -18.5q69 0 69 75h63q0 -62 -31.5 -99t-100.5 -37q-68 0 -99.5 37z" />
    <glyph glyph-name="uni1EB1" unicode="&#x1eb1;" horiz-adv-x="426" 
d="M98.5 11q-26.5 19 -41.5 50t-15 65q0 68 29 110.5t74 67.5t125 57v41q0 57 -11.5 80.5t-46.5 23.5q-61 0 -61 -82v-29l-106 4q2 96 44 141.5t130 45.5q83 0 120.5 -45.5t37.5 -137.5v-264q0 -65 10 -139h-98q-11 57 -14 85q-12 -39 -41.5 -66t-75.5 -27q-33 0 -59.5 19z
M241 100.5q20 16.5 29 31.5v164q-43 -24 -66.5 -41.5t-39 -40.5t-15.5 -55q0 -36 13 -55.5t38 -19.5q21 0 41 16.5zM95 925h107l64 -118h-64zM119.5 659q-31.5 37 -31.5 99h62q1 -38 17 -56.5t52 -18.5q69 0 69 75h63q0 -62 -31.5 -99t-100.5 -37q-68 0 -99.5 37z" />
    <glyph glyph-name="uni1EB2" unicode="&#x1eb2;" horiz-adv-x="492" 
d="M191 810h109l173 -810h-107l-37 204h-165l-39 -204h-106zM314 285l-68 365l-67 -365h135zM216 1050q25 14 36.5 27t11.5 31q0 20 -13.5 29.5t-35.5 9.5q-25 0 -46 -7v54q34 10 73 10q45 0 73.5 -22t28.5 -65q0 -69 -94 -107zM146.5 910q-31.5 37 -31.5 99h62
q1 -38 17 -56.5t52 -18.5q69 0 69 75h63q0 -62 -31.5 -99t-100.5 -37q-68 0 -99.5 37z" />
    <glyph glyph-name="uni1EB3" unicode="&#x1eb3;" horiz-adv-x="426" 
d="M98.5 11q-26.5 19 -41.5 50t-15 65q0 68 29 110.5t74 67.5t125 57v41q0 57 -11.5 80.5t-46.5 23.5q-61 0 -61 -82v-29l-106 4q2 96 44 141.5t130 45.5q83 0 120.5 -45.5t37.5 -137.5v-264q0 -65 10 -139h-98q-11 57 -14 85q-12 -39 -41.5 -66t-75.5 -27q-33 0 -59.5 19z
M241 100.5q20 16.5 29 31.5v164q-43 -24 -66.5 -41.5t-39 -40.5t-15.5 -55q0 -36 13 -55.5t38 -19.5q21 0 41 16.5zM189 818q25 14 36.5 27t11.5 31q0 20 -13.5 29.5t-35.5 9.5q-25 0 -46 -7v54q34 10 73 10q45 0 73.5 -22t28.5 -65q0 -69 -94 -107zM119.5 678
q-31.5 37 -31.5 99h62q1 -38 17 -56.5t52 -18.5q69 0 69 75h63q0 -62 -31.5 -99t-100.5 -37q-68 0 -99.5 37z" />
    <glyph glyph-name="uni1EB4" unicode="&#x1eb4;" horiz-adv-x="492" 
d="M191 810h109l173 -810h-107l-37 204h-165l-39 -204h-106zM314 285l-68 365l-67 -365h135zM145.5 910q-31.5 37 -31.5 99h62q1 -38 17 -56.5t52 -18.5q69 0 69 75h63q0 -62 -31.5 -99t-100.5 -37q-68 0 -99.5 37zM285.5 1065q-16.5 7 -37.5 20q-20 11 -32 16.5t-25 5.5
q-18 0 -26 -9.5t-8 -31.5h-61q0 108 80 108q17 0 32.5 -6.5t35.5 -18.5t32.5 -17.5t26.5 -5.5q18 0 25.5 9.5t7.5 32.5h60q0 -51 -16.5 -80.5t-57.5 -29.5q-20 0 -36.5 7z" />
    <glyph glyph-name="uni1EB5" unicode="&#x1eb5;" horiz-adv-x="426" 
d="M98.5 11q-26.5 19 -41.5 50t-15 65q0 68 29 110.5t74 67.5t125 57v41q0 57 -11.5 80.5t-46.5 23.5q-61 0 -61 -82v-29l-106 4q2 96 44 141.5t130 45.5q83 0 120.5 -45.5t37.5 -137.5v-264q0 -65 10 -139h-98q-11 57 -14 85q-12 -39 -41.5 -66t-75.5 -27q-33 0 -59.5 19z
M241 100.5q20 16.5 29 31.5v164q-43 -24 -66.5 -41.5t-39 -40.5t-15.5 -55q0 -36 13 -55.5t38 -19.5q21 0 41 16.5zM118.5 678q-31.5 37 -31.5 99h62q1 -38 17 -56.5t52 -18.5q69 0 69 75h63q0 -62 -31.5 -99t-100.5 -37q-68 0 -99.5 37zM258.5 833q-16.5 7 -37.5 20
q-20 11 -32 16.5t-25 5.5q-18 0 -26 -9.5t-8 -31.5h-61q0 108 80 108q17 0 32.5 -6.5t35.5 -18.5t32.5 -17.5t26.5 -5.5q18 0 25.5 9.5t7.5 32.5h60q0 -51 -16.5 -80.5t-57.5 -29.5q-20 0 -36.5 7z" />
    <glyph glyph-name="uni1EB6" unicode="&#x1eb6;" horiz-adv-x="492" 
d="M191 810h109l173 -810h-107l-37 204h-165l-39 -204h-106zM314 285l-68 365l-67 -365h135zM192 -63h108v-113h-108v113zM146.5 910q-31.5 37 -31.5 99h62q1 -38 17 -56.5t52 -18.5q69 0 69 75h63q0 -62 -31.5 -99t-100.5 -37q-68 0 -99.5 37z" />
    <glyph glyph-name="uni1EB7" unicode="&#x1eb7;" horiz-adv-x="426" 
d="M98.5 11q-26.5 19 -41.5 50t-15 65q0 68 29 110.5t74 67.5t125 57v41q0 57 -11.5 80.5t-46.5 23.5q-61 0 -61 -82v-29l-106 4q2 96 44 141.5t130 45.5q83 0 120.5 -45.5t37.5 -137.5v-264q0 -65 10 -139h-98q-11 57 -14 85q-12 -39 -41.5 -66t-75.5 -27q-33 0 -59.5 19z
M241 100.5q20 16.5 29 31.5v164q-43 -24 -66.5 -41.5t-39 -40.5t-15.5 -55q0 -36 13 -55.5t38 -19.5q21 0 41 16.5zM159 -63h108v-113h-108v113zM119.5 678q-31.5 37 -31.5 99h62q1 -38 17 -56.5t52 -18.5q69 0 69 75h63q0 -62 -31.5 -99t-100.5 -37q-68 0 -99.5 37z" />
    <glyph glyph-name="uni1EB8" unicode="&#x1eb8;" horiz-adv-x="407" 
d="M63 810h314v-84h-201v-268h163v-80h-163v-297h203v-81h-316v810zM150 -63h108v-113h-108v113z" />
    <glyph glyph-name="uni1EB9" unicode="&#x1eb9;" horiz-adv-x="421" 
d="M110 17.5q-37 25.5 -52 75.5t-15 130v132q0 120 37.5 175.5t133.5 55.5q70 0 105.5 -29t47 -81.5t11.5 -141.5v-47h-228v-116q0 -53 15.5 -76.5t49.5 -23.5t46 23.5t12 71.5v35h104v-22q0 -91 -39 -139t-124 -48q-67 0 -104 25.5zM273 345v52q0 59 -11.5 84.5t-48.5 25.5
q-26 0 -39.5 -12t-18.5 -39.5t-5 -79.5v-31h123zM157 -63h108v-113h-108v113z" />
    <glyph glyph-name="uni1EBA" unicode="&#x1eba;" horiz-adv-x="407" 
d="M63 810h314v-84h-201v-268h163v-80h-163v-297h203v-81h-316v810zM191 908q33 14 49 27t16 31q0 20 -17 29.5t-44 9.5t-51 -7v54q39 10 81 10q49 0 80 -22t31 -65q0 -41 -28 -64.5t-83 -42.5z" />
    <glyph glyph-name="uni1EBB" unicode="&#x1ebb;" horiz-adv-x="421" 
d="M110 17.5q-37 25.5 -52 75.5t-15 130v132q0 120 37.5 175.5t133.5 55.5q70 0 105.5 -29t47 -81.5t11.5 -141.5v-47h-228v-116q0 -53 15.5 -76.5t49.5 -23.5t46 23.5t12 71.5v35h104v-22q0 -91 -39 -139t-124 -48q-67 0 -104 25.5zM273 345v52q0 59 -11.5 84.5t-48.5 25.5
q-26 0 -39.5 -12t-18.5 -39.5t-5 -79.5v-31h123zM178 676q33 14 49 27t16 31q0 20 -17 29.5t-44 9.5t-51 -7v54q39 10 81 10q49 0 80 -22t31 -65q0 -41 -28 -64.5t-83 -42.5z" />
    <glyph glyph-name="uni1EBC" unicode="&#x1ebc;" horiz-adv-x="407" 
d="M63 810h314v-84h-201v-268h163v-80h-163v-297h203v-81h-316v810zM263.5 939q-16.5 7 -37.5 20q-20 11 -32 16.5t-25 5.5q-18 0 -26 -9.5t-8 -31.5h-61q0 108 80 108q17 0 32.5 -6.5t35.5 -18.5t32.5 -17.5t26.5 -5.5q18 0 25.5 9.5t7.5 32.5h60q0 -51 -16.5 -80.5
t-57.5 -29.5q-20 0 -36.5 7z" />
    <glyph glyph-name="uni1EBD" unicode="&#x1ebd;" horiz-adv-x="421" 
d="M110 17.5q-37 25.5 -52 75.5t-15 130v132q0 120 37.5 175.5t133.5 55.5q70 0 105.5 -29t47 -81.5t11.5 -141.5v-47h-228v-116q0 -53 15.5 -76.5t49.5 -23.5t46 23.5t12 71.5v35h104v-22q0 -91 -39 -139t-124 -48q-67 0 -104 25.5zM273 345v52q0 59 -11.5 84.5t-48.5 25.5
q-26 0 -39.5 -12t-18.5 -39.5t-5 -79.5v-31h123zM250.5 707q-16.5 7 -37.5 20q-20 11 -32 16.5t-25 5.5q-18 0 -26 -9.5t-8 -31.5h-61q0 108 80 108q17 0 32.5 -6.5t35.5 -18.5t32.5 -17.5t26.5 -5.5q18 0 25.5 9.5t7.5 32.5h60q0 -51 -16.5 -80.5t-57.5 -29.5
q-20 0 -36.5 7z" />
    <glyph glyph-name="uni1EBE" unicode="&#x1ebe;" horiz-adv-x="407" 
d="M63 810h314v-84h-201v-268h163v-80h-163v-297h203v-81h-316v810zM404 1086h93l-80 -115h-66zM169 1022h109l87 -155h-81l-61 101l-60 -101h-80z" />
    <glyph glyph-name="uni1EBF" unicode="&#x1ebf;" horiz-adv-x="421" 
d="M110 17.5q-37 25.5 -52 75.5t-15 130v132q0 120 37.5 175.5t133.5 55.5q70 0 105.5 -29t47 -81.5t11.5 -141.5v-47h-228v-116q0 -53 15.5 -76.5t49.5 -23.5t46 23.5t12 71.5v35h104v-22q0 -91 -39 -139t-124 -48q-67 0 -104 25.5zM273 345v52q0 59 -11.5 84.5t-48.5 25.5
q-26 0 -39.5 -12t-18.5 -39.5t-5 -79.5v-31h123zM391 854h93l-80 -115h-66zM156 790h109l87 -155h-81l-61 101l-60 -101h-80z" />
    <glyph glyph-name="uni1EC0" unicode="&#x1ec0;" horiz-adv-x="407" 
d="M63 810h314v-84h-201v-268h163v-80h-163v-297h203v-81h-316v810zM296 1086h93l53 -115h-66zM169 1022h109l87 -155h-81l-61 101l-60 -101h-80z" />
    <glyph glyph-name="uni1EC1" unicode="&#x1ec1;" horiz-adv-x="421" 
d="M110 17.5q-37 25.5 -52 75.5t-15 130v132q0 120 37.5 175.5t133.5 55.5q70 0 105.5 -29t47 -81.5t11.5 -141.5v-47h-228v-116q0 -53 15.5 -76.5t49.5 -23.5t46 23.5t12 71.5v35h104v-22q0 -91 -39 -139t-124 -48q-67 0 -104 25.5zM273 345v52q0 59 -11.5 84.5t-48.5 25.5
q-26 0 -39.5 -12t-18.5 -39.5t-5 -79.5v-31h123zM283 854h93l53 -115h-66zM156 790h109l87 -155h-81l-61 101l-60 -101h-80z" />
    <glyph glyph-name="uni1EC2" unicode="&#x1ec2;" horiz-adv-x="407" 
d="M63 810h314v-84h-201v-268h163v-80h-163v-297h203v-81h-316v810zM341 989q25 14 36.5 27t11.5 31q0 20 -13.5 29.5t-35.5 9.5q-25 0 -46 -7v54q34 10 73 10q45 0 73.5 -22t28.5 -65q0 -41 -24 -64.5t-70 -42.5zM169 1022h109l87 -155h-81l-61 101l-60 -101h-80z" />
    <glyph glyph-name="uni1EC3" unicode="&#x1ec3;" horiz-adv-x="421" 
d="M110 17.5q-37 25.5 -52 75.5t-15 130v132q0 120 37.5 175.5t133.5 55.5q70 0 105.5 -29t47 -81.5t11.5 -141.5v-47h-228v-116q0 -53 15.5 -76.5t49.5 -23.5t46 23.5t12 71.5v35h104v-22q0 -91 -39 -139t-124 -48q-67 0 -104 25.5zM273 345v52q0 59 -11.5 84.5t-48.5 25.5
q-26 0 -39.5 -12t-18.5 -39.5t-5 -79.5v-31h123zM328 757q25 14 36.5 27t11.5 31q0 20 -13.5 29.5t-35.5 9.5q-25 0 -46 -7v54q34 10 73 10q45 0 73.5 -22t28.5 -65q0 -41 -24 -64.5t-70 -42.5zM156 790h109l87 -155h-81l-61 101l-60 -101h-80z" />
    <glyph glyph-name="uni1EC4" unicode="&#x1ec4;" horiz-adv-x="407" 
d="M63 810h314v-84h-201v-268h163v-80h-163v-297h203v-81h-316v810zM169 1022h109l87 -155h-81l-61 101l-60 -101h-80zM263.5 1075q-16.5 7 -37.5 20q-20 11 -32 16.5t-25 5.5q-18 0 -26 -9.5t-8 -31.5h-61q0 108 80 108q17 0 32.5 -6.5t35.5 -18.5t32.5 -17.5t26.5 -5.5
q18 0 25.5 9.5t7.5 32.5h60q0 -51 -16.5 -80.5t-57.5 -29.5q-20 0 -36.5 7z" />
    <glyph glyph-name="uni1EC5" unicode="&#x1ec5;" horiz-adv-x="421" 
d="M110 17.5q-37 25.5 -52 75.5t-15 130v132q0 120 37.5 175.5t133.5 55.5q70 0 105.5 -29t47 -81.5t11.5 -141.5v-47h-228v-116q0 -53 15.5 -76.5t49.5 -23.5t46 23.5t12 71.5v35h104v-22q0 -91 -39 -139t-124 -48q-67 0 -104 25.5zM273 345v52q0 59 -11.5 84.5t-48.5 25.5
q-26 0 -39.5 -12t-18.5 -39.5t-5 -79.5v-31h123zM156 790h109l87 -155h-81l-61 101l-60 -101h-80zM250.5 843q-16.5 7 -37.5 20q-20 11 -32 16.5t-25 5.5q-18 0 -26 -9.5t-8 -31.5h-61q0 108 80 108q17 0 32.5 -6.5t35.5 -18.5t32.5 -17.5t26.5 -5.5q18 0 25.5 9.5t7.5 32.5
h60q0 -51 -16.5 -80.5t-57.5 -29.5q-20 0 -36.5 7z" />
    <glyph glyph-name="uni1EC6" unicode="&#x1ec6;" horiz-adv-x="407" 
d="M63 810h314v-84h-201v-268h163v-80h-163v-297h203v-81h-316v810zM169 1022h109l87 -155h-81l-61 101l-60 -101h-80zM150 -63h108v-113h-108v113z" />
    <glyph glyph-name="uni1EC7" unicode="&#x1ec7;" horiz-adv-x="421" 
d="M110 17.5q-37 25.5 -52 75.5t-15 130v132q0 120 37.5 175.5t133.5 55.5q70 0 105.5 -29t47 -81.5t11.5 -141.5v-47h-228v-116q0 -53 15.5 -76.5t49.5 -23.5t46 23.5t12 71.5v35h104v-22q0 -91 -39 -139t-124 -48q-67 0 -104 25.5zM273 345v52q0 59 -11.5 84.5t-48.5 25.5
q-26 0 -39.5 -12t-18.5 -39.5t-5 -79.5v-31h123zM157 -63h108v-113h-108v113zM156 790h109l87 -155h-81l-61 101l-60 -101h-80z" />
    <glyph glyph-name="uni1EC8" unicode="&#x1ec8;" horiz-adv-x="248" 
d="M69 810h111v-810h-111v810zM91 908q33 14 49 27t16 31q0 20 -17 29.5t-44 9.5t-51 -7v54q39 10 81 10q49 0 80 -22t31 -65q0 -41 -28 -64.5t-83 -42.5z" />
    <glyph glyph-name="uni1EC9" unicode="&#x1ec9;" horiz-adv-x="224" 
d="M61 578h107v-578h-107v578zM82 676q33 14 49 27t16 31q0 20 -17 29.5t-44 9.5t-51 -7v54q39 10 81 10q49 0 80 -22t31 -65q0 -41 -28 -64.5t-83 -42.5z" />
    <glyph glyph-name="uni1ECA" unicode="&#x1eca;" horiz-adv-x="248" 
d="M69 810h111v-810h-111v810zM70 -63h108v-113h-108v113z" />
    <glyph glyph-name="uni1ECB" unicode="&#x1ecb;" horiz-adv-x="229" 
d="M61 776h107v-112h-107v112zM61 578h107v-578h-107v578zM61 -63h108v-113h-108v113z" />
    <glyph glyph-name="uni1ECC" unicode="&#x1ecc;" horiz-adv-x="539" 
d="M99.5 58.5q-51.5 67.5 -51.5 195.5v307q0 126 52 191t170 65t169.5 -65.5t51.5 -190.5v-308q0 -126 -52 -194t-169 -68q-119 0 -170.5 67.5zM355 117q22 37 22 112v355q0 74 -22 109.5t-85 35.5q-64 0 -86 -35.5t-22 -109.5v-355q0 -75 22 -112t86 -37q63 0 85 37z
M216 -63h108v-113h-108v113z" />
    <glyph glyph-name="uni1ECD" unicode="&#x1ecd;" horiz-adv-x="425" 
d="M82.5 46.5q-38.5 54.5 -38.5 158.5v168q0 104 38.5 158.5t130.5 54.5q91 0 129.5 -54.5t38.5 -158.5v-168q0 -104 -38.5 -158.5t-129.5 -54.5q-92 0 -130.5 54.5zM255 88q13 17 16 42t3 68v181q0 43 -3 68.5t-16 42.5t-42 17t-42.5 -17t-16.5 -42.5t-3 -68.5v-181
q0 -43 3 -68t16.5 -42t42.5 -17t42 17zM159 -63h108v-113h-108v113z" />
    <glyph glyph-name="uni1ECE" unicode="&#x1ece;" horiz-adv-x="539" 
d="M99.5 58.5q-51.5 67.5 -51.5 195.5v307q0 126 52 191t170 65t169.5 -65.5t51.5 -190.5v-308q0 -126 -52 -194t-169 -68q-119 0 -170.5 67.5zM355 117q22 37 22 112v355q0 74 -22 109.5t-85 35.5q-64 0 -86 -35.5t-22 -109.5v-355q0 -75 22 -112t86 -37q63 0 85 37z
M237 908q33 14 49 27t16 31q0 20 -17 29.5t-44 9.5t-51 -7v54q39 10 81 10q49 0 80 -22t31 -65q0 -41 -28 -64.5t-83 -42.5z" />
    <glyph glyph-name="uni1ECF" unicode="&#x1ecf;" horiz-adv-x="425" 
d="M82.5 46.5q-38.5 54.5 -38.5 158.5v168q0 104 38.5 158.5t130.5 54.5q91 0 129.5 -54.5t38.5 -158.5v-168q0 -104 -38.5 -158.5t-129.5 -54.5q-92 0 -130.5 54.5zM255 88q13 17 16 42t3 68v181q0 43 -3 68.5t-16 42.5t-42 17t-42.5 -17t-16.5 -42.5t-3 -68.5v-181
q0 -43 3 -68t16.5 -42t42.5 -17t42 17zM180 676q33 14 49 27t16 31q0 20 -17 29.5t-44 9.5t-51 -7v54q39 10 81 10q49 0 80 -22t31 -65q0 -41 -28 -64.5t-83 -42.5z" />
    <glyph glyph-name="uni1ED0" unicode="&#x1ed0;" horiz-adv-x="539" 
d="M99.5 58.5q-51.5 67.5 -51.5 195.5v307q0 126 52 191t170 65t169.5 -65.5t51.5 -190.5v-308q0 -126 -52 -194t-169 -68q-119 0 -170.5 67.5zM355 117q22 37 22 112v355q0 74 -22 109.5t-85 35.5q-64 0 -86 -35.5t-22 -109.5v-355q0 -75 22 -112t86 -37q63 0 85 37z
M450 1086h93l-80 -115h-66zM215 1022h109l87 -155h-81l-61 101l-60 -101h-80z" />
    <glyph glyph-name="uni1ED1" unicode="&#x1ed1;" horiz-adv-x="425" 
d="M82.5 46.5q-38.5 54.5 -38.5 158.5v168q0 104 38.5 158.5t130.5 54.5q91 0 129.5 -54.5t38.5 -158.5v-168q0 -104 -38.5 -158.5t-129.5 -54.5q-92 0 -130.5 54.5zM255 88q13 17 16 42t3 68v181q0 43 -3 68.5t-16 42.5t-42 17t-42.5 -17t-16.5 -42.5t-3 -68.5v-181
q0 -43 3 -68t16.5 -42t42.5 -17t42 17zM393 854h93l-80 -115h-66zM158 790h109l87 -155h-81l-61 101l-60 -101h-80z" />
    <glyph glyph-name="uni1ED2" unicode="&#x1ed2;" horiz-adv-x="539" 
d="M99.5 58.5q-51.5 67.5 -51.5 195.5v307q0 126 52 191t170 65t169.5 -65.5t51.5 -190.5v-308q0 -126 -52 -194t-169 -68q-119 0 -170.5 67.5zM355 117q22 37 22 112v355q0 74 -22 109.5t-85 35.5q-64 0 -86 -35.5t-22 -109.5v-355q0 -75 22 -112t86 -37q63 0 85 37z
M342 1086h93l53 -115h-66zM215 1022h109l87 -155h-81l-61 101l-60 -101h-80z" />
    <glyph glyph-name="uni1ED3" unicode="&#x1ed3;" horiz-adv-x="425" 
d="M82.5 46.5q-38.5 54.5 -38.5 158.5v168q0 104 38.5 158.5t130.5 54.5q91 0 129.5 -54.5t38.5 -158.5v-168q0 -104 -38.5 -158.5t-129.5 -54.5q-92 0 -130.5 54.5zM255 88q13 17 16 42t3 68v181q0 43 -3 68.5t-16 42.5t-42 17t-42.5 -17t-16.5 -42.5t-3 -68.5v-181
q0 -43 3 -68t16.5 -42t42.5 -17t42 17zM285 854h93l53 -115h-66zM158 790h109l87 -155h-81l-61 101l-60 -101h-80z" />
    <glyph glyph-name="uni1ED4" unicode="&#x1ed4;" horiz-adv-x="539" 
d="M99.5 58.5q-51.5 67.5 -51.5 195.5v307q0 126 52 191t170 65t169.5 -65.5t51.5 -190.5v-308q0 -126 -52 -194t-169 -68q-119 0 -170.5 67.5zM355 117q22 37 22 112v355q0 74 -22 109.5t-85 35.5q-64 0 -86 -35.5t-22 -109.5v-355q0 -75 22 -112t86 -37q63 0 85 37z
M387 989q25 14 36.5 27t11.5 31q0 20 -13.5 29.5t-35.5 9.5q-25 0 -46 -7v54q34 10 73 10q45 0 73.5 -22t28.5 -65q0 -41 -24 -64.5t-70 -42.5zM215 1022h109l87 -155h-81l-61 101l-60 -101h-80z" />
    <glyph glyph-name="uni1ED5" unicode="&#x1ed5;" horiz-adv-x="425" 
d="M82.5 46.5q-38.5 54.5 -38.5 158.5v168q0 104 38.5 158.5t130.5 54.5q91 0 129.5 -54.5t38.5 -158.5v-168q0 -104 -38.5 -158.5t-129.5 -54.5q-92 0 -130.5 54.5zM255 88q13 17 16 42t3 68v181q0 43 -3 68.5t-16 42.5t-42 17t-42.5 -17t-16.5 -42.5t-3 -68.5v-181
q0 -43 3 -68t16.5 -42t42.5 -17t42 17zM330 757q25 14 36.5 27t11.5 31q0 20 -13.5 29.5t-35.5 9.5q-25 0 -46 -7v54q34 10 73 10q45 0 73.5 -22t28.5 -65q0 -41 -24 -64.5t-70 -42.5zM158 790h109l87 -155h-81l-61 101l-60 -101h-80z" />
    <glyph glyph-name="uni1ED6" unicode="&#x1ed6;" horiz-adv-x="539" 
d="M99.5 58.5q-51.5 67.5 -51.5 195.5v307q0 126 52 191t170 65t169.5 -65.5t51.5 -190.5v-308q0 -126 -52 -194t-169 -68q-119 0 -170.5 67.5zM355 117q22 37 22 112v355q0 74 -22 109.5t-85 35.5q-64 0 -86 -35.5t-22 -109.5v-355q0 -75 22 -112t86 -37q63 0 85 37z
M215 1022h109l87 -155h-81l-61 101l-60 -101h-80zM309.5 1075q-16.5 7 -37.5 20q-20 11 -32 16.5t-25 5.5q-18 0 -26 -9.5t-8 -31.5h-61q0 108 80 108q17 0 32.5 -6.5t35.5 -18.5t32.5 -17.5t26.5 -5.5q18 0 25.5 9.5t7.5 32.5h60q0 -51 -16.5 -80.5t-57.5 -29.5
q-20 0 -36.5 7z" />
    <glyph glyph-name="uni1ED7" unicode="&#x1ed7;" horiz-adv-x="425" 
d="M82.5 46.5q-38.5 54.5 -38.5 158.5v168q0 104 38.5 158.5t130.5 54.5q91 0 129.5 -54.5t38.5 -158.5v-168q0 -104 -38.5 -158.5t-129.5 -54.5q-92 0 -130.5 54.5zM255 88q13 17 16 42t3 68v181q0 43 -3 68.5t-16 42.5t-42 17t-42.5 -17t-16.5 -42.5t-3 -68.5v-181
q0 -43 3 -68t16.5 -42t42.5 -17t42 17zM158 790h109l87 -155h-81l-61 101l-60 -101h-80zM252.5 843q-16.5 7 -37.5 20q-20 11 -32 16.5t-25 5.5q-18 0 -26 -9.5t-8 -31.5h-61q0 108 80 108q17 0 32.5 -6.5t35.5 -18.5t32.5 -17.5t26.5 -5.5q18 0 25.5 9.5t7.5 32.5h60
q0 -51 -16.5 -80.5t-57.5 -29.5q-20 0 -36.5 7z" />
    <glyph glyph-name="uni1ED8" unicode="&#x1ed8;" horiz-adv-x="539" 
d="M99.5 58.5q-51.5 67.5 -51.5 195.5v307q0 126 52 191t170 65t169.5 -65.5t51.5 -190.5v-308q0 -126 -52 -194t-169 -68q-119 0 -170.5 67.5zM355 117q22 37 22 112v355q0 74 -22 109.5t-85 35.5q-64 0 -86 -35.5t-22 -109.5v-355q0 -75 22 -112t86 -37q63 0 85 37z
M215 1022h109l87 -155h-81l-61 101l-60 -101h-80zM216 -63h108v-113h-108v113z" />
    <glyph glyph-name="uni1ED9" unicode="&#x1ed9;" horiz-adv-x="425" 
d="M82.5 46.5q-38.5 54.5 -38.5 158.5v168q0 104 38.5 158.5t130.5 54.5q91 0 129.5 -54.5t38.5 -158.5v-168q0 -104 -38.5 -158.5t-129.5 -54.5q-92 0 -130.5 54.5zM255 88q13 17 16 42t3 68v181q0 43 -3 68.5t-16 42.5t-42 17t-42.5 -17t-16.5 -42.5t-3 -68.5v-181
q0 -43 3 -68t16.5 -42t42.5 -17t42 17zM159 -63h108v-113h-108v113zM158 790h109l87 -155h-81l-61 101l-60 -101h-80z" />
    <glyph glyph-name="uni1EDA" unicode="&#x1eda;" horiz-adv-x="539" 
d="M99.5 58.5q-51.5 67.5 -51.5 195.5v307q0 126 52 191t170 65t169.5 -65.5t51.5 -190.5v-308q0 -126 -52 -194t-169 -68q-119 0 -170.5 67.5zM355 117q22 37 22 112v355q0 74 -22 109.5t-85 35.5q-64 0 -86 -35.5t-22 -109.5v-355q0 -75 22 -112t86 -37q63 0 85 37z
M314 810h20q29 0 41.5 18t12.5 56h83q0 -65 -34.5 -97.5t-100.5 -32.5h-22v56zM301 1056h107l-112 -198h-54z" />
    <glyph glyph-name="uni1EDB" unicode="&#x1edb;" horiz-adv-x="425" 
d="M82.5 46.5q-38.5 54.5 -38.5 158.5v168q0 104 38.5 158.5t130.5 54.5q91 0 129.5 -54.5t38.5 -158.5v-168q0 -104 -38.5 -158.5t-129.5 -54.5q-92 0 -130.5 54.5zM255 88q13 17 16 42t3 68v181q0 43 -3 68.5t-16 42.5t-42 17t-42.5 -17t-16.5 -42.5t-3 -68.5v-181
q0 -43 3 -68t16.5 -42t42.5 -17t42 17zM234 578h10q29 0 41.5 18t12.5 56h83q0 -65 -34.5 -97.5t-100.5 -32.5h-12v56zM243 824h107l-112 -198h-54z" />
    <glyph glyph-name="uni1EDC" unicode="&#x1edc;" horiz-adv-x="539" 
d="M99.5 58.5q-51.5 67.5 -51.5 195.5v307q0 126 52 191t170 65t169.5 -65.5t51.5 -190.5v-308q0 -126 -52 -194t-169 -68q-119 0 -170.5 67.5zM355 117q22 37 22 112v355q0 74 -22 109.5t-85 35.5q-64 0 -86 -35.5t-22 -109.5v-355q0 -75 22 -112t86 -37q63 0 85 37z
M314 810h20q29 0 41.5 18t12.5 56h83q0 -65 -34.5 -97.5t-100.5 -32.5h-22v56zM134 1056h107l57 -198h-53z" />
    <glyph glyph-name="uni1EDD" unicode="&#x1edd;" horiz-adv-x="425" 
d="M82.5 46.5q-38.5 54.5 -38.5 158.5v168q0 104 38.5 158.5t130.5 54.5q91 0 129.5 -54.5t38.5 -158.5v-168q0 -104 -38.5 -158.5t-129.5 -54.5q-92 0 -130.5 54.5zM255 88q13 17 16 42t3 68v181q0 43 -3 68.5t-16 42.5t-42 17t-42.5 -17t-16.5 -42.5t-3 -68.5v-181
q0 -43 3 -68t16.5 -42t42.5 -17t42 17zM234 578h10q29 0 41.5 18t12.5 56h83q0 -65 -34.5 -97.5t-100.5 -32.5h-12v56zM76 824h107l57 -198h-53z" />
    <glyph glyph-name="uni1EDE" unicode="&#x1ede;" horiz-adv-x="539" 
d="M99.5 58.5q-51.5 67.5 -51.5 195.5v307q0 126 52 191t170 65t169.5 -65.5t51.5 -190.5v-308q0 -126 -52 -194t-169 -68q-119 0 -170.5 67.5zM355 117q22 37 22 112v355q0 74 -22 109.5t-85 35.5q-64 0 -86 -35.5t-22 -109.5v-355q0 -75 22 -112t86 -37q63 0 85 37z
M314 810h20q29 0 41.5 18t12.5 56h83q0 -65 -34.5 -97.5t-100.5 -32.5h-22v56zM237 908q33 14 49 27t16 31q0 20 -17 29.5t-44 9.5t-51 -7v54q39 10 81 10q49 0 80 -22t31 -65q0 -41 -28 -64.5t-83 -42.5z" />
    <glyph glyph-name="uni1EDF" unicode="&#x1edf;" horiz-adv-x="425" 
d="M82.5 46.5q-38.5 54.5 -38.5 158.5v168q0 104 38.5 158.5t130.5 54.5q91 0 129.5 -54.5t38.5 -158.5v-168q0 -104 -38.5 -158.5t-129.5 -54.5q-92 0 -130.5 54.5zM255 88q13 17 16 42t3 68v181q0 43 -3 68.5t-16 42.5t-42 17t-42.5 -17t-16.5 -42.5t-3 -68.5v-181
q0 -43 3 -68t16.5 -42t42.5 -17t42 17zM234 578h10q29 0 41.5 18t12.5 56h83q0 -65 -34.5 -97.5t-100.5 -32.5h-12v56zM179 676q33 14 49 27t16 31q0 20 -17 29.5t-44 9.5t-51 -7v54q39 10 81 10q49 0 80 -22t31 -65q0 -41 -28 -64.5t-83 -42.5z" />
    <glyph glyph-name="uni1EE0" unicode="&#x1ee0;" horiz-adv-x="539" 
d="M99.5 58.5q-51.5 67.5 -51.5 195.5v307q0 126 52 191t170 65t169.5 -65.5t51.5 -190.5v-308q0 -126 -52 -194t-169 -68q-119 0 -170.5 67.5zM355 117q22 37 22 112v355q0 74 -22 109.5t-85 35.5q-64 0 -86 -35.5t-22 -109.5v-355q0 -75 22 -112t86 -37q63 0 85 37z
M314 810h20q29 0 41.5 18t12.5 56h83q0 -65 -34.5 -97.5t-100.5 -32.5h-22v56zM309.5 939q-16.5 7 -37.5 20q-20 11 -32 16.5t-25 5.5q-18 0 -26 -9.5t-8 -31.5h-61q0 108 80 108q17 0 32.5 -6.5t35.5 -18.5t32.5 -17.5t26.5 -5.5q18 0 25.5 9.5t7.5 32.5h60
q0 -51 -16.5 -80.5t-57.5 -29.5q-20 0 -36.5 7z" />
    <glyph glyph-name="uni1EE1" unicode="&#x1ee1;" horiz-adv-x="425" 
d="M82.5 46.5q-38.5 54.5 -38.5 158.5v168q0 104 38.5 158.5t130.5 54.5q91 0 129.5 -54.5t38.5 -158.5v-168q0 -104 -38.5 -158.5t-129.5 -54.5q-92 0 -130.5 54.5zM255 88q13 17 16 42t3 68v181q0 43 -3 68.5t-16 42.5t-42 17t-42.5 -17t-16.5 -42.5t-3 -68.5v-181
q0 -43 3 -68t16.5 -42t42.5 -17t42 17zM234 578h10q29 0 41.5 18t12.5 56h83q0 -65 -34.5 -97.5t-100.5 -32.5h-12v56zM251.5 707q-16.5 7 -37.5 20q-20 11 -32 16.5t-25 5.5q-18 0 -26 -9.5t-8 -31.5h-61q0 108 80 108q17 0 32.5 -6.5t35.5 -18.5t32.5 -17.5t26.5 -5.5
q18 0 25.5 9.5t7.5 32.5h60q0 -51 -16.5 -80.5t-57.5 -29.5q-20 0 -36.5 7z" />
    <glyph glyph-name="uni1EE2" unicode="&#x1ee2;" horiz-adv-x="539" 
d="M99.5 58.5q-51.5 67.5 -51.5 195.5v307q0 126 52 191t170 65t169.5 -65.5t51.5 -190.5v-308q0 -126 -52 -194t-169 -68q-119 0 -170.5 67.5zM355 117q22 37 22 112v355q0 74 -22 109.5t-85 35.5q-64 0 -86 -35.5t-22 -109.5v-355q0 -75 22 -112t86 -37q63 0 85 37z
M314 810h20q29 0 41.5 18t12.5 56h83q0 -65 -34.5 -97.5t-100.5 -32.5h-22v56zM216 -63h108v-113h-108v113z" />
    <glyph glyph-name="uni1EE3" unicode="&#x1ee3;" horiz-adv-x="425" 
d="M82.5 46.5q-38.5 54.5 -38.5 158.5v168q0 104 38.5 158.5t130.5 54.5q91 0 129.5 -54.5t38.5 -158.5v-168q0 -104 -38.5 -158.5t-129.5 -54.5q-92 0 -130.5 54.5zM255 88q13 17 16 42t3 68v181q0 43 -3 68.5t-16 42.5t-42 17t-42.5 -17t-16.5 -42.5t-3 -68.5v-181
q0 -43 3 -68t16.5 -42t42.5 -17t42 17zM234 578h10q29 0 41.5 18t12.5 56h83q0 -65 -34.5 -97.5t-100.5 -32.5h-12v56zM158 -63h108v-113h-108v113z" />
    <glyph glyph-name="uni1EE4" unicode="&#x1ee4;" horiz-adv-x="543" 
d="M139.5 25q-47.5 34 -65.5 95t-18 153v537h108v-542q0 -92 21.5 -140t86.5 -48t86.5 48t21.5 140v542h107v-537q0 -92 -18 -153t-65 -95t-132 -34t-132.5 34zM218 -63h108v-113h-108v113z" />
    <glyph glyph-name="uni1EE5" unicode="&#x1ee5;" horiz-adv-x="440" 
d="M70 26q-20 34 -20 84v468h107v-436q0 -33 10 -49.5t36 -16.5q32 0 75 36v466h107v-578h-107v57q-69 -65 -141 -65q-47 0 -67 34zM166 -63h108v-113h-108v113z" />
    <glyph glyph-name="uni1EE6" unicode="&#x1ee6;" horiz-adv-x="543" 
d="M139.5 25q-47.5 34 -65.5 95t-18 153v537h108v-542q0 -92 21.5 -140t86.5 -48t86.5 48t21.5 140v542h107v-537q0 -92 -18 -153t-65 -95t-132 -34t-132.5 34zM239 908q33 14 49 27t16 31q0 20 -17 29.5t-44 9.5t-51 -7v54q39 10 81 10q49 0 80 -22t31 -65q0 -41 -28 -64.5
t-83 -42.5z" />
    <glyph glyph-name="uni1EE7" unicode="&#x1ee7;" horiz-adv-x="440" 
d="M70 26q-20 34 -20 84v468h107v-436q0 -33 10 -49.5t36 -16.5q32 0 75 36v466h107v-578h-107v57q-69 -65 -141 -65q-47 0 -67 34zM187 676q33 14 49 27t16 31q0 20 -17 29.5t-44 9.5t-51 -7v54q39 10 81 10q49 0 80 -22t31 -65q0 -41 -28 -64.5t-83 -42.5z" />
    <glyph glyph-name="uni1EE8" unicode="&#x1ee8;" horiz-adv-x="543" 
d="M139.5 25q-47.5 34 -65.5 95t-18 153v537h108v-542q0 -92 21.5 -140t86.5 -48t86.5 48t21.5 140v542h107v-537q0 -92 -18 -153t-65 -95t-132 -34t-132.5 34zM412 810h10q29 0 41.5 18t12.5 56h83q0 -65 -34.5 -97.5t-100.5 -32.5h-12v56zM303 1056h107l-112 -198h-54z
" />
    <glyph glyph-name="uni1EE9" unicode="&#x1ee9;" horiz-adv-x="440" 
d="M70 26q-20 34 -20 84v468h107v-436q0 -33 10 -49.5t36 -16.5q32 0 75 36v466h107v-578h-107v57q-69 -65 -141 -65q-47 0 -67 34zM293 578h10q29 0 41.5 18t12.5 56h83q0 -65 -34.5 -97.5t-100.5 -32.5h-12v56zM251 824h107l-112 -198h-54z" />
    <glyph glyph-name="uni1EEA" unicode="&#x1eea;" horiz-adv-x="543" 
d="M139.5 25q-47.5 34 -65.5 95t-18 153v537h108v-542q0 -92 21.5 -140t86.5 -48t86.5 48t21.5 140v542h107v-537q0 -92 -18 -153t-65 -95t-132 -34t-132.5 34zM412 810h10q29 0 41.5 18t12.5 56h83q0 -65 -34.5 -97.5t-100.5 -32.5h-12v56zM136 1056h107l57 -198h-53z" />
    <glyph glyph-name="uni1EEB" unicode="&#x1eeb;" horiz-adv-x="440" 
d="M70 26q-20 34 -20 84v468h107v-436q0 -33 10 -49.5t36 -16.5q32 0 75 36v466h107v-578h-107v57q-69 -65 -141 -65q-47 0 -67 34zM293 578h10q29 0 41.5 18t12.5 56h83q0 -65 -34.5 -97.5t-100.5 -32.5h-12v56zM84 824h107l57 -198h-53z" />
    <glyph glyph-name="uni1EEC" unicode="&#x1eec;" horiz-adv-x="543" 
d="M139.5 25q-47.5 34 -65.5 95t-18 153v537h108v-542q0 -92 21.5 -140t86.5 -48t86.5 48t21.5 140v542h107v-537q0 -92 -18 -153t-65 -95t-132 -34t-132.5 34zM412 810h10q29 0 41.5 18t12.5 56h83q0 -65 -34.5 -97.5t-100.5 -32.5h-12v56zM239 908q33 14 49 27t16 31
q0 20 -17 29.5t-44 9.5t-51 -7v54q39 10 81 10q49 0 80 -22t31 -65q0 -41 -28 -64.5t-83 -42.5z" />
    <glyph glyph-name="uni1EED" unicode="&#x1eed;" horiz-adv-x="440" 
d="M70 26q-20 34 -20 84v468h107v-436q0 -33 10 -49.5t36 -16.5q32 0 75 36v466h107v-578h-107v57q-69 -65 -141 -65q-47 0 -67 34zM293 578h10q29 0 41.5 18t12.5 56h83q0 -65 -34.5 -97.5t-100.5 -32.5h-12v56zM187 676q33 14 49 27t16 31q0 20 -17 29.5t-44 9.5t-51 -7
v54q39 10 81 10q49 0 80 -22t31 -65q0 -41 -28 -64.5t-83 -42.5z" />
    <glyph glyph-name="uni1EEE" unicode="&#x1eee;" horiz-adv-x="543" 
d="M139.5 25q-47.5 34 -65.5 95t-18 153v537h108v-542q0 -92 21.5 -140t86.5 -48t86.5 48t21.5 140v542h107v-537q0 -92 -18 -153t-65 -95t-132 -34t-132.5 34zM412 810h10q29 0 41.5 18t12.5 56h83q0 -65 -34.5 -97.5t-100.5 -32.5h-12v56zM311.5 939q-16.5 7 -37.5 20
q-20 11 -32 16.5t-25 5.5q-18 0 -26 -9.5t-8 -31.5h-61q0 108 80 108q17 0 32.5 -6.5t35.5 -18.5t32.5 -17.5t26.5 -5.5q18 0 25.5 9.5t7.5 32.5h60q0 -51 -16.5 -80.5t-57.5 -29.5q-20 0 -36.5 7z" />
    <glyph glyph-name="uni1EEF" unicode="&#x1eef;" horiz-adv-x="440" 
d="M70 26q-20 34 -20 84v468h107v-436q0 -33 10 -49.5t36 -16.5q32 0 75 36v466h107v-578h-107v57q-69 -65 -141 -65q-47 0 -67 34zM293 578h10q29 0 41.5 18t12.5 56h83q0 -65 -34.5 -97.5t-100.5 -32.5h-12v56zM259.5 707q-16.5 7 -37.5 20q-20 11 -32 16.5t-25 5.5
q-18 0 -26 -9.5t-8 -31.5h-61q0 108 80 108q17 0 32.5 -6.5t35.5 -18.5t32.5 -17.5t26.5 -5.5q18 0 25.5 9.5t7.5 32.5h60q0 -51 -16.5 -80.5t-57.5 -29.5q-20 0 -36.5 7z" />
    <glyph glyph-name="uni1EF0" unicode="&#x1ef0;" horiz-adv-x="543" 
d="M139.5 25q-47.5 34 -65.5 95t-18 153v537h108v-542q0 -92 21.5 -140t86.5 -48t86.5 48t21.5 140v542h107v-537q0 -92 -18 -153t-65 -95t-132 -34t-132.5 34zM412 810h10q29 0 41.5 18t12.5 56h83q0 -65 -34.5 -97.5t-100.5 -32.5h-12v56zM218 -63h108v-113h-108v113z" />
    <glyph glyph-name="uni1EF1" unicode="&#x1ef1;" horiz-adv-x="440" 
d="M70 26q-20 34 -20 84v468h107v-436q0 -33 10 -49.5t36 -16.5q32 0 75 36v466h107v-578h-107v57q-69 -65 -141 -65q-47 0 -67 34zM293 578h10q29 0 41.5 18t12.5 56h83q0 -65 -34.5 -97.5t-100.5 -32.5h-12v56zM166 -63h108v-113h-108v113z" />
    <glyph glyph-name="Ygrave" unicode="&#x1ef2;" horiz-adv-x="481" 
d="M187 286l-175 524h105l124 -391l122 391h106l-174 -524v-286h-108v286zM105 1056h107l57 -198h-53z" />
    <glyph glyph-name="ygrave" unicode="&#x1ef3;" horiz-adv-x="392" 
d="M45 -63q60 0 82.5 9t22.5 34q0 12 -22 106l-116 492h108l78 -432l75 432h108l-138 -610q-14 -61 -59 -87t-126 -26h-13v82zM60 824h107l57 -198h-53z" />
    <glyph glyph-name="uni1EF4" unicode="&#x1ef4;" horiz-adv-x="481" 
d="M187 286l-175 524h105l124 -391l122 391h106l-174 -524v-286h-108v286zM187 -63h108v-113h-108v113z" />
    <glyph glyph-name="uni1EF5" unicode="&#x1ef5;" horiz-adv-x="392" 
d="M45 -63q60 0 82.5 9t22.5 34q0 12 -22 106l-116 492h108l78 -432l75 432h108l-138 -610q-14 -61 -59 -87t-126 -26h-13v82zM264 -63h108v-113h-108v113z" />
    <glyph glyph-name="uni1EF6" unicode="&#x1ef6;" horiz-adv-x="481" 
d="M187 286l-175 524h105l124 -391l122 391h106l-174 -524v-286h-108v286zM208 908q33 14 49 27t16 31q0 20 -17 29.5t-44 9.5t-51 -7v54q39 10 81 10q49 0 80 -22t31 -65q0 -41 -28 -64.5t-83 -42.5z" />
    <glyph glyph-name="uni1EF7" unicode="&#x1ef7;" horiz-adv-x="392" 
d="M45 -63q60 0 82.5 9t22.5 34q0 12 -22 106l-116 492h108l78 -432l75 432h108l-138 -610q-14 -61 -59 -87t-126 -26h-13v82zM163 676q33 14 49 27t16 31q0 20 -17 29.5t-44 9.5t-51 -7v54q39 10 81 10q49 0 80 -22t31 -65q0 -41 -28 -64.5t-83 -42.5z" />
    <glyph glyph-name="uni1EF8" unicode="&#x1ef8;" horiz-adv-x="481" 
d="M187 286l-175 524h105l124 -391l122 391h106l-174 -524v-286h-108v286zM280.5 939q-16.5 7 -37.5 20q-20 11 -32 16.5t-25 5.5q-18 0 -26 -9.5t-8 -31.5h-61q0 108 80 108q17 0 32.5 -6.5t35.5 -18.5t32.5 -17.5t26.5 -5.5q18 0 25.5 9.5t7.5 32.5h60q0 -51 -16.5 -80.5
t-57.5 -29.5q-20 0 -36.5 7z" />
    <glyph glyph-name="uni1EF9" unicode="&#x1ef9;" horiz-adv-x="392" 
d="M45 -63q60 0 82.5 9t22.5 34q0 12 -22 106l-116 492h108l78 -432l75 432h108l-138 -610q-14 -61 -59 -87t-126 -26h-13v82zM235.5 707q-16.5 7 -37.5 20q-20 11 -32 16.5t-25 5.5q-18 0 -26 -9.5t-8 -31.5h-61q0 108 80 108q17 0 32.5 -6.5t35.5 -18.5t32.5 -17.5
t26.5 -5.5q18 0 25.5 9.5t7.5 32.5h60q0 -51 -16.5 -80.5t-57.5 -29.5q-20 0 -36.5 7z" />
    <glyph glyph-name="uni2010" unicode="&#x2010;" horiz-adv-x="600" 
d="M49 342h223v-81h-223v81z" />
    <glyph glyph-name="endash" unicode="&#x2013;" horiz-adv-x="494" 
d="M8 285h479v-81h-479v81z" />
    <glyph glyph-name="emdash" unicode="&#x2014;" horiz-adv-x="965" 
d="M8 347h950v-78h-950v78z" />
    <glyph glyph-name="quoteleft" unicode="&#x2018;" horiz-adv-x="208" 
d="M31 676q0 81 23 123t76 44l19 -39q-30 -3 -42 -29t-12 -84h53v-112h-117v97z" />
    <glyph glyph-name="quoteright" unicode="&#x2019;" horiz-adv-x="208" 
d="M59 585q30 2 42 28t12 84h-53v113h117v-97q0 -81 -23 -123t-76 -45z" />
    <glyph glyph-name="quotesinglbase" unicode="&#x201a;" horiz-adv-x="208" 
d="M59 -93q30 2 42 28t12 84h-53v113h117v-97q0 -81 -23 -123t-76 -45z" />
    <glyph glyph-name="quotedblleft" unicode="&#x201c;" horiz-adv-x="384" 
d="M31 676q0 81 23 123t76 44l19 -39q-30 -3 -42 -29t-12 -84h53v-112h-117v97zM207 676q0 81 23 123t76 44l19 -39q-30 -3 -42 -29t-12 -84h53v-112h-117v97z" />
    <glyph glyph-name="quotedblright" unicode="&#x201d;" horiz-adv-x="384" 
d="M59 585q30 2 42 28t12 84h-53v113h117v-97q0 -81 -23 -123t-76 -45zM235 585q30 2 42 28t12 84h-53v113h117v-97q0 -81 -23 -123t-76 -45z" />
    <glyph glyph-name="quotedblbase" unicode="&#x201e;" horiz-adv-x="384" 
d="M235 -93q30 2 42 28t12 84h-53v113h117v-97q0 -81 -23 -123t-76 -45zM59 -93q30 2 42 28t12 84h-53v113h117v-97q0 -81 -23 -123t-76 -45z" />
    <glyph glyph-name="dagger" unicode="&#x2020;" horiz-adv-x="376" 
d="M137 539h-95v83h95v181h104v-181h95v-83h-95v-539h-104v539z" />
    <glyph glyph-name="daggerdbl" unicode="&#x2021;" horiz-adv-x="381" 
d="M140 253h-105v73h105v180h-105v72h105v226h102v-226h105v-72h-105v-180h105v-73h-105v-253h-102v253z" />
    <glyph glyph-name="bullet" unicode="&#x2022;" horiz-adv-x="363" 
d="M98 304q-30 32 -30 86t30 85.5t83 31.5q54 0 84 -32t30 -85q0 -55 -30 -86.5t-84 -31.5q-53 0 -83 32z" />
    <glyph glyph-name="ellipsis" unicode="&#x2026;" horiz-adv-x="553" 
d="M38 119h108v-119h-108v119zM224 119h108v-119h-108v119zM409 119h108v-119h-108v119z" />
    <glyph glyph-name="perthousand" unicode="&#x2030;" horiz-adv-x="1260" 
d="M75 429q-38 49 -38 139v63q0 92 37 138.5t120 46.5t120 -45t37 -135v-71q0 -90 -37.5 -137.5t-119.5 -47.5q-81 0 -119 49zM513 811h92l-222 -811h-93zM241.5 489q12.5 28 12.5 76v71q0 48 -12 73.5t-48 25.5t-47.5 -26t-11.5 -74v-71q0 -48 12.5 -75.5t46.5 -27.5
q35 0 47.5 28zM542 183v63q0 91 37 138t120 47t120 -45t37 -136v-70q0 -91 -37.5 -138t-119.5 -47q-157 0 -157 188zM909 183v62q0 92 37 139t120 47t120 -45t37 -136v-70q0 -91 -37.5 -138t-119.5 -47q-157 0 -157 188zM746.5 104q12.5 28 12.5 75v72q0 48 -12 73.5
t-48 25.5t-47.5 -26t-11.5 -74v-71q0 -48 12.5 -75.5t46.5 -27.5q35 0 47.5 28zM1113.5 103.5q12.5 27.5 12.5 75.5v72q0 48 -12 73.5t-48 25.5t-47.5 -26t-11.5 -74v-72q0 -47 12.5 -74.5t46.5 -27.5q35 0 47.5 27.5z" />
    <glyph glyph-name="minute" unicode="&#x2032;" horiz-adv-x="172" 
d="M45 810h97l-54 -232h-58z" />
    <glyph glyph-name="second" unicode="&#x2033;" horiz-adv-x="323" 
d="M45 810h97l-54 -212h-58zM196 810h97l-54 -212h-58z" />
    <glyph glyph-name="guilsinglleft" unicode="&#x2039;" horiz-adv-x="275" 
d="M43 269v52l199 228v-134l-117 -120l117 -121v-133z" />
    </font>
</defs>
</svg>
